osu file format v14

[General]
AudioFilename: audio.mp3
AudioLeadIn: 0
PreviewTime: 74266
Countdown: 0
SampleSet: Soft
StackLeniency: 0.3
Mode: 0
LetterboxInBreaks: 0
WidescreenStoryboard: 1

[Editor]
Bookmarks: 14266
DistanceSpacing: 1.2
BeatDivisor: 4
GridSize: 4
TimelineZoom: 3.239999

[Metadata]
Title:Knock Knock
TitleUnicode:Knock Knock
Artist:Angerfist
ArtistUnicode:Angerfist
Creator:Nuvolina
Version:Hard
Source:
Tags:hardcore Anto Yonaka- the dead face dimension
BeatmapID:1813418
BeatmapSetID:865725

[Difficulty]
HPDrainRate:5
CircleSize:3.5
OverallDifficulty:5
ApproachRate:7
SliderMultiplier:1.4
SliderTickRate:1

[Events]
//Background and Video events
0,0,"bg.jpg",0,0
//Break Periods
2,26818,28190
//Storyboard Layer 0 (Background)
//Storyboard Layer 1 (Fail)
//Storyboard Layer 2 (Pass)
//Storyboard Layer 3 (Foreground)
//Storyboard Sound Samples

[TimingPoints]
855,352.941176470588,4,2,0,55,1,0
855,-166.666666666667,4,2,0,55,0,0
6502,-111.111111111111,4,2,0,55,0,0
17796,-100,4,2,0,60,0,0
29090,-83.3333333333333,4,2,0,70,0,0
34737,-100,4,2,0,60,0,0
40384,-76.9230769230769,4,2,0,80,0,0
40649,-76.9230769230769,4,2,0,5,0,0
40737,-76.9230769230769,4,2,0,80,0,0
43472,-76.9230769230769,4,2,0,5,0,0
43560,-76.9230769230769,4,2,0,80,0,0
46296,-76.9230769230769,4,2,0,5,0,0
46384,-76.9230769230769,4,2,0,80,0,0
49119,-76.9230769230769,4,2,0,5,0,0
49207,-76.9230769230769,4,2,0,80,0,0
51943,-76.9230769230769,4,2,0,5,0,0
52031,-76.9230769230769,4,2,0,80,0,0
60413,-76.9230769230769,4,2,0,5,0,0
60502,-76.9230769230769,4,2,0,80,0,0
62972,-100,4,2,0,80,0,0
68619,-83.3333333333333,4,2,0,80,0,0
74266,-76.9230769230769,4,2,0,80,0,0
77354,-76.9230769230769,4,2,0,5,0,0
77443,-76.9230769230769,4,2,0,80,0,0
80178,-76.9230769230769,4,2,0,5,0,0
80266,-76.9230769230769,4,2,0,80,0,0
83002,-76.9230769230769,4,2,0,5,0,0
83090,-76.9230769230769,4,2,0,80,0,0
85472,-76.9230769230769,4,2,0,5,0,0
85560,-76.9230769230769,4,2,0,80,0,0
88649,-76.9230769230769,4,2,0,5,0,0
88737,-76.9230769230769,4,2,0,80,0,0

[Colours]
Combo1 : 223,223,223
Combo2 : 0,255,255
Combo3 : 18,124,255

[HitObjects]
89,288,855,6,0,L|83:153,2,125.999996154785
177,240,2266,2,0,L|171:105,2,125.999996154785
267,288,3678,2,0,L|261:153,2,125.999996154785
356,240,5090,2,0,L|350:105,2,125.999996154785
296,351,6502,5,0,0:0:0:0:
296,351,6854,2,0,L|382:363,1,62.9999980773926
449,332,7207,2,0,L|467:256,1,62.9999980773926
477,176,7560,2,0,L|460:92,1,62.9999980773926
417,32,7913,6,0,P|378:27|347:32,2,62.9999980773926
464,114,8443,1,0,0:0:0:0:
377,151,8619,2,0,P|338:156|307:151,2,62.9999980773926
478,310,9325,5,0,0:0:0:0:
478,310,9678,2,0,P|441:303|403:313,1,62.9999980773926
329,346,10031,2,0,P|292:353|254:343,1,62.9999980773926
172,350,10384,2,0,P|176:320|203:275,1,62.9999980773926
158,201,10737,6,0,L|82:176,2,62.9999980773926
189,290,11266,1,0,0:0:0:0:
257,226,11443,2,0,L|293:145,1,62.9999980773926
326,84,11796,1,0,0:0:0:0:
251,26,11972,1,0,0:0:0:0:
169,77,12149,1,0,0:0:0:0:
169,77,12502,6,0,L|152:148,1,62.9999980773926
67,174,12854,2,0,L|71:254,1,62.9999980773926
156,275,13207,2,0,L|176:357,1,62.9999980773926
265,336,13560,6,0,P|302:343|344:330,2,62.9999980773926
170,336,14090,1,0,0:0:0:0:
75,331,14266,2,0,P|38:324|-4:337,2,62.9999980773926
265,336,14972,1,0,0:0:0:0:
265,336,15325,6,0,L|339:323,1,62.9999980773926
353,234,15678,2,0,L|273:246,1,62.9999980773926
248,158,16031,2,0,L|329:152,1,62.9999980773926
401,126,16384,6,0,P|383:92|347:66,2,62.9999980773926
439,212,16913,1,0,0:0:0:0:
455,305,17090,2,0,L|385:335,1,62.9999980773926
307,360,17443,1,0,0:0:0:0:
250,284,17619,1,0,0:0:0:0:
307,195,17796,1,0,0:0:0:0:
153,52,18149,6,0,L|153:134,1,70
140,226,18502,2,0,P|176:231|227:222,1,70
307,195,18854,2,0,P|315:230|307:277,1,70
232,333,19207,6,0,P|257:359|303:373,2,70
209,227,19737,1,0,0:0:0:0:
307,195,19913,2,0,P|346:200|399:193,1,70
469,147,20266,1,0,0:0:0:0:
292,32,20619,5,0,0:0:0:0:
292,32,20972,2,0,L|202:23,1,70
152,103,21325,2,0,L|65:96,1,70
51,198,21678,2,0,L|26:263,1,70
96,342,22031,6,0,P|129:349|164:344,2,70
26,263,22560,1,0,0:0:0:0:
129,243,22737,2,0,P|163:235|208:246,1,70
297,273,23090,1,0,0:0:0:0:
377,339,23266,1,0,0:0:0:0:
459,273,23443,1,0,0:0:0:0:
459,273,23796,6,0,L|461:203,1,70
359,178,24149,2,0,L|361:108,1,70
287,32,24502,2,0,P|245:27|200:40,1,70
129,88,24854,6,0,P|107:123|104:170,2,70
218,32,25384,1,0,0:0:0:0:
260,127,25560,2,0,P|266:169|260:203,1,70
174,254,25913,2,0,P|121:325|224:281,1,280
51,331,29090,5,0,0:0:0:0:
51,331,29443,2,0,P|89:341|147:324,1,83.9999974365235
201,247,29796,2,0,P|163:237|105:254,1,83.9999974365235
52,158,30149,2,0,P|60:115|46:59,1,83.9999974365235
158,45,30502,6,0,P|204:36|247:47,2,83.9999974365235
53,75,31031,1,0,0:0:0:0:
158,45,31207,2,0,P|150:89|160:134,1,83.9999974365235
219,217,31560,1,0,0:0:0:0:
377,66,31913,5,0,0:0:0:0:
377,66,32266,2,0,P|387:107|374:161,1,83.9999974365235
309,231,32619,2,0,P|299:272|312:326,1,83.9999974365235
413,332,32972,2,0,P|423:291|410:237,1,83.9999974365235
380,147,33325,6,0,P|426:138|469:149,2,83.9999974365235
285,201,33854,1,0,0:0:0:0:
208,123,34030,2,0,P|200:79|210:34,1,83.9999974365235
315,24,34383,1,0,0:0:0:0:
285,201,34737,6,0,L|283:291,1,70
193,256,35090,2,0,L|191:346,1,70
100,328,35443,2,0,L|98:238,1,70
8,273,35796,2,0,L|6:183,1,70
75,143,36149,6,0,L|158:138,1,70
185,57,36502,2,0,L|254:52,1,70
341,81,36854,2,0,L|426:91,1,70
410,180,37207,2,0,L|324:194,1,70
310,287,37560,5,0,0:0:0:0:
276,298,37648,1,0,0:0:0:0:
242,299,37736,1,0,0:0:0:0:
208,289,37824,1,0,0:0:0:0:
182,265,37913,2,0,L|123:265,3,35
125,237,38266,6,0,L|66:237,3,35
79,203,38619,2,0,L|20:203,3,35
36,168,38972,5,0,0:0:0:0:
481,342,40384,6,0,P|402:359|323:337,1,136.499993751526
296,331,40737,2,0,P|289:283|312:218,1,90.9999958343508
401,204,41090,2,0,P|408:156|380:92,1,90.9999958343508
307,51,41443,2,0,P|257:43|203:59,1,90.9999958343508
119,99,41796,6,0,P|112:147|133:209,2,90.9999958343508
218,51,42325,1,0,0:0:0:0:
219,160,42502,2,0,P|263:170|316:158,2,90.9999958343508
63,313,43207,6,0,P|144:332|219:306,1,136.499993751526
223,273,43560,2,0,B|276:261|276:261|334:278,1,90.9999958343508
381,355,43913,2,0,P|438:361|494:348,1,90.9999958343508
488,247,44266,2,0,P|496:195|469:147,1,90.9999958343508
372,150,44619,6,0,P|322:160|262:142,2,90.9999958343508
481,160,45149,1,0,0:0:0:0:
428,64,45325,1,0,0:0:0:0:
372,150,45502,1,0,0:0:0:0:
412,248,45678,2,0,L|408:293,2,45.4999979171754
372,150,46031,6,0,B|256:134|256:134|251:176,1,136.499993751526
240,206,46384,2,0,P|180:218|124:200,1,90.9999958343508
50,170,46737,2,0,P|42:118|64:64,1,90.9999958343508
157,48,47090,2,0,P|213:60|263:43,1,90.9999958343508
354,59,47443,6,0,P|410:47|458:67,2,90.9999958343508
296,152,47972,1,0,0:0:0:0:
244,248,48149,2,0,P|288:264|345:255,1,90.9999958343508
425,205,48502,1,0,0:0:0:0:
425,205,48854,6,0,P|441:297|417:363,1,136.499993751526
375,335,49207,2,0,P|322:323|264:345,1,90.9999958343508
180,304,49560,2,0,P|124:316|70:298,1,90.9999958343508
44,208,49913,2,0,L|8:209,4,30.3333319447836
113,185,50266,5,0,0:0:0:0:
200,118,50443,1,0,0:0:0:0:
280,184,50619,2,0,P|336:191|397:183,1,90.9999958343508
388,80,50972,5,0,0:0:0:0:
388,80,51325,1,0,0:0:0:0:
388,80,51678,6,0,B|347:96|347:96|249:74,1,136.499993751526
205,55,52031,1,0,0:0:0:0:
96,41,52207,1,0,0:0:0:0:
46,138,52384,2,0,L|48:244,2,90.9999958343508
96,41,52913,1,0,0:0:0:0:
205,55,53090,6,0,L|211:167,2,90.9999958343508
310,27,53619,1,0,0:0:0:0:
411,68,53796,1,0,0:0:0:0:
386,174,53972,1,0,0:0:0:0:
296,236,54149,2,0,P|270:241|238:235,2,45.4999979171754
380,305,54502,5,0,0:0:0:0:
380,305,54854,2,0,P|340:333|296:339,1,90.9999958343508
197,297,55207,2,0,P|149:292|103:328,1,90.9999958343508
33,238,55560,2,0,P|14:199|20:138,1,90.9999958343508
79,63,55913,6,0,P|127:48|186:56,2,90.9999958343508
14,152,56443,1,0,0:0:0:0:
122,164,56619,2,0,P|188:150|263:178,2,136.499993751526
177,305,57325,5,0,0:0:0:0:
177,305,57678,2,0,B|223:290|223:290|282:313,1,90.9999958343508
366,341,58031,2,0,P|359:287|375:231,1,90.9999958343508
466,207,58384,2,0,P|473:153|457:97,1,90.9999958343508
358,139,58737,6,0,P|306:151|254:124,2,90.9999958343508
465,117,59266,1,0,0:0:0:0:
415,19,59443,1,0,0:0:0:0:
310,50,59619,1,0,0:0:0:0:
205,16,59796,1,0,0:0:0:0:
205,16,60149,6,0,B|113:19|113:19|130:63,1,136.499993751526
169,100,60502,2,0,P|180:157|162:204,1,90.9999958343508
85,254,60854,2,0,P|74:311|92:358,1,90.9999958343508
183,298,61207,2,0,P|231:285|283:303,1,90.9999958343508
376,319,61560,6,0,P|404:325|444:313,3,45.4999979171754
460,285,61913,1,0,0:0:0:0:
413,185,62090,1,0,0:0:0:0:
304,190,62266,2,0,P|256:198|205:190,1,90.9999958343508
266,96,62619,2,0,P|314:88|365:96,1,90.9999958343508
304,190,62972,6,0,L|308:283,1,70
202,245,63325,2,0,L|210:326,1,70
103,316,63678,2,0,L|116:247,1,70
25,192,64031,2,0,L|68:114,1,70
136,59,64384,6,0,P|173:64|224:49,1,70
298,105,64737,2,0,P|335:100|386:115,1,70
421,196,65090,1,0,0:0:0:0:
368,286,65266,1,0,0:0:0:0:
271,243,65443,1,0,0:0:0:0:
271,243,65796,6,0,L|189:243,1,70
142,155,66149,2,0,L|224:155,1,70
271,68,66502,2,0,L|353:68,1,70
386,162,66854,2,0,L|304:162,1,70
212,155,67207,6,0,L|140:154,1,70
57,217,67560,2,0,L|62:298,1,70
154,335,67913,2,0,L|247:342,1,70
313,285,68266,2,0,L|386:275,1,70
478,223,68619,5,0,0:0:0:0:
422,128,68796,1,0,0:0:0:0:
317,158,68972,2,0,P|271:164|231:158,1,83.9999974365235
124,148,69325,2,0,P|133:105|167:60,1,83.9999974365235
261,49,69678,2,0,P|306:56|351:49,1,83.9999974365235
451,30,70031,5,0,0:0:0:0:
497,128,70207,1,0,0:0:0:0:
410,195,70384,2,0,P|416:243|412:298,1,83.9999974365235
324,340,70737,2,0,P|318:292|322:237,1,83.9999974365235
230,192,71090,2,0,P|185:192|149:165,1,83.9999974365235
196,66,71443,5,0,0:0:0:0:
226,49,71531,1,0,0:0:0:0:
260,41,71619,1,0,0:0:0:0:
295,43,71707,1,0,0:0:0:0:
329,86,71796,2,0,P|357:90|379:87,3,41.9999987182618
422,107,72149,6,0,P|427:138|420:169,3,41.9999987182618
381,180,72502,2,0,P|375:210|388:244,3,41.9999987182618
409,264,72854,5,0,0:0:0:0:
48,330,74266,5,0,0:0:0:0:
48,330,74619,2,0,L|148:329,1,90.9999958343508
219,254,74972,2,0,P|266:244|321:262,1,90.9999958343508
368,344,75325,2,0,P|415:354|470:336,1,90.9999958343508
452,234,75678,6,0,P|442:184|467:133,2,90.9999958343508
456,344,76207,1,0,0:0:0:0:
452,234,76384,1,0,0:0:0:0:
353,188,76560,1,0,0:0:0:0:
255,234,76737,1,0,0:0:0:0:
255,234,77090,6,0,P|182:253|117:233,1,136.499993751526
75,213,77443,2,0,B|63:164|63:164|82:114,1,90.9999958343508
167,63,77796,2,0,B|212:74|212:74|258:65,1,90.9999958343508
345,128,78149,2,0,B|390:117|390:117|436:126,1,90.9999958343508
484,222,78502,6,0,P|494:276|482:331,2,90.9999958343508
429,126,79031,1,0,0:0:0:0:
380,223,79207,2,0,P|355:228|326:223,2,45.4999979171754
429,126,79560,1,0,0:0:0:0:
429,126,79913,6,0,L|279:126,1,136.499993751526
237,130,80266,2,0,P|230:188|239:234,1,90.9999958343508
341,246,80619,2,0,P|348:304|339:350,1,90.9999958343508
234,352,80972,2,0,P|183:364|138:349,1,90.9999958343508
65,281,81325,6,0,P|50:234|60:176,2,90.9999958343508
146,354,81854,1,0,0:0:0:0:
182,250,82031,2,0,P|233:238|278:253,1,90.9999958343508
360,308,82384,1,0,0:0:0:0:
360,308,82737,6,0,P|373:251|346:176,1,136.499993751526
312,136,83090,2,0,P|263:145|203:130,1,90.9999958343508
113,128,83443,2,0,P|128:83|161:47,1,90.9999958343508
374,59,83972,5,0,0:0:0:0:
425,155,84149,1,0,0:0:0:0:
370,249,84325,1,0,0:0:0:0:
419,346,84502,2,0,L|486:348,2,45.4999979171754
370,249,84854,2,0,L|263:250,1,90.9999958343508
192,316,85207,2,0,P|119:333|52:314,1,136.499993751526
27,274,85560,5,0,0:0:0:0:
79,62,85913,2,0,L|171:57,1,90.9999958343508
197,162,86266,2,0,L|289:157,1,90.9999958343508
384,104,86619,2,0,P|398:156|386:205,1,90.9999958343508
314,269,86972,6,0,P|300:321|312:370,2,90.9999958343508
391,191,87502,1,0,0:0:0:0:
285,162,87678,2,0,P|235:151|186:166,1,90.9999958343508
87,157,88031,1,0,0:0:0:0:
87,157,88384,6,0,P|68:96|93:25,1,136.499993751526
144,37,88737,2,0,P|190:46|246:34,1,90.9999958343508
330,88,89090,2,0,P|376:79|432:91,1,90.9999958343508
435,194,89443,2,0,P|425:245|440:291,1,90.9999958343508
341,339,89796,6,0,B|296:351|296:351|233:345,2,90.9999958343508
434,281,90325,1,0,0:0:0:0:
338,226,90502,1,0,0:0:0:0:
338,226,90854,1,0,0:0:0:0:
127,169,91207,5,0,0:0:0:0:
74,72,91384,2,0,P|68:53|47:37,2,45.4999979171754
127,169,91737,1,0,0:0:0:0:
192,82,91913,2,0,P|237:68|294:91,2,90.9999958343508
127,169,92443,1,0,0:0:0:0:
224,217,92619,6,0,P|210:262|233:319,2,90.9999958343508
316,157,93149,1,0,0:0:0:0:
405,219,93325,2,0,P|419:264|396:321,2,90.9999958343508
316,157,93854,1,0,0:0:0:0:
386,72,94031,6,0,B|435:68|435:68|487:88,2,90.9999958343508
316,157,94560,1,0,0:0:0:0:
245,73,94737,2,0,B|196:69|196:69|144:89,2,90.9999958343508
316,157,95266,1,0,0:0:0:0:
256,192,95443,12,0,96855,0:0:0:0:
