osu file format v14

[General]
AudioFilename: audio.mp3
AudioLeadIn: 0
PreviewTime: 74266
Countdown: 0
SampleSet: Soft
StackLeniency: 0.2
Mode: 0
LetterboxInBreaks: 0
WidescreenStoryboard: 1

[Editor]
DistanceSpacing: 1.2
BeatDivisor: 4
GridSize: 4
TimelineZoom: 3.239999

[Metadata]
Title:Knock Knock
TitleUnicode:Knock Knock
Artist:Angerfist
ArtistUnicode:Angerfist
Creator:Nuvolina
Version:Extra
Source:
Tags:hardcore Anto Yonaka- the dead face dimension
BeatmapID:1810120
BeatmapSetID:865725

[Difficulty]
HPDrainRate:6.5
CircleSize:4
OverallDifficulty:9
ApproachRate:9.5
SliderMultiplier:1.8
SliderTickRate:1

[Events]
//Background and Video events
0,0,"bg.jpg",0,0
//Break Periods
2,26818,28565
//Storyboard Layer 0 (Background)
//Storyboard Layer 1 (Fail)
//Storyboard Layer 2 (Pass)
//Storyboard Layer 3 (Foreground)
//Storyboard Sound Samples

[TimingPoints]
855,352.941176470588,4,2,1,55,1,0
855,-166.666666666667,4,2,1,55,0,0
1296,-166.666666666667,4,2,1,5,0,0
1384,-166.666666666667,4,2,1,55,0,0
1825,-166.666666666667,4,2,1,5,0,0
1913,-166.666666666667,4,2,1,55,0,0
2178,-166.666666666667,4,2,1,5,0,0
2266,-166.666666666667,4,2,1,55,0,0
2707,-166.666666666667,4,2,1,5,0,0
2796,-166.666666666667,4,2,1,55,0,0
3237,-166.666666666667,4,2,1,5,0,0
3325,-166.666666666667,4,2,1,55,0,0
3590,-166.666666666667,4,2,1,5,0,0
3678,-166.666666666667,4,2,1,55,0,0
4119,-166.666666666667,4,2,1,5,0,0
4207,-166.666666666667,4,2,1,55,0,0
4649,-166.666666666667,4,2,1,5,0,0
4737,-166.666666666667,4,2,1,55,0,0
5002,-166.666666666667,4,2,1,5,0,0
5090,-166.666666666667,4,2,1,55,0,0
5531,-166.666666666667,4,2,1,5,0,0
5619,-166.666666666667,4,2,1,55,0,0
6060,-166.666666666667,4,2,1,5,0,0
6149,-166.666666666667,4,2,1,55,0,0
6502,-111.111111111111,4,2,1,55,0,0
17796,-100,4,2,1,60,0,0
29090,-83.3333333333333,4,2,1,70,0,0
34737,-100,4,2,1,60,0,0
35002,-100,4,2,1,5,0,0
35090,-90.9090909090909,4,2,1,60,0,0
35354,-90.9090909090909,4,2,1,5,0,0
35443,-83.3333333333333,4,2,1,60,0,0
35707,-83.3333333333333,4,2,1,5,0,0
35796,-76.9230769230769,4,2,1,60,0,0
36060,-76.9230769230769,4,2,1,5,0,0
36149,-100,4,2,1,60,0,0
36413,-100,4,2,1,5,0,0
36502,-90.9090909090909,4,2,1,60,0,0
36766,-90.9090909090909,4,2,1,5,0,0
36854,-83.3333333333333,4,2,1,60,0,0
37119,-83.3333333333333,4,2,1,5,0,0
37207,-76.9230769230769,4,2,1,60,0,0
37472,-76.9230769230769,4,2,1,5,0,0
37560,-76.9230769230769,4,2,1,60,0,0
40384,-55.5555555555556,4,2,1,80,0,0
51678,-55.5555555555556,4,2,1,80,0,0
52384,-133.333333333333,4,2,1,80,0,0
53090,-55.5555555555556,4,2,1,80,0,0
56619,-133.333333333333,4,2,1,80,0,0
57325,-55.5555555555556,4,2,1,80,0,0
62972,-76.9230769230769,4,2,1,80,0,0
63325,-71.4285714285714,4,2,1,80,0,0
63678,-66.6666666666667,4,2,1,80,0,0
64031,-62.5,4,2,1,80,0,0
64384,-76.9230769230769,4,2,1,80,0,0
66149,-71.4285714285714,4,2,1,80,0,0
66502,-66.6666666666667,4,2,1,80,0,0
66854,-62.5,4,2,1,80,0,0
67207,-76.9230769230769,4,2,1,80,0,0
67560,-71.4285714285714,4,2,1,80,0,0
67913,-66.6666666666667,4,2,1,80,0,0
68266,-62.5,4,2,1,80,0,0
68619,-66.6666666666667,4,2,1,80,0,0
74266,-55.5555555555556,4,2,1,80,0,0
85119,-55.5555555555556,4,2,1,5,0,0
85207,-55.5555555555556,4,2,1,80,0,0

[Colours]
Combo1 : 223,223,223
Combo2 : 0,255,255
Combo3 : 18,124,255

[HitObjects]
401,329,855,6,0,P|417:269|397:189,1,134.999995880127,0|0,0:0|0:0,0:0:0:0:
308,198,1384,2,0,P|292:258|312:338,1,134.999995880127,0|0,0:0|0:0,0:0:0:0:
187,269,1913,6,0,P|146:256|107:261,1,80.9999975280763,0|0,0:0|0:0,0:0:0:0:
13,261,2266,2,0,P|3:192|44:124,1,134.999995880127,0|0,0:0|0:0,0:0:0:0:
0,45,2796,2,0,P|63:39|117:89,1,134.999995880127,0|0,0:0|0:0,0:0:0:0:
204,207,3325,6,0,P|244:218|293:204,1,80.9999975280763,0|0,0:0|0:0,0:0:0:0:
273,115,3678,2,0,P|342:95|410:119,1,134.999995880127,0|0,0:0|0:0,0:0:0:0:
409,207,4207,2,0,P|340:227|272:203,1,134.999995880127,0|0,0:0|0:0,0:0:0:0:
101,179,4737,6,0,L|110:279,1,80.9999975280763,0|0,0:0|0:0,0:0:0:0:
42,328,5090,2,0,P|103:358|181:322,1,134.999995880127,0|0,0:0|0:0,0:0:0:0:
222,265,5619,2,0,P|283:235|361:271,1,134.999995880127,0|0,0:0|0:0,0:0:0:0:
291,345,6148,5,0,0:0:0:0:
291,345,6502,2,0,P|355:360|428:330,1,121.499996292114,0|0,0:0|0:0,0:0:0:0:
453,271,6854,6,0,P|460:230|443:180,1,80.9999975280763,0|0,0:0|0:0,0:0:0:0:
376,105,7207,1,0,0:0:0:0:
433,7,7384,1,0,0:0:0:0:
376,105,7560,2,0,P|331:95|284:110,1,80.9999975280763,0|0,0:0|0:0,0:0:0:0:
228,192,7913,5,0,0:0:0:0:
380,248,8090,1,0,0:0:0:0:
220,221,8266,5,0,0:0:0:0:
382,213,8443,1,0,0:0:0:0:
324,61,8619,5,0,0:0:0:0:
382,213,8796,1,0,0:0:0:0:
228,192,8972,1,0,0:0:0:0:
228,192,9325,5,0,0:0:0:0:
228,192,9678,2,0,P|187:182|143:195,1,80.9999975280763,0|0,0:0|0:0,0:0:0:0:
93,289,10031,1,0,0:0:0:0:
201,320,10207,1,0,0:0:0:0:
306,277,10384,2,0,P|314:325|306:369,1,80.9999975280763,0|0,0:0|0:0,0:0:0:0:
201,320,10737,5,0,0:0:0:0:
142,173,10913,1,0,0:0:0:0:
249,51,11090,5,0,0:0:0:0:
242,212,11266,1,0,0:0:0:0:
398,162,11443,5,0,0:0:0:0:
243,116,11619,1,0,0:0:0:0:
361,4,11796,5,0,0:0:0:0:
311,157,11972,1,0,0:0:0:0:
469,122,12149,1,0,0:0:0:0:
469,122,12502,6,0,L|480:220,1,80.9999975280763,0|0,0:0|0:0,0:0:0:0:
497,313,12854,1,0,0:0:0:0:
385,289,13031,1,0,0:0:0:0:
340,185,13207,2,0,P|304:209|282:248,1,80.9999975280763,0|0,0:0|0:0,0:0:0:0:
223,336,13560,5,0,0:0:0:0:
87,246,13737,1,0,0:0:0:0:
34,93,13913,5,0,0:0:0:0:
155,200,14090,1,0,0:0:0:0:
144,38,14266,5,0,0:0:0:0:
237,170,14443,1,0,0:0:0:0:
267,11,14619,5,0,0:0:0:0:
322,163,14796,1,0,0:0:0:0:
433,45,14972,1,0,0:0:0:0:
433,45,15325,6,0,P|437:79|424:132,1,80.9999975280763,0|0,0:0|0:0,0:0:0:0:
322,163,15678,1,0,0:0:0:0:
292,272,15854,1,0,0:0:0:0:
184,233,16031,2,0,L|83:233,1,80.9999975280763,0|0,0:0|0:0,0:0:0:0:
31,144,16384,5,0,0:0:0:0:
41,305,16560,1,0,0:0:0:0:
184,233,16737,5,0,0:0:0:0:
216,74,16913,1,0,0:0:0:0:
345,172,17090,5,0,0:0:0:0:
266,313,17266,1,0,0:0:0:0:
427,297,17443,5,0,0:0:0:0:
486,146,17619,1,0,0:0:0:0:
345,172,17796,1,0,0:0:0:0:
345,172,18149,6,0,L|246:172,1,90,0|0,0:0|0:0,0:0:0:0:
120,119,18502,2,0,P|106:164|124:217,1,90,0|0,0:0|0:0,0:0:0:0:
194,324,18854,2,0,P|208:279|190:226,1,90,0|0,0:0|0:0,0:0:0:0:
120,119,19207,5,0,0:0:0:0:
293,69,19384,1,0,0:0:0:0:
293,248,19560,5,0,0:0:0:0:
201,92,19737,1,0,0:0:0:0:
380,103,19913,5,0,0:0:0:0:
219,186,20090,1,0,0:0:0:0:
371,281,20266,1,0,0:0:0:0:
371,281,20619,5,0,0:0:0:0:
371,281,20972,2,0,L|371:180,1,90,0|0,0:0|0:0,0:0:0:0:
415,53,21325,2,0,P|370:42|317:60,1,90,0|0,0:0|0:0,0:0:0:0:
206,130,21678,2,0,P|251:141|304:123,1,90,0|0,0:0|0:0,0:0:0:0:
415,53,22031,5,0,0:0:0:0:
485,218,22207,1,0,0:0:0:0:
306,193,22384,5,0,0:0:0:0:
472,125,22560,1,0,0:0:0:0:
426,299,22737,5,0,0:0:0:0:
377,126,22913,1,0,0:0:0:0:
255,259,23090,5,0,0:0:0:0:
425,202,23266,1,0,0:0:0:0:
290,81,23443,1,0,0:0:0:0:
290,81,23796,6,0,P|246:90|196:81,1,90,0|0,0:0|0:0,0:0:0:0:
65,34,24149,2,0,P|49:82|55:137,1,90,0|0,0:0|0:0,0:0:0:0:
124,244,24502,2,0,P|140:196|134:141,1,90,0|0,0:0|0:0,0:0:0:0:
65,34,24854,5,0,0:0:0:0:
219,126,25031,1,0,0:0:0:0:
52,193,25207,5,0,0:0:0:0:
170,56,25384,1,0,0:0:0:0:
225,226,25560,5,0,0:0:0:0:
86,109,25737,1,0,0:0:0:0:
55,285,25913,1,0,0:0:0:0:
55,285,26266,6,0,P|109:341|206:312,1,180,0|0,0:0|0:0,0:0:0:0:
185,60,29090,6,0,P|204:119|140:184,1,161.999995056153,0|0,0:0|0:0,0:0:0:0:
23,127,29443,1,0,0:0:0:0:
353,62,29619,1,0,0:0:0:0:
50,152,29796,1,0,0:0:0:0:
344,90,29972,1,0,0:0:0:0:
145,287,30149,2,0,P|130:233|150:165,1,107.999996704102,0|0,0:0|0:0,0:0:0:0:
288,75,30502,5,0,0:0:0:0:
220,256,30678,1,0,0:0:0:0:
146,45,30855,5,0,0:0:0:0:
61,243,31031,1,0,0:0:0:0:
264,172,31207,5,0,0:0:0:0:
67,80,31384,1,0,0:0:0:0:
288,75,31560,1,0,0:0:0:0:
233,341,31913,6,0,P|220:265|286:196,1,161.999995056153,0|0,0:0|0:0,0:0:0:0:
395,274,32266,1,0,0:0:0:0:
65,339,32442,1,0,0:0:0:0:
368,249,32619,1,0,0:0:0:0:
74,311,32795,1,0,0:0:0:0:
265,98,32972,2,0,P|280:152|260:220,1,107.999996704102,0|0,0:0|0:0,0:0:0:0:
173,233,33325,5,0,0:0:0:0:
327,311,33502,1,0,0:0:0:0:
166,247,33678,5,0,0:0:0:0:
372,209,33854,1,0,0:0:0:0:
174,280,34031,5,0,0:0:0:0:
338,136,34207,1,0,0:0:0:0:
141,62,34384,1,0,0:0:0:0:
141,62,34737,6,0,L|303:52,1,135,0|0,0:0|0:0,0:0:0:0:
141,85,35090,2,0,L|309:73,1,148.50000453186,0|0,0:0|0:0,0:0:0:0:
142,107,35443,2,0,L|312:95,1,161.999995056153,0|0,0:0|0:0,0:0:0:0:
142,129,35796,2,0,L|319:117,1,175.499991966248,0|0,0:0|0:0,0:0:0:0:
480,224,36149,6,0,L|318:234,1,135,0|0,0:0|0:0,0:0:0:0:
480,201,36502,2,0,L|312:213,1,148.50000453186,0|0,0:0|0:0,0:0:0:0:
479,179,36855,2,0,L|309:191,1,161.999995056153,0|0,0:0|0:0,0:0:0:0:
479,157,37208,2,0,L|302:169,1,175.499991966248,0|0,0:0|0:0,0:0:0:0:
161,61,37560,5,0,0:0:0:0:
139,89,37648,1,0,0:0:0:0:
126,122,37736,1,0,0:0:0:0:
123,157,37824,1,0,0:0:0:0:
170,154,37913,5,0,0:0:0:0:
215,147,38001,1,0,0:0:0:0:
258,165,38089,1,0,0:0:0:0:
286,202,38177,1,0,0:0:0:0:
288,260,38266,5,0,0:0:0:0:
340,287,38354,1,0,0:0:0:0:
398,289,38442,1,0,0:0:0:0:
451,265,38530,1,0,0:0:0:0:
438,195,38619,5,0,0:0:0:0:
380,154,38707,1,0,0:0:0:0:
370,84,38795,1,0,0:0:0:0:
425,40,38884,1,0,0:0:0:0:
492,57,38972,5,0,0:0:0:0:
78,296,40384,6,0,P|167:318|271:218,1,242.999992584229,0|0,0:0|0:0,0:0:0:0:
367,118,40737,2,0,P|396:190|365:262,1,143.999995605469,0|0,0:0|0:0,0:0:0:0:
153,200,41090,2,0,P|124:128|155:56,1,143.999995605469,0|0,0:0|0:0,0:0:0:0:
397,118,41443,2,0,P|426:190|395:262,1,143.999995605469,0|0,0:0|0:0,0:0:0:0:
284,284,41796,5,0,0:0:0:0:
405,249,41972,1,0,0:0:0:0:
236,188,42149,5,0,0:0:0:0:
397,118,42325,1,0,0:0:0:0:
185,268,42502,5,0,0:0:0:0:
478,291,42678,1,0,0:0:0:0:
131,147,42855,1,0,0:0:0:0:
131,147,43207,6,0,B|183:123|183:123|380:177,1,242.999992584229,0|0,0:0|0:0,0:0:0:0:
404,310,43560,2,0,B|352:334|352:334|237:301,1,161.999995056153,0|0,0:0|0:0,0:0:0:0:
134,112,43913,2,0,B|186:88|186:88|301:121,1,161.999995056153,0|0,0:0|0:0,0:0:0:0:
402,338,44266,2,0,B|350:362|350:362|235:329,1,161.999995056153,0|0,0:0|0:0,0:0:0:0:
131,147,44619,5,0,0:0:0:0:
368,210,44796,1,0,0:0:0:0:
131,237,44972,5,0,0:0:0:0:
353,133,45149,1,0,0:0:0:0:
189,307,45325,5,0,0:0:0:0:
293,84,45502,1,0,0:0:0:0:
279,322,45678,2,0,P|236:337|184:328,1,80.9999975280763,0|0,0:0|0:0,0:0:0:0:
191,246,45854,2,0,P|150:243|113:258,1,80.9999975280763,0|0,0:0|0:0,0:0:0:0:
26,311,46031,6,0,B|14:137|14:137|59:199,1,242.999992584229,0|0,0:0|0:0,0:0:0:0:
228,136,46384,2,0,P|177:77|90:71,1,161.999995056153,0|0,0:0|0:0,0:0:0:0:
274,198,46737,2,0,P|338:244|438:215,1,161.999995056153,0|0,0:0|0:0,0:0:0:0:
494,374,47090,2,0,P|430:328|330:357,1,161.999995056153,0|0,0:0|0:0,0:0:0:0:
230,374,47443,5,0,0:0:0:0:
351,339,47619,1,0,0:0:0:0:
185,268,47796,5,0,0:0:0:0:
346,198,47972,1,0,0:0:0:0:
185,268,48149,5,0,0:0:0:0:
458,118,48325,1,0,0:0:0:0:
131,147,48502,1,0,0:0:0:0:
131,147,48854,6,0,P|158:70|312:36,1,242.999992584229,0|0,0:0|0:0,0:0:0:0:
251,153,49207,2,0,P|338:184|367:261,1,161.999995056153,0|0,0:0|0:0,0:0:0:0:
479,191,49560,2,0,B|507:111|507:111|451:41,1,161.999995056153,0|0,0:0|0:0,0:0:0:0:
275,25,49913,2,0,L|201:25,3,53.9999983520508,0|0|0|0,0:0|0:0|0:0|0:0,0:0:0:0:
156,80,50149,1,0,0:0:0:0:
363,169,50266,5,0,0:0:0:0:
45,349,50443,1,0,0:0:0:0:
90,334,50619,5,0,0:0:0:0:
367,212,50796,1,0,0:0:0:0:
136,55,50972,5,0,0:0:0:0:
136,55,51325,1,0,0:0:0:0:
484,167,51678,6,0,P|386:115|375:221,1,242.999992584229,0|0,0:0|0:0,0:0:0:0:
390,347,52031,6,0,P|346:356|308:344,1,80.9999975280763,0|0,0:0|0:0,0:0:0:0:
220,347,52207,2,0,P|233:300|259:270,1,80.9999975280763,0|0,0:0|0:0,0:0:0:0:
252,197,52384,2,0,P|260:162|252:128,1,67.5000025749208,0|0,0:0|0:0,0:0:0:0:
171,72,52649,2,0,P|163:107|173:147,1,67.5000025749208,0|0,0:0|0:0,0:0:0:0:
162,218,52913,2,0,P|165:240|152:279,1,33.7500012874604,0|0,0:0|0:0,0:0:0:0:
126,315,53090,5,0,0:0:0:0:
351,339,53266,1,0,0:0:0:0:
177,270,53443,5,0,0:0:0:0:
346,198,53619,1,0,0:0:0:0:
192,337,53796,5,0,0:0:0:0:
267,91,53972,1,0,0:0:0:0:
56,59,54149,2,0,L|139:105,1,80.9999975280763,0|0,0:0|0:0,0:0:0:0:
63,173,54325,2,0,L|153:212,1,80.9999975280763,0|0,0:0|0:0,0:0:0:0:
293,305,54502,5,0,0:0:0:0:
471,258,54678,1,0,0:0:0:0:
411,91,54854,2,0,P|328:122|258:80,1,161.999995056153,0|0,0:0|0:0,0:0:0:0:
131,251,55207,2,0,P|214:220|284:262,1,161.999995056153,0|0,0:0|0:0,0:0:0:0:
419,251,55560,2,0,P|336:282|266:240,1,161.999995056153,0|0,0:0|0:0,0:0:0:0:
190,69,55913,5,0,0:0:0:0:
258,352,56090,1,0,0:0:0:0:
260,81,56266,5,0,0:0:0:0:
183,348,56443,1,0,0:0:0:0:
393,226,56619,6,0,P|423:233|477:218,1,67.5000025749208,0|0,0:0|0:0,0:0:0:0:
439,136,56884,2,0,P|404:127|356:144,1,67.5000025749208,0|0,0:0|0:0,0:0:0:0:
297,189,57149,2,0,P|274:193|248:187,1,33.7500012874604,0|0,0:0|0:0,0:0:0:0:
177,159,57325,1,0,0:0:0:0:
177,159,57678,6,0,B|153:236|153:236|181:320,1,161.999995056153,0|0,0:0|0:0,0:0:0:0:
463,313,58031,2,0,B|487:236|487:236|459:152,1,161.999995056153,0|0,0:0|0:0,0:0:0:0:
304,47,58384,2,0,L|303:223,1,161.999995056153,0|0,0:0|0:0,0:0:0:0:
177,159,58737,5,0,0:0:0:0:
427,93,58913,1,0,0:0:0:0:
315,328,59090,5,0,0:0:0:0:
304,47,59266,1,0,0:0:0:0:
202,308,59443,5,0,0:0:0:0:
469,186,59619,1,0,0:0:0:0:
206,52,59796,1,0,0:0:0:0:
206,52,60149,6,0,B|60:72|60:72|154:11,1,242.999992584229,0|0,0:0|0:0,0:0:0:0:
192,165,60502,2,0,P|164:235|209:312,1,161.999995056153,0|0,0:0|0:0,0:0:0:0:
394,248,60854,2,0,P|422:178|377:101,1,161.999995056153,0|0,0:0|0:0,0:0:0:0:
164,172,61207,2,0,P|136:242|181:319,1,161.999995056153,0|0,0:0|0:0,0:0:0:0:
394,248,61560,6,0,P|422:254|466:241,5,53.9999983520508,0|0|0|0|0|0,0:0|0:0|0:0|0:0|0:0|0:0,0:0:0:0:
296,212,61913,1,0,0:0:0:0:
417,21,62090,1,0,0:0:0:0:
417,21,62266,2,0,P|462:76|446:171,1,161.999995056153,0|0,0:0|0:0,0:0:0:0:
148,240,62619,2,0,P|103:185|119:90,1,161.999995056153,0|0,0:0|0:0,0:0:0:0:
296,126,62972,6,0,L|311:258,1,116.999994644165,0|0,0:0|0:0,0:0:0:0:
296,126,63325,2,0,L|290:259,1,125.999996154785,0|0,0:0|0:0,0:0:0:0:
296,126,63678,2,0,L|264:262,1,135.000005149842,0|0,0:0|0:0,0:0:0:0:
296,126,64031,2,0,L|233:258,1,144,0|0,0:0|0:0,0:0:0:0:
117,357,64384,6,0,P|70:327|50:258,1,116.999994644165,0|0,0:0|0:0,0:0:0:0:
90,100,64737,2,0,P|132:138|142:195,1,116.999994644165,0|0,0:0|0:0,0:0:0:0:
117,357,65090,1,0,0:0:0:0:
276,285,65266,1,0,0:0:0:0:
436,357,65443,2,0,P|447:294|435:227,1,116.999994644165,0|0,0:0|0:0,0:0:0:0:
465,67,65796,6,0,P|405:56|353:79,1,116.999994644165,0|0,0:0|0:0,0:0:0:0:
465,67,66149,2,0,P|404:66|351:107,1,125.999996154785,0|0,0:0|0:0,0:0:0:0:
465,67,66502,2,0,P|404:77|344:137,1,135.000005149842,0|0,0:0|0:0,0:0:0:0:
465,67,66854,2,0,P|407:87|365:160,1,144,0|0,0:0|0:0,0:0:0:0:
220,114,67207,6,0,P|160:125|108:102,1,116.999994644165,0|0,0:0|0:0,0:0:0:0:
220,114,67560,2,0,P|159:114|105:72,1,125.999996154785,0|0,0:0|0:0,0:0:0:0:
220,114,67913,2,0,P|159:103|109:44,1,135.000005149842,0|0,0:0|0:0,0:0:0:0:
220,114,68265,2,0,P|162:93|118:25,1,135.000005149842,0|0,0:0|0:0,0:0:0:0:
12,137,68619,5,0,0:0:0:0:
254,252,68796,1,0,0:0:0:0:
220,26,68972,1,0,0:0:0:0:
25,155,69149,1,0,0:0:0:0:
268,272,69325,1,0,0:0:0:0:
242,12,69502,1,0,0:0:0:0:
37,178,69678,1,0,0:0:0:0:
280,295,69854,1,0,0:0:0:0:
433,61,70031,6,0,L|450:213,1,135.000005149842,0|0,0:0|0:0,0:0:0:0:
63,195,70384,2,0,L|79:61,1,135.000005149842,0|0,0:0|0:0,0:0:0:0:
316,153,70737,2,0,L|321:300,1,135.000005149842,0|0,0:0|0:0,0:0:0:0:
186,284,71090,2,0,L|197:143,1,135.000005149842,0|0,0:0|0:0,0:0:0:0:
314,62,71443,5,0,0:0:0:0:
359,34,71531,1,0,0:0:0:0:
412,38,71619,1,0,0:0:0:0:
453,72,71707,1,0,0:0:0:0:
439,139,71796,5,0,0:0:0:0:
385,175,71884,1,0,0:0:0:0:
379,241,71972,1,0,0:0:0:0:
425,286,72060,1,0,0:0:0:0:
379,345,72149,5,0,0:0:0:0:
308,365,72237,1,0,0:0:0:0:
235,354,72325,1,0,0:0:0:0:
187,297,72413,1,0,0:0:0:0:
217,221,72502,5,0,0:0:0:0:
241,146,72590,1,0,0:0:0:0:
207,74,72678,1,0,0:0:0:0:
133,47,72766,1,0,0:0:0:0:
61,80,72854,5,0,0:0:0:0:
90,77,74266,5,0,0:0:0:0:
214,215,74443,1,0,0:0:0:0:
90,77,74619,2,0,P|58:152|97:239,1,161.999995056153,0|0,0:0|0:0,0:0:0:0:
367,209,74972,2,0,P|291:236|203:207,1,161.999995056153,0|0,0:0|0:0,0:0:0:0:
294,61,75325,2,0,P|370:34|458:63,1,161.999995056153,0|0,0:0|0:0,0:0:0:0:
367,209,75678,5,0,0:0:0:0:
163,324,75854,1,0,0:0:0:0:
123,45,76031,5,0,0:0:0:0:
277,275,76207,1,0,0:0:0:0:
395,41,76384,5,0,0:0:0:0:
149,177,76560,1,0,0:0:0:0:
398,322,76737,1,0,0:0:0:0:
398,322,77090,6,0,P|283:362|174:298,1,242.999992584229,0|0,0:0|0:0,0:0:0:0:
240,176,77443,2,0,P|168:142|86:183,1,161.999995056153,0|0,0:0|0:0,0:0:0:0:
260,54,77796,2,0,P|333:83|404:49,1,161.999995056153,0|0,0:0|0:0,0:0:0:0:
323,236,78149,2,0,P|395:202|477:243,1,161.999995056153,0|0,0:0|0:0,0:0:0:0:
398,322,78502,5,0,0:0:0:0:
398,62,78678,1,0,0:0:0:0:
188,126,78854,5,0,0:0:0:0:
443,206,79031,1,0,0:0:0:0:
232,336,79207,2,0,L|136:335,1,80.9999975280763,0|0,0:0|0:0,0:0:0:0:
51,254,79384,2,0,L|131:244,1,80.9999975280763,0|0,0:0|0:0,0:0:0:0:
152,51,79560,1,0,0:0:0:0:
244,239,79737,1,0,0:0:0:0:
329,125,79913,6,0,P|398:66|490:158,1,242.999992584229,0|0,0:0|0:0,0:0:0:0:
394,235,80266,2,0,P|323:264|223:219,1,161.999995056153,0|0,0:0|0:0,0:0:0:0:
82,133,80619,2,0,P|107:219|72:298,1,161.999995056153,0|0,0:0|0:0,0:0:0:0:
189,167,80972,2,0,P|164:81|199:2,1,161.999995056153,0|0,0:0|0:0,0:0:0:0:
489,134,81325,5,0,0:0:0:0:
302,42,81502,1,0,0:0:0:0:
460,53,81678,5,0,0:0:0:0:
242,219,81854,1,0,0:0:0:0:
451,210,82031,5,0,0:0:0:0:
171,68,82207,1,0,0:0:0:0:
220,341,82384,1,0,0:0:0:0:
220,341,82737,6,0,L|172:172,1,161.999995056153,0|0,0:0|0:0,0:0:0:0:
414,341,83090,2,0,L|462:172,1,161.999995056153,0|0,0:0|0:0,0:0:0:0:
233,70,83443,2,0,P|301:37|392:83,1,161.999995056153,0|0,0:0|0:0,0:0:0:0:
377,318,83972,5,0,0:0:0:0:
295,91,84149,1,0,0:0:0:0:
133,253,84325,1,0,0:0:0:0:
333,208,84502,2,0,P|373:217|430:203,1,80.9999975280763,0|0,0:0|0:0,0:0:0:0:
462,109,84678,2,0,P|422:100|365:114,1,80.9999975280763,0|0,0:0|0:0,0:0:0:0:
233,164,84854,2,0,P|132:130|21:206,1,242.999992584229,0|0,0:0|0:0,0:0:0:0:
133,253,85207,2,0,P|192:290|276:235,1,161.999995056153,0|0,0:0|0:0,0:0:0:0:
370,80,85560,5,0,0:0:0:0:
370,80,85913,2,0,P|408:172|369:239,1,161.999995056153,0|0,0:0|0:0,0:0:0:0:
92,346,86266,2,0,P|54:254|93:187,1,161.999995056153,0|0,0:0|0:0,0:0:0:0:
329,90,86619,2,0,P|367:182|328:249,1,161.999995056153,0|0,0:0|0:0,0:0:0:0:
88,350,86972,5,0,0:0:0:0:
239,51,87149,1,0,0:0:0:0:
236,328,87325,5,0,0:0:0:0:
158,48,87502,1,0,0:0:0:0:
165,372,87678,5,0,0:0:0:0:
288,73,87854,1,0,0:0:0:0:
488,316,88031,1,0,0:0:0:0:
488,316,88384,6,0,B|318:343|318:343|384:285,1,242.999992584229,0|0,0:0|0:0,0:0:0:0:
463,159,88737,2,0,P|383:140|304:165,1,161.999995056153,0|0,0:0|0:0,0:0:0:0:
82,284,89090,2,0,P|162:303|241:278,1,161.999995056153,0|0,0:0|0:0,0:0:0:0:
238,102,89443,2,0,P|158:83|79:108,1,161.999995056153,0|0,0:0|0:0,0:0:0:0:
162,363,89796,5,0,0:0:0:0:
238,102,89972,1,0,0:0:0:0:
392,340,90149,5,0,0:0:0:0:
256,93,90325,1,0,0:0:0:0:
416,332,90502,5,0,0:0:0:0:
416,332,90854,1,0,0:0:0:0:
72,105,91207,5,0,0:0:0:0:
291,55,91384,2,0,P|328:43|377:62,1,80.9999975280763,0|0,0:0|0:0,0:0:0:0:
423,174,91560,2,0,P|386:186|337:167,1,80.9999975280763,0|0,0:0|0:0,0:0:0:0:
291,55,91737,1,0,0:0:0:0:
369,287,91913,5,0,0:0:0:0:
450,55,92090,1,0,0:0:0:0:
193,163,92266,5,0,0:0:0:0:
494,259,92443,1,0,0:0:0:0:
291,55,92619,5,0,0:0:0:0:
2,141,92796,1,0,0:0:0:0:
450,55,92973,5,0,0:0:0:0:
257,361,93149,1,0,0:0:0:0:
82,47,93326,5,0,0:0:0:0:
499,115,93502,1,0,0:0:0:0:
176,364,93679,5,0,0:0:0:0:
345,32,93855,1,0,0:0:0:0:
112,304,94031,5,0,0:0:0:0:
140,264,94119,1,0,0:0:0:0:
180,237,94207,1,0,0:0:0:0:
227,226,94295,1,0,0:0:0:0:
275,231,94383,1,0,0:0:0:0:
319,252,94472,1,0,0:0:0:0:
360,280,94560,5,0,0:0:0:0:
362,231,94648,1,0,0:0:0:0:
364,182,94736,1,0,0:0:0:0:
366,134,94824,1,0,0:0:0:0:
368,84,94913,5,0,0:0:0:0:
397,46,95001,1,0,0:0:0:0:
444,36,95089,1,0,0:0:0:0:
486,58,95177,1,0,0:0:0:0:
504,102,95265,1,0,0:0:0:0:
490,148,95354,1,0,0:0:0:0:
450,174,95442,1,0,0:0:0:0:
400,172,95531,5,0,0:0:0:0:
351,169,95619,1,0,0:0:0:0:
302,166,95707,1,0,0:0:0:0:
254,163,95795,1,0,0:0:0:0:
205,160,95883,1,0,0:0:0:0:
157,157,95972,1,0,0:0:0:0:
112,144,96060,5,0,0:0:0:0:
88,102,96148,1,0,0:0:0:0:
102,57,96236,1,0,0:0:0:0:
145,37,96324,1,0,0:0:0:0:
189,54,96412,1,0,0:0:0:0:
207,97,96501,1,0,0:0:0:0:
204,156,96590,5,0,0:0:0:0:
200,220,96678,1,0,0:0:0:0:
196,292,96766,1,0,0:0:0:0:
192,372,96854,1,0,0:0:0:0:
