osu file format v14

[General]
AudioFilename: audio.mp3
AudioLeadIn: 0
PreviewTime: 182500
Countdown: 1
SampleSet: Normal
StackLeniency: 0.6
Mode: 0
LetterboxInBreaks: 0
WidescreenStoryboard: 0

[Editor]
Bookmarks: 11138,25058,40418,42340,43300,48098,51938,78818,89380,92260,97060,101860,117220,121058,121060,151778,174820,212738
DistanceSpacing: 2
BeatDivisor: 4
GridSize: 4
TimelineZoom: 3.899998

[Metadata]
Title:Eternal
TitleUnicode:Eternal
Artist:Angelmaker
ArtistUnicode:Angelmaker
Creator:_Nico_
Version:Desperation
Source:
Tags:Deathcore self titled Evan Robillard deathstream rsi 2019
BeatmapID:2059682
BeatmapSetID:984357

[Difficulty]
HPDrainRate:5
CircleSize:3.6
OverallDifficulty:10
ApproachRate:10
SliderMultiplier:1.8
SliderTickRate:1

[Events]
//Background and Video events
0,0,"cover.jpg",0,0
//Break Periods
2,23340,24610
//Storyboard Layer 0 (Background)
//Storyboard Layer 1 (Fail)
//Storyboard Layer 2 (Pass)
//Storyboard Layer 3 (Foreground)
//Storyboard Sound Samples

[TimingPoints]
100,240,4,1,0,50,1,0
100,-100,4,1,0,50,0,0
7780,-100,4,1,0,50,0,0
11620,-285.714285714286,4,1,0,50,0,0
12100,-142.857142857143,4,1,0,50,0,0
13540,-100,4,1,0,50,0,0
15460,-100,4,1,0,50,0,0
19300,-285.714285714286,4,1,0,50,0,0
19780,-142.857142857143,4,1,0,50,0,0
20740,-100,4,1,0,50,0,0
23140,-100,4,1,0,50,0,0
25060,-100,4,1,0,50,0,0
27940,-227.272727272727,4,1,0,50,0,0
28420,-172.413793103448,4,1,0,50,0,0
28900,-100,4,1,0,50,0,0
31300,-133.333333333333,4,1,0,50,0,0
31540,-100,4,1,0,50,0,0
31780,-133.333333333333,4,1,0,50,0,0
32260,-250,4,1,0,50,0,0
32740,-100,4,1,0,50,0,0
34900,-133.333333333333,4,1,0,50,0,0
35140,-100,4,1,0,50,0,0
36100,-117.647058823529,4,1,0,50,0,0
36580,-100,4,1,0,50,0,0
38740,-133.333333333333,4,1,0,50,0,0
38980,-100,4,1,0,50,0,0
39460,-133.333333333333,4,1,0,50,0,0
40420,-100,4,1,0,50,0,0
44260,-100,4,1,0,50,0,0
45940,-74.0740740740741,4,1,0,50,0,0
46180,-100,4,1,0,50,0,0
46420,-76.9230769230769,4,1,0,50,0,0
46900,-100,4,1,0,50,0,0
48100,-100,4,1,0,50,0,0
51940,-100,4,1,0,50,0,0
53860,-80,4,1,0,50,0,0
55300,-100,4,1,0,50,0,0
55780,-100,4,1,0,50,0,1
59620,-100,4,1,0,50,0,1
62260,-66.6666666666667,4,1,0,50,0,1
62500,-100,4,1,0,50,0,1
63460,-153.846153846154,4,1,0,50,0,1
64420,-117.647058823529,4,1,0,50,0,1
65380,-133.333333333333,4,1,0,50,0,1
66340,-117.647058823529,4,1,0,50,0,1
67300,-200,4,1,0,50,0,1
70180,-133.333333333333,4,1,0,50,0,1
71140,-100,4,1,0,50,0,1
78820,-105.263157894737,4,1,0,50,0,1
82180,-133.333333333333,4,1,0,50,0,1
82660,-105.263157894737,4,1,0,50,0,1
86500,-100,4,1,0,50,0,0
88900,-100,4,1,0,50,0,0
92260,-100,4,1,0,50,0,0
94660,-133.333333333333,4,1,0,50,0,0
96580,-100,4,1,0,50,0,0
97060,-100,4,1,0,50,0,0
101860,-100,4,1,0,50,0,0
105700,-166.666666666667,4,1,0,50,0,0
106180,-100,4,1,0,50,0,0
113380,-166.666666666667,4,1,0,50,0,0
113860,-100,4,1,0,50,0,0
117220,-100,4,1,0,50,0,0
121060,-100,4,1,0,50,0,0
128740,-90.9090909090909,4,1,0,50,0,0
144100,-100,4,1,0,50,0,0
147940,-100,4,1,0,50,0,0
151780,-100,4,1,0,50,0,1
159460,-153.846153846154,4,1,0,50,0,1
160420,-117.647058823529,4,1,0,50,0,1
161380,-133.333333333333,4,1,0,50,0,1
162340,-117.647058823529,4,1,0,50,0,1
163300,-200,4,1,0,50,0,1
167140,-100,4,1,0,50,0,1
174820,-100,4,1,0,50,0,1
185380,-71.4285714285714,4,1,0,50,0,1
186340,-83.3333333333333,4,1,0,50,0,1
188260,-90.9090909090909,4,1,0,50,0,1
190180,-100,4,1,0,50,0,1
212740,-100,4,1,0,50,0,1
213220,-100,4,1,0,50,0,0
218980,-100,4,1,0,15,0,0

[HitObjects]
40,35,100,5,0,0:0:0:0:
35,259,220,1,0,0:0:0:0:
193,88,340,5,0,0:0:0:0:
45,271,460,1,0,0:0:0:0:
203,99,580,6,0,L|251:180,1,90
323,280,820,5,0,0:0:0:0:
331,281,880,1,0,0:0:0:0:
339,282,940,1,0,0:0:0:0:
347,282,1000,1,0,0:0:0:0:
355,283,1060,2,0,B|387:267|387:267|401:215,1,90
444,342,1300,2,0,B|476:326|476:326|490:274,1,90
401,211,1540,5,0,0:0:0:0:
403,202,1600,1,0,0:0:0:0:
405,193,1660,1,0,0:0:0:0:
407,184,1720,1,0,0:0:0:0:
409,176,1780,2,0,B|423:143|423:143|423:73,1,90
292,123,2020,2,0,B|305:89|305:89|305:19,1,90
176,76,2260,5,0,0:0:0:0:
159,68,2320,1,0,0:0:0:0:
141,63,2380,1,0,0:0:0:0:
123,59,2440,1,0,0:0:0:0:
105,59,2500,2,0,P|77:99|70:150,1,90
158,258,2740,2,0,P|186:218|193:167,1,90
193,84,2980,5,0,0:0:0:0:
46,255,3100,1,0,0:0:0:0:
278,226,3220,5,0,0:0:0:0:
46,271,3340,1,0,0:0:0:0:
278,242,3460,6,0,L|263:336,1,90
291,36,3700,2,0,L|319:129,1,90
443,47,3940,5,0,0:0:0:0:
348,200,4060,1,0,0:0:0:0:
448,29,4180,5,0,0:0:0:0:
344,217,4300,1,0,0:0:0:0:
453,13,4420,2,0,L|453:104,1,90
453,317,4660,5,0,0:0:0:0:
454,299,4720,1,0,0:0:0:0:
454,281,4780,1,0,0:0:0:0:
454,263,4840,1,0,0:0:0:0:
455,245,4900,2,0,B|476:267|476:267|475:342,1,90
340,234,5140,2,0,B|361:256|361:256|360:331,1,90
270,356,5380,5,0,0:0:0:0:
243,356,5440,1,0,0:0:0:0:
216,356,5500,1,0,0:0:0:0:
188,355,5560,1,0,0:0:0:0:
162,357,5620,2,0,L|65:357,1,90
121,260,5860,2,0,L|24:260,1,90
64,142,6100,5,0,0:0:0:0:
85,125,6160,1,0,0:0:0:0:
110,113,6220,1,0,0:0:0:0:
136,108,6280,1,0,0:0:0:0:
164,108,6340,2,0,B|180:142|180:142|180:218,1,90
286,195,6580,2,0,B|302:229|302:229|302:305,1,90
289,361,6820,5,0,0:0:0:0:
501,286,6940,1,0,0:0:0:0:
286,195,7060,5,0,0:0:0:0:
509,272,7180,1,0,0:0:0:0:
294,181,7300,6,0,L|353:107,1,90
180,353,7540,2,0,L|202:258,1,90
381,282,7780,5,0,0:0:0:0:
374,275,7840,1,0,0:0:0:0:
371,267,7900,1,0,0:0:0:0:
371,258,7960,1,0,0:0:0:0:
374,250,8020,1,0,0:0:0:0:
380,243,8080,1,0,0:0:0:0:
388,239,8140,1,0,0:0:0:0:
397,238,8200,1,0,0:0:0:0:
405,241,8260,1,0,0:0:0:0:
412,247,8320,1,0,0:0:0:0:
417,254,8380,1,0,0:0:0:0:
418,263,8440,1,0,0:0:0:0:
416,272,8500,1,0,0:0:0:0:
410,279,8560,1,0,0:0:0:0:
403,284,8620,1,0,0:0:0:0:
394,285,8680,1,0,0:0:0:0:
385,285,8740,5,0,0:0:0:0:
377,268,8800,1,0,0:0:0:0:
372,251,8860,1,0,0:0:0:0:
372,233,8920,1,0,0:0:0:0:
375,215,8980,1,0,0:0:0:0:
382,199,9040,1,0,0:0:0:0:
392,184,9100,1,0,0:0:0:0:
405,171,9160,1,0,0:0:0:0:
418,159,9220,5,0,0:0:0:0:
430,146,9280,1,0,0:0:0:0:
440,131,9340,1,0,0:0:0:0:
447,114,9400,1,0,0:0:0:0:
449,96,9460,1,0,0:0:0:0:
447,79,9520,1,0,0:0:0:0:
442,62,9580,1,0,0:0:0:0:
432,46,9640,1,0,0:0:0:0:
418,35,9700,6,0,L|417:83,3,45
307,90,9940,2,0,L|308:138,3,45
222,204,10180,5,0,0:0:0:0:
210,190,10240,1,0,0:0:0:0:
200,175,10300,1,0,0:0:0:0:
193,158,10360,1,0,0:0:0:0:
189,141,10420,1,0,0:0:0:0:
187,123,10480,1,0,0:0:0:0:
188,105,10540,1,0,0:0:0:0:
192,87,10600,1,0,0:0:0:0:
200,71,10660,5,0,0:0:0:0:
184,79,10720,1,0,0:0:0:0:
168,87,10780,1,0,0:0:0:0:
152,95,10840,1,0,0:0:0:0:
136,103,10900,1,0,0:0:0:0:
119,111,10960,1,0,0:0:0:0:
103,119,11020,1,0,0:0:0:0:
87,126,11080,1,0,0:0:0:0:
71,134,11140,5,0,0:0:0:0:
454,233,11380,1,0,0:0:0:0:
66,316,11620,6,0,P|102:278|145:273,1,94.499997116089
260,315,12100,5,0,0:0:0:0:
290,319,12160,1,0,0:0:0:0:
319,307,12220,1,0,0:0:0:0:
338,283,12280,1,0,0:0:0:0:
350,227,12340,5,0,0:0:0:0:
363,199,12400,1,0,0:0:0:0:
389,182,12460,1,0,0:0:0:0:
420,183,12520,1,0,0:0:0:0:
454,233,12580,5,0,0:0:0:0:
445,223,12640,1,0,0:0:0:0:
438,213,12700,1,0,0:0:0:0:
433,201,12760,1,0,0:0:0:0:
429,189,12820,1,0,0:0:0:0:
427,177,12880,1,0,0:0:0:0:
426,164,12940,1,0,0:0:0:0:
427,152,13000,1,0,0:0:0:0:
446,108,13060,6,0,P|441:87|424:60,7,31.4999990386963
263,31,13540,5,0,0:0:0:0:
263,76,13600,1,0,0:0:0:0:
263,121,13660,1,0,0:0:0:0:
263,166,13720,1,0,0:0:0:0:
263,211,13780,2,0,L|170:170,1,90
11,112,14020,5,0,0:0:0:0:
183,59,14260,1,0,0:0:0:0:
11,116,14500,5,0,0:0:0:0:
11,161,14560,1,0,0:0:0:0:
11,206,14620,1,0,0:0:0:0:
11,251,14680,1,0,0:0:0:0:
11,296,14740,2,0,L|101:267,1,90
263,215,14980,5,0,0:0:0:0:
167,363,15100,1,0,0:0:0:0:
263,211,15220,2,0,L|263:98,1,90
416,27,15460,5,0,0:0:0:0:
413,35,15520,1,0,0:0:0:0:
411,44,15580,1,0,0:0:0:0:
410,53,15640,1,0,0:0:0:0:
410,62,15700,1,0,0:0:0:0:
411,71,15760,1,0,0:0:0:0:
455,83,15820,5,0,0:0:0:0:
458,92,15880,1,0,0:0:0:0:
461,100,15940,1,0,0:0:0:0:
464,109,16000,1,0,0:0:0:0:
466,118,16060,1,0,0:0:0:0:
468,126,16120,1,0,0:0:0:0:
435,156,16180,5,0,0:0:0:0:
436,165,16240,1,0,0:0:0:0:
437,174,16300,1,0,0:0:0:0:
437,183,16360,1,0,0:0:0:0:
463,219,16420,5,0,0:0:0:0:
456,184,16480,1,0,0:0:0:0:
431,159,16540,1,0,0:0:0:0:
396,155,16600,1,0,0:0:0:0:
365,173,16660,1,0,0:0:0:0:
351,205,16720,1,0,0:0:0:0:
356,250,16780,5,0,0:0:0:0:
347,247,16840,1,0,0:0:0:0:
339,245,16900,1,0,0:0:0:0:
330,244,16960,1,0,0:0:0:0:
321,244,17020,1,0,0:0:0:0:
312,246,17080,1,0,0:0:0:0:
276,273,17140,6,0,B|261:249|261:249|256:220,3,45
147,292,17380,5,0,0:0:0:0:
150,283,17440,1,0,0:0:0:0:
152,275,17500,1,0,0:0:0:0:
153,266,17560,1,0,0:0:0:0:
153,257,17620,1,0,0:0:0:0:
152,248,17680,1,0,0:0:0:0:
108,236,17740,5,0,0:0:0:0:
105,227,17800,1,0,0:0:0:0:
102,219,17860,1,0,0:0:0:0:
99,210,17920,1,0,0:0:0:0:
97,201,17980,1,0,0:0:0:0:
95,193,18040,1,0,0:0:0:0:
128,163,18100,5,0,0:0:0:0:
127,154,18160,1,0,0:0:0:0:
126,145,18220,1,0,0:0:0:0:
126,136,18280,1,0,0:0:0:0:
95,102,18340,6,0,L|85:38,3,45
197,56,18580,2,0,L|207:-8,3,45
303,29,18820,5,0,0:0:0:0:
15,29,19060,1,0,0:0:0:0:
311,37,19300,6,0,L|311:137,1,94.499997116089
404,195,19780,5,0,0:0:0:0:
403,204,19840,1,0,0:0:0:0:
402,213,19900,1,0,0:0:0:0:
402,222,19960,1,0,0:0:0:0:
366,253,20020,5,0,0:0:0:0:
365,262,20080,1,0,0:0:0:0:
364,271,20140,1,0,0:0:0:0:
364,280,20200,1,0,0:0:0:0:
402,307,20260,5,0,0:0:0:0:
391,291,20320,1,0,0:0:0:0:
378,278,20380,1,0,0:0:0:0:
361,269,20440,1,0,0:0:0:0:
343,264,20500,1,0,0:0:0:0:
324,264,20560,1,0,0:0:0:0:
306,269,20620,1,0,0:0:0:0:
289,278,20680,1,0,0:0:0:0:
269,321,20740,6,0,L|236:289,7,45
138,211,21220,5,0,0:0:0:0:
138,166,21280,1,0,0:0:0:0:
138,121,21340,1,0,0:0:0:0:
57,23,21460,6,0,B|25:55|25:55|25:155,1,135
25,254,21700,1,0,0:0:0:0:
259,162,21940,6,0,B|291:130|291:130|391:130,1,135
490,130,22180,2,0,L|369:130,2,120
409,278,22660,6,0,L|288:278,2,120
169,278,23140,1,0,0:0:0:0:
132,26,25060,5,0,0:0:0:0:
118,37,25120,1,0,0:0:0:0:
108,52,25180,1,0,0:0:0:0:
102,69,25240,1,0,0:0:0:0:
100,87,25300,1,0,0:0:0:0:
103,105,25360,1,0,0:0:0:0:
110,121,25420,1,0,0:0:0:0:
121,135,25480,1,0,0:0:0:0:
136,145,25540,1,0,0:0:0:0:
149,156,25600,1,0,0:0:0:0:
159,171,25660,1,0,0:0:0:0:
165,188,25720,1,0,0:0:0:0:
167,206,25780,1,0,0:0:0:0:
164,224,25840,1,0,0:0:0:0:
157,240,25900,1,0,0:0:0:0:
146,254,25960,1,0,0:0:0:0:
130,263,26020,5,0,0:0:0:0:
132,245,26080,1,0,0:0:0:0:
141,229,26140,1,0,0:0:0:0:
154,218,26200,1,0,0:0:0:0:
172,213,26260,1,0,0:0:0:0:
189,215,26320,1,0,0:0:0:0:
205,223,26380,1,0,0:0:0:0:
216,237,26440,1,0,0:0:0:0:
224,253,26500,1,0,0:0:0:0:
226,271,26560,1,0,0:0:0:0:
234,287,26620,1,0,0:0:0:0:
248,298,26680,1,0,0:0:0:0:
265,303,26740,1,0,0:0:0:0:
283,301,26800,1,0,0:0:0:0:
298,292,26860,1,0,0:0:0:0:
303,274,26920,1,0,0:0:0:0:
300,256,26980,5,0,0:0:0:0:
426,287,27220,6,0,B|404:269|404:269|404:149,1,135
404,54,27460,1,0,0:0:0:0:
276,148,27700,5,0,0:0:0:0:
276,121,27760,1,0,0:0:0:0:
276,94,27820,1,0,0:0:0:0:
276,67,27880,1,0,0:0:0:0:
276,40,27940,6,0,B|300:62|300:62|300:152,1,118.800003625488
300,256,28420,2,0,L|300:141,1,104.400003186035
273,46,28900,5,0,0:0:0:0:
273,57,28960,1,0,0:0:0:0:
273,67,29020,1,0,0:0:0:0:
273,78,29080,1,0,0:0:0:0:
273,88,29140,1,0,0:0:0:0:
273,98,29200,1,0,0:0:0:0:
273,109,29260,1,0,0:0:0:0:
273,119,29320,1,0,0:0:0:0:
273,130,29380,1,0,0:0:0:0:
273,140,29440,1,0,0:0:0:0:
273,151,29500,1,0,0:0:0:0:
273,161,29560,1,0,0:0:0:0:
273,172,29620,1,0,0:0:0:0:
273,182,29680,1,0,0:0:0:0:
273,192,29740,1,0,0:0:0:0:
273,203,29800,1,0,0:0:0:0:
273,213,29860,5,0,0:0:0:0:
268,203,29920,1,0,0:0:0:0:
262,194,29980,1,0,0:0:0:0:
255,187,30040,1,0,0:0:0:0:
247,180,30100,1,0,0:0:0:0:
238,175,30160,1,0,0:0:0:0:
229,170,30220,1,0,0:0:0:0:
219,168,30280,1,0,0:0:0:0:
208,166,30340,1,0,0:0:0:0:
198,166,30400,1,0,0:0:0:0:
188,168,30460,1,0,0:0:0:0:
178,171,30520,1,0,0:0:0:0:
168,175,30580,1,0,0:0:0:0:
160,181,30640,1,0,0:0:0:0:
152,188,30700,1,0,0:0:0:0:
145,196,30760,1,0,0:0:0:0:
122,229,30820,5,0,0:0:0:0:
62,372,31060,6,0,B|44:349|44:349|44:241,1,135
44,125,31300,1,0,0:0:0:0:
122,229,31540,5,0,0:0:0:0:
122,184,31600,1,0,0:0:0:0:
122,139,31660,1,0,0:0:0:0:
185,372,31780,2,0,B|203:349|203:349|203:241,1,135
276,28,32260,6,0,L|276:138,1,108
203,243,32740,5,0,0:0:0:0:
214,257,32800,1,0,0:0:0:0:
229,267,32860,1,0,0:0:0:0:
246,273,32920,1,0,0:0:0:0:
264,275,32980,1,0,0:0:0:0:
282,272,33040,1,0,0:0:0:0:
298,265,33100,1,0,0:0:0:0:
312,254,33160,1,0,0:0:0:0:
322,239,33220,1,0,0:0:0:0:
333,226,33280,1,0,0:0:0:0:
348,216,33340,1,0,0:0:0:0:
365,210,33400,1,0,0:0:0:0:
383,208,33460,1,0,0:0:0:0:
401,211,33520,1,0,0:0:0:0:
417,218,33580,1,0,0:0:0:0:
431,229,33640,1,0,0:0:0:0:
440,244,33700,5,0,0:0:0:0:
422,245,33760,1,0,0:0:0:0:
404,240,33820,1,0,0:0:0:0:
390,229,33880,1,0,0:0:0:0:
380,214,33940,1,0,0:0:0:0:
377,197,34000,1,0,0:0:0:0:
379,179,34060,1,0,0:0:0:0:
388,163,34120,1,0,0:0:0:0:
402,152,34180,1,0,0:0:0:0:
416,141,34240,1,0,0:0:0:0:
428,128,34300,1,0,0:0:0:0:
435,111,34360,1,0,0:0:0:0:
438,94,34420,1,0,0:0:0:0:
436,76,34480,1,0,0:0:0:0:
429,59,34540,1,0,0:0:0:0:
418,45,34600,1,0,0:0:0:0:
384,32,34660,5,0,0:0:0:0:
203,243,34900,6,0,B|184:223|184:223|184:133,1,101.250003862381
184,39,35140,1,0,0:0:0:0:
19,108,35380,6,0,L|19:53,3,45
19,243,35620,1,0,0:0:0:0:
101,243,35860,5,0,0:0:0:0:
101,265,35920,1,0,0:0:0:0:
101,288,35980,1,0,0:0:0:0:
101,311,36040,1,0,0:0:0:0:
101,334,36100,2,0,B|175:368|175:368|253:334,1,153.000002918243
329,249,36580,5,0,0:0:0:0:
334,240,36640,1,0,0:0:0:0:
340,231,36700,1,0,0:0:0:0:
347,224,36760,1,0,0:0:0:0:
355,217,36820,1,0,0:0:0:0:
364,212,36880,1,0,0:0:0:0:
373,207,36940,1,0,0:0:0:0:
383,205,37000,1,0,0:0:0:0:
394,203,37060,1,0,0:0:0:0:
404,203,37120,1,0,0:0:0:0:
414,205,37180,1,0,0:0:0:0:
424,208,37240,1,0,0:0:0:0:
434,212,37300,1,0,0:0:0:0:
442,218,37360,1,0,0:0:0:0:
450,225,37420,1,0,0:0:0:0:
457,233,37480,1,0,0:0:0:0:
476,263,37540,5,0,0:0:0:0:
476,253,37600,1,0,0:0:0:0:
476,243,37660,1,0,0:0:0:0:
476,233,37720,1,0,0:0:0:0:
476,223,37780,1,0,0:0:0:0:
476,213,37840,1,0,0:0:0:0:
476,203,37900,1,0,0:0:0:0:
476,193,37960,1,0,0:0:0:0:
476,183,38020,1,0,0:0:0:0:
476,173,38080,1,0,0:0:0:0:
476,163,38140,1,0,0:0:0:0:
476,153,38200,1,0,0:0:0:0:
476,143,38260,1,0,0:0:0:0:
476,133,38320,1,0,0:0:0:0:
476,123,38380,1,0,0:0:0:0:
476,113,38440,1,0,0:0:0:0:
488,74,38500,5,0,0:0:0:0:
309,49,38740,6,0,B|327:72|327:72|327:154,1,101.250003862381
327,274,38980,1,0,0:0:0:0:
197,84,39220,6,0,L|197:29,2,45
73,192,39460,5,0,0:0:0:0:
73,223,39540,1,0,0:0:0:0:
73,255,39620,1,0,0:0:0:0:
121,223,39700,5,0,0:0:0:0:
121,254,39780,1,0,0:0:0:0:
121,286,39860,1,0,0:0:0:0:
173,319,39940,5,0,0:0:0:0:
465,369,40180,1,0,0:0:0:0:
289,330,40420,5,0,0:0:0:0:
289,326,40660,5,0,0:0:0:0:
333,59,40780,1,0,0:0:0:0:
312,327,40900,5,0,0:0:0:0:
356,60,41020,1,0,0:0:0:0:
216,173,41140,5,0,0:0:0:0:
483,217,41260,1,0,0:0:0:0:
214,188,41380,6,0,L|201:81,1,90
490,227,41620,2,0,L|503:120,1,90
345,149,41860,6,0,L|358:42,1,90
69,188,42100,2,0,L|56:81,1,90
268,253,42340,5,0,0:0:0:0:
428,166,42460,1,0,0:0:0:0:
243,146,42580,5,0,0:0:0:0:
358,308,42700,1,0,0:0:0:0:
175,305,42820,5,0,0:0:0:0:
447,311,42940,1,0,0:0:0:0:
176,212,43060,1,0,0:0:0:0:
447,311,43180,1,0,0:0:0:0:
60,273,43300,6,0,L|60:177,1,90
241,143,43540,2,0,L|241:44,1,90
125,43,43780,6,0,B|85:49|60:28|60:28|60:110,1,135
60,185,44020,1,0,0:0:0:0:
60,207,44080,1,0,0:0:0:0:
60,229,44140,1,0,0:0:0:0:
60,251,44200,1,0,0:0:0:0:
60,273,44260,1,0,0:0:0:0:
130,329,44500,6,0,L|221:322,1,90
399,294,44740,5,0,0:0:0:0:
336,125,44860,1,0,0:0:0:0:
426,280,44980,5,0,0:0:0:0:
363,111,45100,1,0,0:0:0:0:
293,226,45220,5,0,0:0:0:0:
462,163,45340,1,0,0:0:0:0:
307,253,45460,5,0,0:0:0:0:
476,190,45580,1,0,0:0:0:0:
319,278,45700,6,0,B|326:245|326:245|290:200,1,90
381,43,45940,2,0,P|415:86|405:33,1,121.500000463486
269,7,46180,5,0,0:0:0:0:
216,224,46300,1,0,0:0:0:0:
108,18,46420,5,0,0:0:0:0:
204,233,46540,1,0,0:0:0:0:
95,26,46660,6,0,B|66:60|66:60|66:149,1,116.999994644165
166,360,46900,2,0,B|192:349|192:349|192:237,1,135
66,293,47140,5,0,0:0:0:0:
66,252,47200,1,0,0:0:0:0:
66,212,47260,1,0,0:0:0:0:
66,171,47320,1,0,0:0:0:0:
66,132,47380,5,0,0:0:0:0:
190,58,47500,1,0,0:0:0:0:
295,192,47620,5,0,0:0:0:0:
295,151,47680,1,0,0:0:0:0:
295,111,47740,1,0,0:0:0:0:
295,70,47800,1,0,0:0:0:0:
295,31,47860,5,0,0:0:0:0:
487,76,47980,1,0,0:0:0:0:
398,164,48100,5,0,0:0:0:0:
398,177,48160,1,0,0:0:0:0:
398,191,48220,1,0,0:0:0:0:
398,204,48280,1,0,0:0:0:0:
381,241,48340,5,0,0:0:0:0:
381,255,48400,1,0,0:0:0:0:
381,268,48460,1,0,0:0:0:0:
381,282,48520,1,0,0:0:0:0:
412,307,48580,5,0,0:0:0:0:
385,277,48640,1,0,0:0:0:0:
346,268,48700,1,0,0:0:0:0:
309,283,48760,1,0,0:0:0:0:
288,318,48820,1,0,0:0:0:0:
261,348,48880,1,0,0:0:0:0:
222,357,48940,1,0,0:0:0:0:
186,342,49000,1,0,0:0:0:0:
173,303,49060,5,0,0:0:0:0:
163,289,49120,1,0,0:0:0:0:
150,277,49180,1,0,0:0:0:0:
134,268,49240,1,0,0:0:0:0:
117,262,49300,1,0,0:0:0:0:
99,260,49360,1,0,0:0:0:0:
81,260,49420,1,0,0:0:0:0:
64,264,49480,1,0,0:0:0:0:
35,286,49540,5,0,0:0:0:0:
53,266,49600,1,0,0:0:0:0:
62,241,49660,1,0,0:0:0:0:
60,214,49720,1,0,0:0:0:0:
48,191,49780,5,0,0:0:0:0:
66,171,49840,1,0,0:0:0:0:
75,146,49900,1,0,0:0:0:0:
73,119,49960,1,0,0:0:0:0:
34,124,50020,5,0,0:0:0:0:
48,126,50080,1,0,0:0:0:0:
61,125,50140,1,0,0:0:0:0:
73,119,50200,1,0,0:0:0:0:
82,84,50260,5,0,0:0:0:0:
96,82,50320,1,0,0:0:0:0:
109,83,50380,1,0,0:0:0:0:
121,89,50440,1,0,0:0:0:0:
146,116,50500,6,0,L|150:63,3,45
137,223,50740,2,0,L|133:276,3,45
217,171,50980,5,0,0:0:0:0:
229,179,51040,1,0,0:0:0:0:
242,183,51100,1,0,0:0:0:0:
255,184,51160,1,0,0:0:0:0:
267,178,51220,5,0,0:0:0:0:
279,185,51280,1,0,0:0:0:0:
291,189,51340,1,0,0:0:0:0:
305,190,51400,1,0,0:0:0:0:
318,185,51460,6,0,B|334:203|334:203|334:228,3,45
435,182,51700,6,0,L|435:246,1,45
508,103,51820,2,0,L|508:168,1,45
423,83,51940,5,0,0:0:0:0:
423,74,52000,1,0,0:0:0:0:
423,65,52060,1,0,0:0:0:0:
423,56,52120,1,0,0:0:0:0:
423,47,52180,1,0,0:0:0:0:
423,38,52240,1,0,0:0:0:0:
423,30,52300,1,0,0:0:0:0:
423,22,52360,1,0,0:0:0:0:
423,14,52420,5,0,0:0:0:0:
403,25,52480,1,0,0:0:0:0:
381,28,52540,1,0,0:0:0:0:
359,26,52600,1,0,0:0:0:0:
339,17,52660,5,0,0:0:0:0:
311,39,52720,1,0,0:0:0:0:
276,48,52780,1,0,0:0:0:0:
241,43,52840,1,0,0:0:0:0:
212,21,52900,5,0,0:0:0:0:
210,35,52960,1,0,0:0:0:0:
207,48,53020,1,0,0:0:0:0:
204,61,53080,1,0,0:0:0:0:
221,93,53140,5,0,0:0:0:0:
224,79,53200,1,0,0:0:0:0:
227,66,53260,1,0,0:0:0:0:
230,53,53320,1,0,0:0:0:0:
212,21,53380,6,0,L|165:-2,3,45
31,82,53620,2,0,L|75:102,3,45
187,316,53860,6,0,B|170:360|170:360|158:290|158:290|172:261|172:261|166:209|166:209|170:175,1,225
170,169,54160,1,0,0:0:0:0:
171,152,54220,1,0,0:0:0:0:
256,227,54340,5,0,0:0:0:0:
230,53,54460,1,0,0:0:0:0:
187,316,54580,5,0,0:0:0:0:
362,238,54700,1,0,0:0:0:0:
461,363,54820,6,0,B|488:342|488:342|488:206,1,168.75
488,185,55060,1,0,0:0:0:0:
362,238,55180,5,0,0:0:0:0:
362,260,55240,1,0,0:0:0:0:
362,282,55300,2,0,B|379:326|379:326|391:256|391:256|377:227|377:227|384:164|384:164|378:100,1,270
478,72,55780,5,0,0:0:0:0:
414,9,55900,1,0,0:0:0:0:
323,13,56020,1,0,0:0:0:0:
283,93,56140,1,0,0:0:0:0:
305,180,56260,5,0,0:0:0:0:
296,93,56380,1,0,0:0:0:0:
220,52,56500,1,0,0:0:0:0:
142,91,56620,1,0,0:0:0:0:
219,139,56740,5,0,0:0:0:0:
142,91,56860,1,0,0:0:0:0:
61,129,56980,1,0,0:0:0:0:
46,217,57100,1,0,0:0:0:0:
102,287,57220,5,0,0:0:0:0:
160,218,57340,1,0,0:0:0:0:
190,301,57460,1,0,0:0:0:0:
102,287,57580,1,0,0:0:0:0:
160,218,57700,5,0,0:0:0:0:
248,234,57820,1,0,0:0:0:0:
311,297,57940,1,0,0:0:0:0:
400,305,58060,1,0,0:0:0:0:
463,241,58180,2,0,P|468:181|443:127,1,90
330,39,58420,2,0,P|325:99|350:153,1,90
377,206,58660,5,0,0:0:0:0:
333,126,58780,1,0,0:0:0:0:
244,107,58900,1,0,0:0:0:0:
263,240,59020,1,0,0:0:0:0:
333,126,59140,1,0,0:0:0:0:
165,192,59260,1,0,0:0:0:0:
366,291,59380,1,0,0:0:0:0:
313,26,59500,1,0,0:0:0:0:
165,192,59620,2,0,L|150:99,1,90
132,21,59860,5,0,0:0:0:0:
73,83,59980,1,0,0:0:0:0:
150,103,60100,5,0,0:0:0:0:
86,166,60220,1,0,0:0:0:0:
70,254,60340,1,0,0:0:0:0:
116,330,60460,1,0,0:0:0:0:
205,331,60580,5,0,0:0:0:0:
157,254,60700,1,0,0:0:0:0:
233,207,60820,1,0,0:0:0:0:
280,283,60940,1,0,0:0:0:0:
205,331,61060,6,0,P|246:367|297:370,1,90
233,207,61300,2,0,P|192:171|141:168,1,90
398,354,61540,5,0,0:0:0:0:
398,354,61660,1,0,0:0:0:0:
469,239,61780,5,0,0:0:0:0:
469,239,61900,1,0,0:0:0:0:
368,148,62020,5,0,0:0:0:0:
368,148,62140,1,0,0:0:0:0:
468,57,62260,6,0,B|491:46|491:46|379:46,1,135.000005149842
291,46,62500,5,0,0:0:0:0:
201,46,62620,1,0,0:0:0:0:
246,124,62740,5,0,0:0:0:0:
246,133,62800,1,0,0:0:0:0:
246,141,62860,1,0,0:0:0:0:
246,149,62920,1,0,0:0:0:0:
246,194,62980,5,0,0:0:0:0:
246,284,63100,1,0,0:0:0:0:
168,239,63220,1,0,0:0:0:0:
329,240,63340,1,0,0:0:0:0:
172,326,63460,6,0,B|121:353|121:353|73:317|73:317|16:349,2,175.499991966248
246,284,64300,1,0,0:0:0:0:
332,239,64420,6,0,B|360:215|360:215|360:119,1,114.750002188683
360,118,64660,1,0,0:0:0:0:
134,163,64900,5,0,0:0:0:0:
410,293,65140,1,0,0:0:0:0:
59,329,65380,6,0,B|98:295|98:295|93:198|93:198|133:163,2,202.500007724762
17,259,66220,1,0,0:0:0:0:
12,162,66340,6,0,B|18:125|18:125|90:72,1,114.750002188683
95,65,66580,1,0,0:0:0:0:
409,292,66820,5,0,0:0:0:0:
133,162,67060,1,0,0:0:0:0:
484,126,67300,6,0,L|484:228,2,90
379,40,68020,1,0,0:0:0:0:
274,126,68260,6,0,L|274:229,2,90
379,40,68980,1,0,0:0:0:0:
199,40,69220,5,0,0:0:0:0:
283,343,69460,1,0,0:0:0:0:
379,40,69700,5,0,0:0:0:0:
463,343,69940,1,0,0:0:0:0:
148,343,70180,6,0,B|126:312|126:312|126:237,1,101.250003862381
126,221,70420,1,0,0:0:0:0:
126,194,70480,1,0,0:0:0:0:
126,167,70540,1,0,0:0:0:0:
126,140,70600,1,0,0:0:0:0:
126,113,70660,1,0,0:0:0:0:
458,167,70900,1,0,0:0:0:0:
262,23,71140,5,0,0:0:0:0:
248,34,71200,1,0,0:0:0:0:
237,48,71260,1,0,0:0:0:0:
231,65,71320,1,0,0:0:0:0:
229,83,71380,1,0,0:0:0:0:
232,101,71440,1,0,0:0:0:0:
240,117,71500,1,0,0:0:0:0:
252,130,71560,1,0,0:0:0:0:
264,143,71620,1,0,0:0:0:0:
278,155,71680,1,0,0:0:0:0:
289,169,71740,1,0,0:0:0:0:
295,186,71800,1,0,0:0:0:0:
297,204,71860,1,0,0:0:0:0:
293,221,71920,1,0,0:0:0:0:
286,238,71980,1,0,0:0:0:0:
274,251,72040,1,0,0:0:0:0:
260,262,72100,5,0,0:0:0:0:
250,236,72160,1,0,0:0:0:0:
232,216,72220,1,0,0:0:0:0:
209,202,72280,1,0,0:0:0:0:
183,197,72340,1,0,0:0:0:0:
156,201,72400,1,0,0:0:0:0:
132,213,72460,1,0,0:0:0:0:
114,233,72520,1,0,0:0:0:0:
102,257,72580,5,0,0:0:0:0:
146,250,72640,1,0,0:0:0:0:
181,222,72700,1,0,0:0:0:0:
197,180,72760,1,0,0:0:0:0:
191,136,72820,1,0,0:0:0:0:
164,101,72880,1,0,0:0:0:0:
123,84,72940,1,0,0:0:0:0:
79,89,73000,1,0,0:0:0:0:
52,124,73060,5,0,0:0:0:0:
57,117,73120,1,0,0:0:0:0:
62,109,73180,1,0,0:0:0:0:
67,102,73240,1,0,0:0:0:0:
71,93,73300,1,0,0:0:0:0:
73,85,73360,1,0,0:0:0:0:
74,76,73420,1,0,0:0:0:0:
73,67,73480,1,0,0:0:0:0:
70,58,73540,1,0,0:0:0:0:
67,50,73600,1,0,0:0:0:0:
63,42,73660,1,0,0:0:0:0:
59,34,73720,1,0,0:0:0:0:
58,25,73780,1,0,0:0:0:0:
58,16,73840,1,0,0:0:0:0:
61,8,73900,1,0,0:0:0:0:
66,1,73960,1,0,0:0:0:0:
74,1,74020,5,0,0:0:0:0:
82,16,74080,1,0,0:0:0:0:
95,29,74140,1,0,0:0:0:0:
110,39,74200,1,0,0:0:0:0:
127,44,74260,6,0,L|122:92,3,45
219,41,74500,2,0,L|214:89,3,45
307,30,74740,2,0,L|302:78,3,45
399,27,74980,5,0,0:0:0:0:
413,38,75040,1,0,0:0:0:0:
424,52,75100,1,0,0:0:0:0:
430,69,75160,1,0,0:0:0:0:
432,87,75220,1,0,0:0:0:0:
429,105,75280,1,0,0:0:0:0:
421,121,75340,1,0,0:0:0:0:
409,134,75400,1,0,0:0:0:0:
394,143,75460,5,0,0:0:0:0:
349,143,75520,1,0,0:0:0:0:
309,164,75580,1,0,0:0:0:0:
283,201,75640,1,0,0:0:0:0:
279,245,75700,1,0,0:0:0:0:
298,285,75760,1,0,0:0:0:0:
334,311,75820,1,0,0:0:0:0:
378,314,75880,1,0,0:0:0:0:
413,284,75940,5,0,0:0:0:0:
394,244,76000,1,0,0:0:0:0:
355,222,76060,1,0,0:0:0:0:
311,230,76120,1,0,0:0:0:0:
280,263,76180,1,0,0:0:0:0:
256,301,76240,1,0,0:0:0:0:
215,319,76300,1,0,0:0:0:0:
172,308,76360,1,0,0:0:0:0:
149,269,76420,5,0,0:0:0:0:
104,269,76480,1,0,0:0:0:0:
64,248,76540,1,0,0:0:0:0:
38,211,76600,1,0,0:0:0:0:
34,167,76660,1,0,0:0:0:0:
53,127,76720,1,0,0:0:0:0:
89,101,76780,1,0,0:0:0:0:
133,98,76840,1,0,0:0:0:0:
170,123,76900,5,0,0:0:0:0:
165,116,76960,1,0,0:0:0:0:
160,108,77020,1,0,0:0:0:0:
155,101,77080,1,0,0:0:0:0:
151,92,77140,1,0,0:0:0:0:
149,84,77200,1,0,0:0:0:0:
148,75,77260,1,0,0:0:0:0:
149,66,77320,1,0,0:0:0:0:
152,57,77380,1,0,0:0:0:0:
155,49,77440,1,0,0:0:0:0:
159,41,77500,1,0,0:0:0:0:
163,33,77560,1,0,0:0:0:0:
166,24,77620,6,0,L|113:33,3,45
255,31,77860,5,0,0:0:0:0:
260,56,77920,1,0,0:0:0:0:
275,77,77980,1,0,0:0:0:0:
297,92,78040,1,0,0:0:0:0:
324,96,78100,1,0,0:0:0:0:
350,89,78160,1,0,0:0:0:0:
371,73,78220,1,0,0:0:0:0:
384,49,78280,1,0,0:0:0:0:
387,22,78340,5,0,0:0:0:0:
395,25,78400,1,0,0:0:0:0:
404,28,78460,1,0,0:0:0:0:
412,32,78520,1,0,0:0:0:0:
420,35,78580,1,0,0:0:0:0:
428,39,78640,1,0,0:0:0:0:
437,42,78700,1,0,0:0:0:0:
445,44,78760,1,0,0:0:0:0:
453,48,78820,5,0,0:0:0:0:
489,124,78940,1,0,0:0:0:0:
443,195,79060,1,0,0:0:0:0:
370,239,79180,1,0,0:0:0:0:
287,218,79300,5,0,0:0:0:0:
352,164,79420,1,0,0:0:0:0:
431,190,79540,1,0,0:0:0:0:
493,249,79660,1,0,0:0:0:0:
478,333,79780,5,0,0:0:0:0:
415,275,79900,1,0,0:0:0:0:
496,247,80020,1,0,0:0:0:0:
331,304,80140,1,0,0:0:0:0:
431,190,80260,5,0,0:0:0:0:
394,361,80380,1,0,0:0:0:0:
267,244,80500,1,0,0:0:0:0:
431,190,80620,1,0,0:0:0:0:
350,217,80740,6,0,L|329:310,3,85.4999977169037
201,183,81220,2,0,L|186:272,3,85.4999977169037
79,201,81700,5,0,0:0:0:0:
77,183,81820,1,0,0:0:0:0:
79,166,81940,1,0,0:0:0:0:
83,149,82060,1,0,0:0:0:0:
82,131,82180,5,0,0:0:0:0:
234,36,82340,1,0,0:0:0:0:
54,29,82500,1,0,0:0:0:0:
234,36,82660,5,0,0:0:0:0:
315,60,82780,1,0,0:0:0:0:
254,120,82900,5,0,0:0:0:0:
315,60,83020,1,0,0:0:0:0:
397,85,83140,5,0,0:0:0:0:
335,144,83260,1,0,0:0:0:0:
417,168,83380,5,0,0:0:0:0:
478,109,83500,1,0,0:0:0:0:
418,169,83620,5,0,0:0:0:0:
496,192,83740,1,0,0:0:0:0:
477,109,83860,5,0,0:0:0:0:
356,230,83980,1,0,0:0:0:0:
437,255,84100,5,0,0:0:0:0:
372,311,84220,1,0,0:0:0:0:
356,230,84340,1,0,0:0:0:0:
451,339,84460,1,0,0:0:0:0:
297,287,84580,6,0,L|201:260,1,85.4999977169037
252,140,84820,2,0,L|155:164,1,85.4999977169037
138,36,85060,2,0,L|66:105,1,85.4999977169037
94,222,85300,5,0,0:0:0:0:
226,54,85420,1,0,0:0:0:0:
94,222,85540,6,0,B|50:279|50:279|42:300,1,85.4999977169037
214,263,85780,2,0,B|204:334|204:334|207:356,1,85.4999977169037
369,290,86020,5,0,0:0:0:0:
485,93,86180,1,0,0:0:0:0:
257,84,86340,1,0,0:0:0:0:
458,213,86500,5,0,0:0:0:0:
357,123,86660,1,0,0:0:0:0:
423,5,86820,1,0,0:0:0:0:
292,241,86980,1,0,0:0:0:0:
255,26,87460,5,0,0:0:0:0:
212,98,88420,1,0,0:0:0:0:
212,98,88900,5,0,0:0:0:0:
84,225,89060,1,0,0:0:0:0:
38,52,89220,1,0,0:0:0:0:
212,98,89380,6,0,L|237:25,1,60
432,107,89540,2,0,L|482:166,1,60
302,253,89700,2,0,L|240:285,1,60
232,71,89860,6,0,L|275:7,1,60
438,144,90020,2,0,L|471:214,1,60
271,241,90180,2,0,L|198:246,1,60
252,44,90340,5,0,0:0:0:0:
372,44,90500,1,0,0:0:0:0:
312,147,90660,1,0,0:0:0:0:
262,29,90820,5,0,0:0:0:0:
378,60,90980,1,0,0:0:0:0:
294,144,91140,1,0,0:0:0:0:
192,149,91300,5,0,0:0:0:0:
271,241,91460,1,0,0:0:0:0:
152,267,91620,1,0,0:0:0:0:
230,358,91780,5,0,0:0:0:0:
154,268,91940,1,0,0:0:0:0:
271,241,92100,1,0,0:0:0:0:
192,149,92260,5,0,0:0:0:0:
147,133,92340,1,0,0:0:0:0:
105,156,92420,1,0,0:0:0:0:
83,198,92500,5,0,0:0:0:0:
87,223,92580,2,0,L|56:158,1,60
115,9,92740,2,0,L|84:73,1,60
8,223,92900,2,0,L|39:293,1,60
189,366,93060,2,0,L|261:353,1,60
390,241,93220,5,0,0:0:0:0:
399,233,93300,1,0,0:0:0:0:
409,227,93380,1,0,0:0:0:0:
420,222,93460,1,0,0:0:0:0:
432,219,93540,1,0,0:0:0:0:
444,218,93620,1,0,0:0:0:0:
455,221,93700,6,0,L|468:156,1,60
452,371,93860,2,0,L|465:306,1,60
443,73,94020,2,0,L|456:8,1,60
354,79,94180,5,0,0:0:0:0:
171,235,94340,1,0,0:0:0:0:
385,342,94500,1,0,0:0:0:0:
205,101,94660,6,0,B|97:117|97:117|102:85|102:85|5:102,1,225.000008583069
21,190,95140,1,0,0:0:0:0:
28,350,96100,5,0,0:0:0:0:
285,293,96580,5,0,0:0:0:0:
413,166,96740,1,0,0:0:0:0:
459,339,96900,1,0,0:0:0:0:
285,293,97060,6,0,L|260:366,1,60
65,284,97220,2,0,L|15:225,1,60
195,138,97380,2,0,L|257:106,1,60
265,320,97540,6,0,L|222:384,1,60
59,247,97700,2,0,L|26:177,1,60
226,150,97860,2,0,L|299:145,1,60
245,347,98020,5,0,0:0:0:0:
125,347,98180,1,0,0:0:0:0:
185,244,98340,1,0,0:0:0:0:
235,362,98500,5,0,0:0:0:0:
119,331,98660,1,0,0:0:0:0:
203,247,98820,1,0,0:0:0:0:
305,242,98980,5,0,0:0:0:0:
226,150,99140,1,0,0:0:0:0:
345,124,99300,1,0,0:0:0:0:
267,33,99460,5,0,0:0:0:0:
343,123,99620,1,0,0:0:0:0:
226,150,99780,1,0,0:0:0:0:
305,242,99940,5,0,0:0:0:0:
362,260,100020,1,0,0:0:0:0:
412,227,100100,1,0,0:0:0:0:
428,169,100180,1,0,0:0:0:0:
402,117,100260,6,0,L|336:123,1,60
245,247,100420,2,0,L|304:241,1,60
467,38,100580,6,0,L|404:43,1,60
187,327,100740,2,0,L|247:320,1,60
226,150,100900,5,0,0:0:0:0:
217,157,100980,1,0,0:0:0:0:
207,163,101060,1,0,0:0:0:0:
196,168,101140,1,0,0:0:0:0:
184,171,101220,1,0,0:0:0:0:
172,172,101300,1,0,0:0:0:0:
160,170,101380,5,0,0:0:0:0:
44,84,101540,1,0,0:0:0:0:
178,31,101700,1,0,0:0:0:0:
88,304,101860,5,0,0:0:0:0:
462,89,102100,1,0,0:0:0:0:
40,183,102340,1,0,0:0:0:0:
453,307,102580,5,0,0:0:0:0:
453,283,102660,1,0,0:0:0:0:
452,259,102740,1,0,0:0:0:0:
451,235,102820,1,0,0:0:0:0:
307,235,103060,1,0,0:0:0:0:
452,127,103300,5,0,0:0:0:0:
452,103,103380,1,0,0:0:0:0:
451,79,103460,1,0,0:0:0:0:
450,55,103540,1,0,0:0:0:0:
309,55,103780,1,0,0:0:0:0:
309,163,104020,5,0,0:0:0:0:
309,187,104100,1,0,0:0:0:0:
308,211,104180,1,0,0:0:0:0:
307,235,104260,1,0,0:0:0:0:
163,235,104500,1,0,0:0:0:0:
237,358,104740,1,0,0:0:0:0:
163,235,104980,5,0,0:0:0:0:
163,175,105060,1,0,0:0:0:0:
163,115,105140,1,0,0:0:0:0:
163,55,105220,5,0,0:0:0:0:
19,55,105460,1,0,0:0:0:0:
163,55,105700,6,0,L|163:237,1,179.999994506836
163,331,106180,5,0,0:0:0:0:
195,316,106260,1,0,0:0:0:0:
230,313,106340,1,0,0:0:0:0:
265,321,106420,5,0,0:0:0:0:
297,306,106500,1,0,0:0:0:0:
332,303,106580,1,0,0:0:0:0:
365,314,106660,5,0,0:0:0:0:
379,295,106740,1,0,0:0:0:0:
398,280,106820,1,0,0:0:0:0:
420,270,106900,1,0,0:0:0:0:
444,266,106980,1,0,0:0:0:0:
468,267,107060,1,0,0:0:0:0:
489,278,107140,2,0,L|493:206,5,60
406,175,107620,5,0,0:0:0:0:
406,139,107680,1,0,0:0:0:0:
406,103,107740,1,0,0:0:0:0:
316,109,107860,6,0,L|263:77,1,60
199,44,108020,1,0,0:0:0:0:
189,37,108100,1,0,0:0:0:0:
404,19,108340,1,0,0:0:0:0:
46,58,108580,5,0,0:0:0:0:
145,149,108740,1,0,0:0:0:0:
23,207,108900,1,0,0:0:0:0:
145,149,109060,5,0,0:0:0:0:
283,189,109220,1,0,0:0:0:0:
274,45,109380,1,0,0:0:0:0:
423,89,109540,5,0,0:0:0:0:
49,304,109780,1,0,0:0:0:0:
471,210,110020,1,0,0:0:0:0:
58,86,110260,5,0,0:0:0:0:
58,110,110340,1,0,0:0:0:0:
59,134,110420,1,0,0:0:0:0:
60,158,110500,1,0,0:0:0:0:
204,158,110740,1,0,0:0:0:0:
59,266,110980,5,0,0:0:0:0:
59,290,111060,1,0,0:0:0:0:
60,314,111140,1,0,0:0:0:0:
61,338,111220,1,0,0:0:0:0:
202,338,111460,1,0,0:0:0:0:
202,230,111700,5,0,0:0:0:0:
202,206,111780,1,0,0:0:0:0:
203,182,111860,1,0,0:0:0:0:
204,158,111940,1,0,0:0:0:0:
348,158,112180,1,0,0:0:0:0:
274,35,112420,1,0,0:0:0:0:
348,158,112660,5,0,0:0:0:0:
348,218,112740,1,0,0:0:0:0:
348,278,112820,1,0,0:0:0:0:
348,338,112900,5,0,0:0:0:0:
492,338,113140,1,0,0:0:0:0:
348,338,113380,6,0,L|348:156,1,179.999994506836
256,111,113860,5,0,0:0:0:0:
248,101,113940,1,0,0:0:0:0:
246,89,114020,1,0,0:0:0:0:
245,77,114100,5,0,0:0:0:0:
213,92,114180,1,0,0:0:0:0:
178,95,114260,1,0,0:0:0:0:
145,84,114340,5,0,0:0:0:0:
130,102,114420,1,0,0:0:0:0:
111,117,114500,1,0,0:0:0:0:
89,127,114580,1,0,0:0:0:0:
65,131,114660,1,0,0:0:0:0:
41,130,114740,1,0,0:0:0:0:
21,120,114820,2,0,L|18:186,5,60
106,209,115300,5,0,0:0:0:0:
106,245,115360,1,0,0:0:0:0:
106,281,115420,1,0,0:0:0:0:
196,275,115540,6,0,L|249:307,1,60
313,340,115700,1,0,0:0:0:0:
323,347,115780,1,0,0:0:0:0:
108,365,116020,1,0,0:0:0:0:
466,326,116260,5,0,0:0:0:0:
367,235,116420,1,0,0:0:0:0:
489,177,116580,1,0,0:0:0:0:
367,235,116740,5,0,0:0:0:0:
268,144,116900,1,0,0:0:0:0:
390,86,117060,1,0,0:0:0:0:
89,295,117220,5,0,0:0:0:0:
256,192,117300,12,0,120580,0:0:0:0:
90,295,121060,5,0,0:0:0:0:
85,71,121180,1,0,0:0:0:0:
243,242,121300,5,0,0:0:0:0:
95,59,121420,1,0,0:0:0:0:
253,231,121540,6,0,L|301:150,1,90
357,46,121780,5,0,0:0:0:0:
169,152,121900,1,0,0:0:0:0:
330,297,122020,5,0,0:0:0:0:
153,152,122140,1,0,0:0:0:0:
357,46,122260,5,0,0:0:0:0:
169,152,122380,1,0,0:0:0:0:
383,181,122500,2,0,P|415:215|436:267,1,90
253,231,122740,5,0,0:0:0:0:
387,180,122860,1,0,0:0:0:0:
252,231,122980,2,0,B|211:251|211:251|146:266,1,90
25,291,123220,5,0,0:0:0:0:
26,93,123340,1,0,0:0:0:0:
17,291,123460,2,0,B|33:338|33:338|57:371,1,90
34,91,123700,2,0,B|30:140|30:140|16:178,1,90
179,37,123940,5,0,0:0:0:0:
383,107,124060,1,0,0:0:0:0:
193,210,124180,1,0,0:0:0:0:
163,37,124300,1,0,0:0:0:0:
394,19,124420,1,0,0:0:0:0:
147,37,124540,1,0,0:0:0:0:
337,183,124660,6,0,P|392:195|439:179,1,90
276,347,124900,2,0,B|250:359|250:359|173:359,1,90
11,321,125140,5,0,0:0:0:0:
119,155,125260,1,0,0:0:0:0:
258,268,125380,2,0,B|232:280|232:280|155:280,1,90
22,146,125620,2,0,P|44:94|90:64,1,90
219,13,125860,5,0,0:0:0:0:
206,192,125980,1,0,0:0:0:0:
219,13,126100,2,0,P|283:6|335:11,1,90
470,23,126340,5,0,0:0:0:0:
324,94,126460,1,0,0:0:0:0:
455,189,126580,5,0,0:0:0:0:
294,178,126700,1,0,0:0:0:0:
362,324,126820,2,0,P|317:346|257:353,1,90
116,339,127060,5,0,0:0:0:0:
116,355,127180,2,0,L|112:258,1,90
22,163,127420,5,0,0:0:0:0:
22,179,127540,2,0,L|18:82,1,90
169,29,127780,5,0,0:0:0:0:
121,183,127900,1,0,0:0:0:0:
169,13,128020,5,0,0:0:0:0:
217,183,128140,1,0,0:0:0:0:
292,133,128260,5,0,0:0:0:0:
345,106,128340,1,0,0:0:0:0:
401,125,128420,1,0,0:0:0:0:
422,181,128500,5,0,0:0:0:0:
422,169,128580,1,0,0:0:0:0:
422,157,128660,1,0,0:0:0:0:
422,143,128740,2,0,L|422:40,1,99.0000030212403
339,203,128980,5,0,0:0:0:0:
217,282,129100,2,0,L|217:179,1,99.0000030212403
134,342,129340,5,0,0:0:0:0:
36,358,129460,2,0,L|36:240,1,99.0000030212403
70,92,129700,5,0,0:0:0:0:
285,107,129820,1,0,0:0:0:0:
128,255,129940,1,0,0:0:0:0:
55,96,130060,1,0,0:0:0:0:
272,22,130180,1,0,0:0:0:0:
39,101,130300,1,0,0:0:0:0:
260,191,130420,6,0,P|316:188|360:157,1,99.0000030212403
275,37,130660,2,0,B|250:25|250:25|168:25,1,99.0000030212403
26,27,130900,5,0,0:0:0:0:
160,144,131020,1,0,0:0:0:0:
22,23,131140,6,0,P|15:87|20:140,1,99.0000030212403
160,144,131380,2,0,P|167:208|160:262,1,99.0000030212403
58,355,131620,5,0,0:0:0:0:
85,195,131740,1,0,0:0:0:0:
233,351,131860,5,0,0:0:0:0:
260,191,131980,1,0,0:0:0:0:
421,337,132100,5,0,0:0:0:0:
448,177,132220,1,0,0:0:0:0:
421,337,132340,6,0,B|399:351|399:351|323:351,1,99.0000030212403
260,191,132580,2,0,B|282:177|282:177|358:177,1,99.0000030212403
448,177,132820,5,0,0:0:0:0:
416,62,132940,2,0,P|370:41|303:37,1,99.0000030212403
203,47,133180,5,0,0:0:0:0:
118,130,133300,2,0,L|63:44,1,99.0000030212403
41,224,133540,5,0,0:0:0:0:
41,224,133660,2,0,L|98:333,1,99.0000030212403
257,364,133900,5,0,0:0:0:0:
257,364,134020,2,0,L|200:255,1,99.0000030212403
41,224,134260,2,0,L|98:333,1,99.0000030212403
212,276,134500,5,0,0:0:0:0:
227,263,134560,1,0,0:0:0:0:
245,254,134620,1,0,0:0:0:0:
263,248,134680,1,0,0:0:0:0:
283,250,134740,2,0,L|304:206,1,49.5000015106202
348,95,134860,5,0,0:0:0:0:
348,85,134920,1,0,0:0:0:0:
348,75,134980,5,0,0:0:0:0:
308,75,135040,1,0,0:0:0:0:
268,75,135100,1,0,0:0:0:0:
228,75,135160,1,0,0:0:0:0:
188,75,135220,5,0,0:0:0:0:
191,65,135280,1,0,0:0:0:0:
193,55,135340,2,0,L|192:114,1,49.5000015106202
41,224,135460,5,0,0:0:0:0:
41,195,135520,1,0,0:0:0:0:
41,165,135580,1,0,0:0:0:0:
41,135,135640,1,0,0:0:0:0:
20,89,135700,6,0,L|7:137,3,49.5000015106202
145,268,135940,5,0,0:0:0:0:
180,214,136020,1,0,0:0:0:0:
244,208,136100,1,0,0:0:0:0:
288,253,136180,1,0,0:0:0:0:
322,306,136260,1,0,0:0:0:0:
386,312,136340,1,0,0:0:0:0:
437,270,136420,6,0,P|457:223|452:166,1,99.0000030212403
423,81,136660,5,0,0:0:0:0:
336,32,136780,1,0,0:0:0:0:
244,69,136900,5,0,0:0:0:0:
329,136,137020,1,0,0:0:0:0:
244,69,137140,1,0,0:0:0:0:
149,39,137260,1,0,0:0:0:0:
65,92,137380,5,0,0:0:0:0:
153,135,137500,1,0,0:0:0:0:
162,233,137620,1,0,0:0:0:0:
104,313,137740,5,0,0:0:0:0:
201,328,137860,1,0,0:0:0:0:
299,315,137980,1,0,0:0:0:0:
381,259,138100,5,0,0:0:0:0:
390,357,138220,1,0,0:0:0:0:
381,259,138340,5,0,0:0:0:0:
413,165,138460,1,0,0:0:0:0:
316,187,138580,5,0,0:0:0:0:
381,259,138700,1,0,0:0:0:0:
478,240,138820,1,0,0:0:0:0:
509,146,138940,1,0,0:0:0:0:
440,74,139060,1,0,0:0:0:0:
345,102,139180,1,0,0:0:0:0:
316,187,139300,1,0,0:0:0:0:
251,111,139420,1,0,0:0:0:0:
222,205,139540,5,0,0:0:0:0:
222,214,139600,1,0,0:0:0:0:
222,223,139660,1,0,0:0:0:0:
222,232,139720,1,0,0:0:0:0:
222,281,139780,5,0,0:0:0:0:
123,281,139900,1,0,0:0:0:0:
173,366,140020,1,0,0:0:0:0:
123,281,140140,1,0,0:0:0:0:
24,269,140260,5,0,0:0:0:0:
88,193,140380,1,0,0:0:0:0:
111,96,140500,1,0,0:0:0:0:
55,14,140620,5,0,0:0:0:0:
153,15,140740,1,0,0:0:0:0:
251,16,140860,1,0,0:0:0:0:
349,17,140980,5,0,0:0:0:0:
302,104,141100,1,0,0:0:0:0:
255,191,141220,5,0,0:0:0:0:
353,186,141340,1,0,0:0:0:0:
430,247,141460,1,0,0:0:0:0:
405,342,141580,5,0,0:0:0:0:
325,282,141700,1,0,0:0:0:0:
226,290,141820,1,0,0:0:0:0:
152,356,141940,5,0,0:0:0:0:
133,258,142060,1,0,0:0:0:0:
114,160,142180,5,0,0:0:0:0:
16,140,142300,1,0,0:0:0:0:
77,62,142420,1,0,0:0:0:0:
175,82,142540,5,0,0:0:0:0:
257,136,142660,1,0,0:0:0:0:
355,131,142780,1,0,0:0:0:0:
434,71,142900,5,0,0:0:0:0:
439,169,143020,1,0,0:0:0:0:
444,267,143140,1,0,0:0:0:0:
348,291,143260,1,0,0:0:0:0:
252,318,143380,5,0,0:0:0:0:
242,321,143440,1,0,0:0:0:0:
232,325,143500,1,0,0:0:0:0:
223,329,143560,1,0,0:0:0:0:
177,347,143620,5,0,0:0:0:0:
139,255,143740,1,0,0:0:0:0:
70,326,143860,1,0,0:0:0:0:
177,347,143980,1,0,0:0:0:0:
139,255,144100,5,0,0:0:0:0:
142,237,144180,1,0,0:0:0:0:
142,219,144260,1,0,0:0:0:0:
139,201,144340,1,0,0:0:0:0:
133,184,144420,1,0,0:0:0:0:
124,169,144500,1,0,0:0:0:0:
112,155,144580,1,0,0:0:0:0:
98,144,144660,1,0,0:0:0:0:
82,135,144740,1,0,0:0:0:0:
66,129,144820,1,0,0:0:0:0:
48,126,144900,1,0,0:0:0:0:
30,128,144980,1,0,0:0:0:0:
16,140,145060,5,0,0:0:0:0:
49,153,145140,1,0,0:0:0:0:
85,154,145220,1,0,0:0:0:0:
119,145,145300,1,0,0:0:0:0:
149,125,145380,1,0,0:0:0:0:
171,96,145460,1,0,0:0:0:0:
193,68,145540,5,0,0:0:0:0:
227,54,145620,1,0,0:0:0:0:
263,53,145700,1,0,0:0:0:0:
297,62,145780,1,0,0:0:0:0:
327,82,145860,1,0,0:0:0:0:
348,111,145940,1,0,0:0:0:0:
353,146,146020,5,0,0:0:0:0:
356,141,146100,1,0,0:0:0:0:
359,135,146180,1,0,0:0:0:0:
362,130,146260,1,0,0:0:0:0:
364,124,146340,1,0,0:0:0:0:
365,119,146420,1,0,0:0:0:0:
366,113,146500,1,0,0:0:0:0:
367,107,146580,1,0,0:0:0:0:
367,101,146660,1,0,0:0:0:0:
366,95,146740,1,0,0:0:0:0:
365,89,146820,1,0,0:0:0:0:
363,83,146900,1,0,0:0:0:0:
359,78,146980,5,0,0:0:0:0:
359,89,147060,1,0,0:0:0:0:
360,101,147140,1,0,0:0:0:0:
360,113,147220,1,0,0:0:0:0:
361,125,147300,1,0,0:0:0:0:
361,137,147380,1,0,0:0:0:0:
362,149,147460,1,0,0:0:0:0:
362,161,147540,1,0,0:0:0:0:
363,173,147620,1,0,0:0:0:0:
363,185,147700,1,0,0:0:0:0:
364,197,147780,1,0,0:0:0:0:
364,209,147860,1,0,0:0:0:0:
364,269,147940,5,0,0:0:0:0:
278,239,148060,1,0,0:0:0:0:
203,289,148180,1,0,0:0:0:0:
198,378,148300,1,0,0:0:0:0:
285,332,148420,5,0,0:0:0:0:
203,289,148540,1,0,0:0:0:0:
121,327,148660,1,0,0:0:0:0:
33,307,148780,1,0,0:0:0:0:
8,220,148900,5,0,0:0:0:0:
96,205,149020,1,0,0:0:0:0:
148,132,149140,1,0,0:0:0:0:
124,45,149260,1,0,0:0:0:0:
36,24,149380,5,0,0:0:0:0:
124,45,149500,1,0,0:0:0:0:
212,58,149620,1,0,0:0:0:0:
300,75,149740,1,0,0:0:0:0:
388,93,149860,5,0,0:0:0:0:
329,161,149980,1,0,0:0:0:0:
321,250,150100,1,0,0:0:0:0:
353,333,150220,1,0,0:0:0:0:
430,377,150340,5,0,0:0:0:0:
451,289,150460,1,0,0:0:0:0:
466,200,150580,1,0,0:0:0:0:
479,111,150700,1,0,0:0:0:0:
494,22,150820,6,0,L|395:15,1,90
225,5,151060,5,0,0:0:0:0:
225,184,151180,1,0,0:0:0:0:
225,363,151300,6,0,L|129:363,1,90
225,184,151540,2,0,L|321:184,1,90
58,269,151780,5,0,0:0:0:0:
30,183,151900,1,0,0:0:0:0:
50,95,152020,1,0,0:0:0:0:
124,45,152140,1,0,0:0:0:0:
213,52,152260,5,0,0:0:0:0:
167,129,152380,1,0,0:0:0:0:
213,52,152500,1,0,0:0:0:0:
301,35,152620,1,0,0:0:0:0:
376,83,152740,5,0,0:0:0:0:
302,116,152860,1,0,0:0:0:0:
299,196,152980,1,0,0:0:0:0:
352,257,153100,1,0,0:0:0:0:
432,250,153220,5,0,0:0:0:0:
386,183,153340,1,0,0:0:0:0:
306,196,153460,1,0,0:0:0:0:
271,269,153580,1,0,0:0:0:0:
317,335,153700,5,0,0:0:0:0:
271,269,153820,1,0,0:0:0:0:
190,262,153940,1,0,0:0:0:0:
123,308,154060,1,0,0:0:0:0:
42,306,154180,6,0,P|37:246|62:192,1,90
165,152,154420,2,0,P|170:92|145:38,1,90
83,110,154660,5,0,0:0:0:0:
83,110,154780,1,0,0:0:0:0:
254,55,154900,5,0,0:0:0:0:
254,55,155020,1,0,0:0:0:0:
406,151,155140,6,0,L|481:51,2,120
313,358,155620,5,0,0:0:0:0:
273,277,155740,1,0,0:0:0:0:
186,251,155860,1,0,0:0:0:0:
103,287,155980,1,0,0:0:0:0:
92,376,156100,5,0,0:0:0:0:
174,340,156220,1,0,0:0:0:0:
186,251,156340,1,0,0:0:0:0:
112,198,156460,1,0,0:0:0:0:
31,237,156580,5,0,0:0:0:0:
112,198,156700,1,0,0:0:0:0:
129,109,156820,1,0,0:0:0:0:
187,40,156940,1,0,0:0:0:0:
273,14,157060,6,0,P|327:17|365:51,1,90
334,217,157300,2,0,P|375:253|426:256,1,90
424,123,157540,5,0,0:0:0:0:
424,123,157660,1,0,0:0:0:0:
290,104,157780,5,0,0:0:0:0:
290,104,157900,1,0,0:0:0:0:
334,217,158020,5,0,0:0:0:0:
306,302,158140,1,0,0:0:0:0:
394,283,158260,1,0,0:0:0:0:
334,217,158380,1,0,0:0:0:0:
248,244,158500,6,0,P|197:255|155:328,1,135
152,366,158740,5,0,0:0:0:0:
152,357,158800,1,0,0:0:0:0:
152,348,158860,1,0,0:0:0:0:
152,339,158920,1,0,0:0:0:0:
152,330,158980,5,0,0:0:0:0:
344,145,159220,1,0,0:0:0:0:
340,58,159460,6,0,B|391:31|391:31|439:67|439:67|499:36,2,175.499991966248
266,100,160300,1,0,0:0:0:0:
180,145,160420,6,0,B|152:169|152:169|152:265,1,114.750002188683
152,266,160660,1,0,0:0:0:0:
378,221,160900,5,0,0:0:0:0:
378,251,161020,1,0,0:0:0:0:
378,281,161140,1,0,0:0:0:0:
378,311,161260,1,0,0:0:0:0:
378,341,161380,6,0,B|417:307|417:307|412:210|412:210|452:175,2,202.500007724762
294,288,162220,1,0,0:0:0:0:
289,191,162340,6,0,B|295:154|295:154|367:101,1,114.750002188683
372,94,162580,1,0,0:0:0:0:
73,332,162820,5,0,0:0:0:0:
154,220,163060,1,0,0:0:0:0:
154,189,163180,1,0,0:0:0:0:
154,159,163300,6,0,L|154:40,2,120
247,83,164020,1,0,0:0:0:0:
258,81,164140,1,0,0:0:0:0:
271,79,164260,5,0,0:0:0:0:
282,103,164380,1,0,0:0:0:0:
291,128,164500,5,0,0:0:0:0:
317,128,164620,1,0,0:0:0:0:
343,128,164740,6,0,L|348:210,1,67.5
348,211,164980,1,0,0:0:0:0:
349,223,165040,1,0,0:0:0:0:
351,239,165100,1,0,0:0:0:0:
442,338,165220,6,0,L|452:230,1,90
456,113,165580,1,0,0:0:0:0:
457,68,165700,1,0,0:0:0:0:
188,36,165940,5,0,0:0:0:0:
184,80,166060,1,0,0:0:0:0:
179,124,166180,2,0,L|133:119,2,30
41,183,166420,5,0,0:0:0:0:
41,195,166500,1,0,0:0:0:0:
41,207,166580,1,0,0:0:0:0:
41,221,166660,2,0,L|99:251,1,60
197,300,166980,1,0,0:0:0:0:
250,361,167140,5,0,0:0:0:0:
264,350,167200,1,0,0:0:0:0:
275,336,167260,1,0,0:0:0:0:
281,319,167320,1,0,0:0:0:0:
283,301,167380,1,0,0:0:0:0:
280,283,167440,1,0,0:0:0:0:
272,267,167500,1,0,0:0:0:0:
260,254,167560,1,0,0:0:0:0:
248,241,167620,1,0,0:0:0:0:
234,229,167680,1,0,0:0:0:0:
223,215,167740,1,0,0:0:0:0:
217,198,167800,1,0,0:0:0:0:
215,180,167860,1,0,0:0:0:0:
219,163,167920,1,0,0:0:0:0:
226,146,167980,1,0,0:0:0:0:
238,133,168040,1,0,0:0:0:0:
252,122,168100,5,0,0:0:0:0:
262,148,168160,1,0,0:0:0:0:
280,168,168220,1,0,0:0:0:0:
303,182,168280,1,0,0:0:0:0:
329,187,168340,1,0,0:0:0:0:
356,183,168400,1,0,0:0:0:0:
380,171,168460,1,0,0:0:0:0:
398,151,168520,1,0,0:0:0:0:
410,127,168580,5,0,0:0:0:0:
366,134,168640,1,0,0:0:0:0:
331,162,168700,1,0,0:0:0:0:
315,204,168760,1,0,0:0:0:0:
321,248,168820,1,0,0:0:0:0:
348,283,168880,1,0,0:0:0:0:
389,300,168940,1,0,0:0:0:0:
433,295,169000,1,0,0:0:0:0:
460,260,169060,5,0,0:0:0:0:
455,267,169120,1,0,0:0:0:0:
450,275,169180,1,0,0:0:0:0:
445,282,169240,1,0,0:0:0:0:
441,291,169300,1,0,0:0:0:0:
439,299,169360,1,0,0:0:0:0:
438,308,169420,1,0,0:0:0:0:
439,317,169480,1,0,0:0:0:0:
442,326,169540,1,0,0:0:0:0:
445,334,169600,1,0,0:0:0:0:
449,342,169660,1,0,0:0:0:0:
453,350,169720,1,0,0:0:0:0:
454,359,169780,1,0,0:0:0:0:
454,368,169840,1,0,0:0:0:0:
451,376,169900,1,0,0:0:0:0:
446,383,169960,1,0,0:0:0:0:
438,383,170020,5,0,0:0:0:0:
430,368,170080,1,0,0:0:0:0:
417,355,170140,1,0,0:0:0:0:
402,345,170200,1,0,0:0:0:0:
385,340,170260,6,0,L|390:292,3,45
293,343,170500,2,0,L|298:295,3,45
205,354,170740,2,0,L|210:306,3,45
113,357,170980,5,0,0:0:0:0:
99,346,171040,1,0,0:0:0:0:
88,332,171100,1,0,0:0:0:0:
82,315,171160,1,0,0:0:0:0:
80,297,171220,1,0,0:0:0:0:
83,279,171280,1,0,0:0:0:0:
91,263,171340,1,0,0:0:0:0:
103,250,171400,1,0,0:0:0:0:
118,241,171460,5,0,0:0:0:0:
163,241,171520,1,0,0:0:0:0:
203,220,171580,1,0,0:0:0:0:
229,183,171640,1,0,0:0:0:0:
233,139,171700,1,0,0:0:0:0:
214,99,171760,1,0,0:0:0:0:
178,73,171820,1,0,0:0:0:0:
134,70,171880,1,0,0:0:0:0:
99,100,171940,5,0,0:0:0:0:
118,140,172000,1,0,0:0:0:0:
157,162,172060,1,0,0:0:0:0:
201,154,172120,1,0,0:0:0:0:
232,121,172180,1,0,0:0:0:0:
256,83,172240,1,0,0:0:0:0:
297,65,172300,1,0,0:0:0:0:
340,76,172360,1,0,0:0:0:0:
363,115,172420,5,0,0:0:0:0:
408,115,172480,1,0,0:0:0:0:
448,136,172540,1,0,0:0:0:0:
474,173,172600,1,0,0:0:0:0:
478,217,172660,1,0,0:0:0:0:
459,257,172720,1,0,0:0:0:0:
423,283,172780,1,0,0:0:0:0:
379,286,172840,1,0,0:0:0:0:
342,261,172900,5,0,0:0:0:0:
347,268,172960,1,0,0:0:0:0:
352,276,173020,1,0,0:0:0:0:
357,283,173080,1,0,0:0:0:0:
361,292,173140,1,0,0:0:0:0:
363,300,173200,1,0,0:0:0:0:
364,309,173260,1,0,0:0:0:0:
363,318,173320,1,0,0:0:0:0:
360,327,173380,1,0,0:0:0:0:
357,335,173440,1,0,0:0:0:0:
353,343,173500,1,0,0:0:0:0:
349,351,173560,1,0,0:0:0:0:
346,360,173620,6,0,L|399:351,3,45
257,353,173860,5,0,0:0:0:0:
188,288,174100,5,0,0:0:0:0:
162,295,174160,1,0,0:0:0:0:
141,311,174220,1,0,0:0:0:0:
128,335,174280,1,0,0:0:0:0:
125,362,174340,5,0,0:0:0:0:
41,202,174580,1,0,0:0:0:0:
41,202,174820,5,0,0:0:0:0:
36,111,174940,1,0,0:0:0:0:
78,31,175060,1,0,0:0:0:0:
162,2,175180,1,0,0:0:0:0:
246,32,175300,5,0,0:0:0:0:
293,97,175420,1,0,0:0:0:0:
256,168,175540,1,0,0:0:0:0:
179,194,175660,1,0,0:0:0:0:
113,148,175780,5,0,0:0:0:0:
187,113,175900,1,0,0:0:0:0:
250,164,176020,1,0,0:0:0:0:
243,246,176140,1,0,0:0:0:0:
171,279,176260,5,0,0:0:0:0:
245,242,176380,1,0,0:0:0:0:
326,280,176500,1,0,0:0:0:0:
415,275,176620,1,0,0:0:0:0:
466,201,176740,5,0,0:0:0:0:
467,111,176860,1,0,0:0:0:0:
400,50,176980,1,0,0:0:0:0:
310,52,177100,1,0,0:0:0:0:
248,117,177220,5,0,0:0:0:0:
307,184,177340,1,0,0:0:0:0:
366,252,177460,1,0,0:0:0:0:
424,319,177580,1,0,0:0:0:0:
487,383,177700,5,0,0:0:0:0:
419,323,177820,1,0,0:0:0:0:
329,331,177940,5,0,0:0:0:0:
315,330,178000,1,0,0:0:0:0:
301,329,178060,1,0,0:0:0:0:
211,330,178180,6,0,L|111:338,1,90
33,233,178420,2,0,L|134:220,1,90
298,187,178660,5,0,0:0:0:0:
273,100,178780,1,0,0:0:0:0:
193,58,178900,1,0,0:0:0:0:
103,59,179020,1,0,0:0:0:0:
29,110,179140,5,0,0:0:0:0:
112,143,179260,1,0,0:0:0:0:
103,59,179380,5,0,0:0:0:0:
193,58,179500,1,0,0:0:0:0:
273,100,179620,5,0,0:0:0:0:
343,44,179740,1,0,0:0:0:0:
432,40,179860,1,0,0:0:0:0:
496,102,179980,1,0,0:0:0:0:
486,191,180100,5,0,0:0:0:0:
397,174,180220,1,0,0:0:0:0:
329,233,180340,1,0,0:0:0:0:
327,322,180460,1,0,0:0:0:0:
407,362,180580,5,0,0:0:0:0:
327,322,180700,1,0,0:0:0:0:
237,309,180820,1,0,0:0:0:0:
150,332,180940,1,0,0:0:0:0:
60,342,181060,6,0,P|24:314|9:249,1,90
103,176,181300,2,0,P|118:127|113:77,1,90
38,41,181540,5,0,0:0:0:0:
268,108,181700,1,0,0:0:0:0:
490,17,181860,1,0,0:0:0:0:
471,256,182020,1,0,0:0:0:0:
268,108,182180,1,0,0:0:0:0:
207,340,182340,1,0,0:0:0:0:
268,108,182500,6,0,P|254:41|227:14,1,90
224,113,182740,2,0,P|178:62|141:52,1,90
189,139,182980,2,0,P|124:118|87:128,1,90
172,180,183220,2,0,P|105:194|78:221,1,90
244,276,183460,6,0,P|258:343|285:370,1,90
287,270,183700,2,0,P|333:321|370:331,1,90
322,244,183940,2,0,P|387:265|424:255,1,90
340,204,184180,2,0,P|407:190|434:163,1,90
457,74,184420,6,0,P|412:48|365:48,1,90
55,310,184660,2,0,P|100:336|147:336,1,90
371,0,184900,6,0,P|319:0|278:23,1,90
141,384,185140,2,0,P|192:384|233:360,1,90
379,270,185380,6,0,B|386:248|386:248|430:233|447:200|449:155,1,125.999996154785
133,114,185620,2,0,B|126:136|126:136|82:151|65:184|63:229,1,125.999996154785
334,69,185860,6,0,B|312:62|312:62|297:18|264:1|219:-1,1,125.999996154785
178,315,186100,2,0,B|200:322|200:322|215:366|248:383|293:385,1,125.999996154785
