osu file format v14

[General]
AudioFilename: audio.mp3
AudioLeadIn: 0
PreviewTime: 54861
Countdown: 0
SampleSet: Normal
StackLeniency: 0.7
Mode: 3
LetterboxInBreaks: 0
SpecialStyle: 0
WidescreenStoryboard: 1

[Editor]
DistanceSpacing: 0.5
BeatDivisor: 4
GridSize: 8
TimelineZoom: 1.7

[Metadata]
Title:Star Bubble
TitleUnicode:Star Bubble
Artist:Angelic Buster
ArtistUnicode:엔젤릭버스터
Creator:Aruel
Version:Hard Lucid
Source:메이플스토리M
Tags:maplestoryM maplestory maple story M video game k-pop k pop korean kpop rpg angelic buster 엔버 스타버블 star long ver. version full nexon 넥슨 mobile
BeatmapID:3969283
BeatmapSetID:1761555

[Difficulty]
HPDrainRate:7.5
CircleSize:4
OverallDifficulty:7.5
ApproachRate:5
SliderMultiplier:1.4
SliderTickRate:1

[Events]
//Background and Video events
0,0,"secxcscx.png",0,0
//Break Periods
//Storyboard Layer 0 (Background)
//Storyboard Layer 1 (Fail)
//Storyboard Layer 2 (Pass)
//Storyboard Layer 3 (Foreground)
//Storyboard Layer 4 (Overlay)
//Storyboard Sound Samples

[TimingPoints]
1572,315.789473684211,4,1,1,40,1,0
54466,-100,4,1,1,40,0,1
63308,-100,4,1,1,40,0,0
64572,-100,4,1,1,40,0,1
73414,-100,4,1,1,40,0,0
110045,-100,4,1,1,40,0,1
118887,-100,4,1,1,40,0,0
120150,-100,4,1,1,40,0,1
128993,-100,4,1,1,40,0,0
151729,-100,4,1,1,40,0,1
160572,-100,4,1,1,40,0,0
161835,-100,4,1,1,40,0,1
170677,-100,4,1,1,40,0,0

[HitObjects]
448,192,1256,5,0,0:0:0:0:
320,192,1335,1,0,0:0:0:0:
192,192,1414,1,0,0:0:0:0:
64,192,1493,1,0,0:0:0:0:
448,192,1572,128,0,2677:0:0:0:0:
192,192,2677,128,0,4098:0:0:0:0:
320,192,4098,128,0,4887:0:0:0:0:
192,192,4887,128,0,5203:0:0:0:0:
64,192,5203,128,0,5677:0:0:0:0:
320,192,5677,128,0,5993:0:0:0:0:
192,192,5993,128,0,6308:0:0:0:0:
64,192,6308,128,0,6624:0:0:0:0:
320,192,6624,128,0,7098:0:0:0:0:
448,192,7098,128,0,7572:0:0:0:0:
192,192,7572,1,0,0:0:0:0:
64,192,7729,128,0,8677:0:0:0:0:
192,192,8677,128,0,9150:0:0:0:0:
448,192,9150,128,0,10256:0:0:0:0:
64,192,9466,1,0,0:0:0:0:
320,192,9624,1,0,0:0:0:0:
192,192,9782,1,0,0:0:0:0:
64,192,9940,1,0,0:0:0:0:
320,192,10256,1,0,0:0:0:0:
64,192,10256,1,0,0:0:0:0:
192,192,10572,1,0,0:0:0:0:
448,192,10572,1,0,0:0:0:0:
320,192,10887,1,0,0:0:0:0:
64,192,10887,1,0,0:0:0:0:
320,192,11203,1,0,0:0:0:0:
192,192,11203,1,0,0:0:0:0:
448,192,11361,1,0,0:0:0:0:
64,192,11361,1,0,0:0:0:0:
320,192,11519,1,0,0:0:0:0:
192,192,11519,1,0,0:0:0:0:
64,192,11519,128,0,11835:0:0:0:0:
320,192,11835,1,0,0:0:0:0:
448,192,11993,1,0,0:0:0:0:
192,192,11993,1,0,0:0:0:0:
64,192,12150,1,0,0:0:0:0:
448,192,12150,1,0,0:0:0:0:
320,192,12308,1,0,0:0:0:0:
64,192,12466,1,0,0:0:0:0:
448,192,12466,1,0,0:0:0:0:
192,192,12624,1,0,0:0:0:0:
64,192,12624,1,0,0:0:0:0:
192,192,12782,1,0,0:0:0:0:
320,192,12782,1,0,0:0:0:0:
448,192,12782,128,0,13098:0:0:0:0:
320,192,13098,1,0,0:0:0:0:
64,192,13098,1,0,0:0:0:0:
320,192,13256,1,0,0:0:0:0:
192,192,13256,1,0,0:0:0:0:
192,192,13414,1,0,0:0:0:0:
448,192,13414,1,0,0:0:0:0:
320,192,13572,1,0,0:0:0:0:
64,192,13572,1,0,0:0:0:0:
192,192,13729,1,0,0:0:0:0:
448,192,13887,1,0,0:0:0:0:
64,192,13887,1,0,0:0:0:0:
320,192,14045,1,0,0:0:0:0:
192,192,14045,1,0,0:0:0:0:
64,192,14045,128,0,14361:0:0:0:0:
448,192,14361,1,0,0:0:0:0:
320,192,14519,1,0,0:0:0:0:
64,192,14519,1,0,0:0:0:0:
320,192,14677,1,0,0:0:0:0:
192,192,14835,1,0,0:0:0:0:
448,192,14835,1,0,0:0:0:0:
320,192,14993,1,0,0:0:0:0:
64,192,14993,1,0,0:0:0:0:
192,192,15150,1,0,0:0:0:0:
64,192,15150,1,0,0:0:0:0:
192,192,15308,1,0,0:0:0:0:
320,192,15308,1,0,0:0:0:0:
448,192,15308,128,0,15624:0:0:0:0:
320,192,15624,1,0,0:0:0:0:
192,192,15624,1,0,0:0:0:0:
192,192,15782,1,0,0:0:0:0:
448,192,15782,1,0,0:0:0:0:
448,192,15940,1,0,0:0:0:0:
64,192,15940,1,0,0:0:0:0:
320,192,16098,1,0,0:0:0:0:
64,192,16098,1,0,0:0:0:0:
320,192,16256,1,0,0:0:0:0:
192,192,16256,1,0,0:0:0:0:
448,192,16414,1,0,0:0:0:0:
64,192,16414,1,0,0:0:0:0:
320,192,16572,1,0,0:0:0:0:
192,192,16572,128,0,16887:0:0:0:0:
64,192,16572,128,0,16887:0:0:0:0:
448,192,16887,1,0,0:0:0:0:
320,192,17045,1,0,0:0:0:0:
64,192,17045,1,0,0:0:0:0:
192,192,17203,1,0,0:0:0:0:
64,192,17203,1,0,0:0:0:0:
448,192,17361,1,0,0:0:0:0:
320,192,17519,1,0,0:0:0:0:
192,192,17519,1,0,0:0:0:0:
192,192,17677,1,0,0:0:0:0:
448,192,17677,1,0,0:0:0:0:
320,192,17835,128,0,18150:0:0:0:0:
448,192,17835,128,0,18150:0:0:0:0:
64,192,17835,1,0,0:0:0:0:
192,192,18150,1,0,0:0:0:0:
448,192,18308,1,0,0:0:0:0:
64,192,18308,1,0,0:0:0:0:
192,192,18466,128,0,18782:0:0:0:0:
64,192,18466,128,0,18782:0:0:0:0:
320,192,18466,1,0,0:0:0:0:
320,192,18782,1,0,0:0:0:0:
448,192,18940,1,0,0:0:0:0:
64,192,18940,1,0,0:0:0:0:
192,192,19098,1,0,0:0:0:0:
320,192,19098,128,0,19414:0:0:0:0:
448,192,19098,128,0,19414:0:0:0:0:
64,192,19414,1,0,0:0:0:0:
320,192,19572,1,0,0:0:0:0:
192,192,19572,1,0,0:0:0:0:
448,192,19729,1,0,0:0:0:0:
320,192,19887,1,0,0:0:0:0:
64,192,19887,1,0,0:0:0:0:
192,192,20045,1,0,0:0:0:0:
64,192,20045,1,0,0:0:0:0:
192,192,20203,1,0,0:0:0:0:
448,192,20203,1,0,0:0:0:0:
320,192,20361,1,0,0:0:0:0:
448,192,20361,1,0,0:0:0:0:
448,192,20677,1,0,0:0:0:0:
320,192,20835,1,0,0:0:0:0:
192,192,20993,1,0,0:0:0:0:
320,192,21150,1,0,0:0:0:0:
448,192,21308,1,0,0:0:0:0:
192,192,21466,128,0,21782:0:0:0:0:
320,192,21782,1,0,0:0:0:0:
64,192,21782,1,0,0:0:0:0:
64,192,22098,1,0,0:0:0:0:
448,192,22098,1,0,0:0:0:0:
320,192,22256,1,0,0:0:0:0:
64,192,22414,1,0,0:0:0:0:
192,192,22414,1,0,0:0:0:0:
320,192,22572,1,0,0:0:0:0:
64,192,22729,1,0,0:0:0:0:
448,192,22729,1,0,0:0:0:0:
192,192,22887,1,0,0:0:0:0:
64,192,23045,1,0,0:0:0:0:
448,192,23203,1,0,0:0:0:0:
64,192,23361,1,0,0:0:0:0:
320,192,23519,1,0,0:0:0:0:
64,192,23677,1,0,0:0:0:0:
192,192,23835,1,0,0:0:0:0:
64,192,23993,1,0,0:0:0:0:
320,192,23993,1,0,0:0:0:0:
448,192,24150,128,0,24624:0:0:0:0:
64,192,24308,1,0,0:0:0:0:
64,192,24624,1,0,0:0:0:0:
64,192,24940,1,0,0:0:0:0:
64,192,25256,1,0,0:0:0:0:
448,192,25256,1,0,0:0:0:0:
320,192,25414,1,0,0:0:0:0:
64,192,25572,1,0,0:0:0:0:
320,192,25729,1,0,0:0:0:0:
64,192,25887,1,0,0:0:0:0:
448,192,26045,1,0,0:0:0:0:
64,192,26203,1,0,0:0:0:0:
192,192,26203,1,0,0:0:0:0:
64,192,26519,1,0,0:0:0:0:
320,192,26519,1,0,0:0:0:0:
320,192,26835,1,0,0:0:0:0:
192,192,26835,1,0,0:0:0:0:
448,192,27150,1,0,0:0:0:0:
64,192,27150,1,0,0:0:0:0:
192,192,27308,1,0,0:0:0:0:
448,192,27466,1,0,0:0:0:0:
64,192,27466,1,0,0:0:0:0:
192,192,27624,1,0,0:0:0:0:
448,192,27782,1,0,0:0:0:0:
320,192,27782,1,0,0:0:0:0:
64,192,27940,1,0,0:0:0:0:
448,192,28098,1,0,0:0:0:0:
320,192,28256,1,0,0:0:0:0:
448,192,28414,1,0,0:0:0:0:
192,192,28572,128,0,29045:0:0:0:0:
448,192,28729,1,0,0:0:0:0:
448,192,29045,1,0,0:0:0:0:
448,192,29361,1,0,0:0:0:0:
64,192,29361,128,0,29677:0:0:0:0:
448,192,29677,1,0,0:0:0:0:
192,192,29677,128,0,29835:0:0:0:0:
64,192,29835,128,0,30150:0:0:0:0:
448,192,29993,1,0,0:0:0:0:
192,192,30150,128,0,30466:0:0:0:0:
448,192,30308,1,0,0:0:0:0:
320,192,30466,1,0,0:0:0:0:
64,192,30466,1,0,0:0:0:0:
448,192,30624,1,0,0:0:0:0:
448,192,30940,128,0,31256:0:0:0:0:
192,192,30940,128,0,31256:0:0:0:0:
320,192,31256,128,0,31572:0:0:0:0:
64,192,31256,128,0,31572:0:0:0:0:
192,192,31572,1,0,0:0:0:0:
448,192,31572,1,0,0:0:0:0:
448,192,31887,1,0,0:0:0:0:
64,192,31887,1,0,0:0:0:0:
448,192,32203,1,0,0:0:0:0:
192,192,32203,1,0,0:0:0:0:
64,192,32361,1,0,0:0:0:0:
448,192,32519,1,0,0:0:0:0:
192,192,32677,1,0,0:0:0:0:
448,192,32835,1,0,0:0:0:0:
64,192,32993,1,0,0:0:0:0:
448,192,33150,1,0,0:0:0:0:
192,192,33308,128,0,33782:0:0:0:0:
448,192,33466,1,0,0:0:0:0:
448,192,33782,1,0,0:0:0:0:
64,192,33782,1,0,0:0:0:0:
448,192,34098,1,0,0:0:0:0:
192,192,34256,1,0,0:0:0:0:
320,192,34414,1,0,0:0:0:0:
64,192,34414,1,0,0:0:0:0:
448,192,34729,1,0,0:0:0:0:
64,192,34729,1,0,0:0:0:0:
320,192,34887,1,0,0:0:0:0:
64,192,35045,1,0,0:0:0:0:
320,192,35203,1,0,0:0:0:0:
64,192,35361,1,0,0:0:0:0:
448,192,35519,1,0,0:0:0:0:
64,192,35677,1,0,0:0:0:0:
320,192,35835,128,0,36308:0:0:0:0:
64,192,35993,1,0,0:0:0:0:
64,192,36308,1,0,0:0:0:0:
64,192,36624,1,0,0:0:0:0:
320,192,36782,1,0,0:0:0:0:
448,192,36940,1,0,0:0:0:0:
192,192,36940,1,0,0:0:0:0:
64,192,37256,1,0,0:0:0:0:
448,192,37256,1,0,0:0:0:0:
192,192,37414,1,0,0:0:0:0:
448,192,37572,1,0,0:0:0:0:
64,192,37729,1,0,0:0:0:0:
448,192,37887,1,0,0:0:0:0:
320,192,38045,1,0,0:0:0:0:
64,192,38203,1,0,0:0:0:0:
448,192,38361,1,0,0:0:0:0:
64,192,38519,1,0,0:0:0:0:
320,192,38677,1,0,0:0:0:0:
64,192,38835,1,0,0:0:0:0:
192,192,38993,1,0,0:0:0:0:
64,192,39150,1,0,0:0:0:0:
192,192,39308,128,0,39782:0:0:0:0:
448,192,39466,1,0,0:0:0:0:
448,192,39782,1,0,0:0:0:0:
320,192,39782,128,0,40414:0:0:0:0:
64,192,40098,1,0,0:0:0:0:
64,192,40414,1,0,0:0:0:0:
192,192,40729,1,0,0:0:0:0:
448,192,40887,1,0,0:0:0:0:
320,192,41045,1,0,0:0:0:0:
64,192,41203,1,0,0:0:0:0:
192,192,41203,1,0,0:0:0:0:
320,192,41361,1,0,0:0:0:0:
448,192,41361,1,0,0:0:0:0:
448,192,41519,1,0,0:0:0:0:
64,192,41519,1,0,0:0:0:0:
320,192,41677,1,0,0:0:0:0:
192,192,41835,1,0,0:0:0:0:
64,192,41993,128,0,42150:0:0:0:0:
448,192,41993,1,0,0:0:0:0:
320,192,42150,1,0,0:0:0:0:
448,192,42308,128,0,42466:0:0:0:0:
64,192,42308,1,0,0:0:0:0:
192,192,42466,1,0,0:0:0:0:
320,192,42624,128,0,42782:0:0:0:0:
448,192,42624,1,0,0:0:0:0:
64,192,42782,1,0,0:0:0:0:
192,192,42940,128,0,43098:0:0:0:0:
320,192,42940,1,0,0:0:0:0:
448,192,43098,1,0,0:0:0:0:
64,192,43256,128,0,43414:0:0:0:0:
192,192,43256,1,0,0:0:0:0:
448,192,43414,1,0,0:0:0:0:
320,192,43572,128,0,43729:0:0:0:0:
192,192,43572,128,0,43729:0:0:0:0:
192,192,43887,128,0,44045:0:0:0:0:
320,192,43887,128,0,44045:0:0:0:0:
64,192,44203,1,0,0:0:0:0:
448,192,44203,1,0,0:0:0:0:
448,192,44519,128,0,44677:0:0:0:0:
320,192,44519,1,0,0:0:0:0:
192,192,44677,1,0,0:0:0:0:
64,192,44835,128,0,44993:0:0:0:0:
448,192,44835,1,0,0:0:0:0:
320,192,44993,1,0,0:0:0:0:
192,192,45150,128,0,45308:0:0:0:0:
64,192,45150,1,0,0:0:0:0:
448,192,45308,1,0,0:0:0:0:
320,192,45466,128,0,45624:0:0:0:0:
192,192,45466,1,0,0:0:0:0:
64,192,45624,1,0,0:0:0:0:
448,192,45782,128,0,45940:0:0:0:0:
320,192,45782,1,0,0:0:0:0:
64,192,45940,1,0,0:0:0:0:
192,192,46098,128,0,46256:0:0:0:0:
320,192,46098,128,0,46256:0:0:0:0:
192,192,46414,128,0,46572:0:0:0:0:
320,192,46414,128,0,46572:0:0:0:0:
448,192,46729,1,0,0:0:0:0:
64,192,46729,1,0,0:0:0:0:
64,192,47045,1,0,0:0:0:0:
448,192,47045,1,0,0:0:0:0:
64,192,47361,1,0,0:0:0:0:
448,192,47361,128,0,47677:0:0:0:0:
320,192,47677,128,0,47835:0:0:0:0:
64,192,47677,1,0,0:0:0:0:
448,192,47835,128,0,48150:0:0:0:0:
64,192,47993,1,0,0:0:0:0:
320,192,48150,1,0,0:0:0:0:
64,192,48308,1,0,0:0:0:0:
448,192,48308,1,0,0:0:0:0:
192,192,48624,128,0,48940:0:0:0:0:
448,192,48624,1,0,0:0:0:0:
448,192,48940,1,0,0:0:0:0:
64,192,48940,128,0,49256:0:0:0:0:
448,192,49256,1,0,0:0:0:0:
192,192,49256,128,0,49572:0:0:0:0:
64,192,49572,1,0,0:0:0:0:
448,192,49572,128,0,50045:0:0:0:0:
320,192,49729,1,0,0:0:0:0:
192,192,49887,1,0,0:0:0:0:
320,192,50045,1,0,0:0:0:0:
64,192,50045,128,0,50519:0:0:0:0:
448,192,50203,1,0,0:0:0:0:
320,192,50361,1,0,0:0:0:0:
192,192,50519,128,0,50835:0:0:0:0:
448,192,50519,1,0,0:0:0:0:
320,192,50677,1,0,0:0:0:0:
64,192,50835,1,0,0:0:0:0:
448,192,50835,1,0,0:0:0:0:
64,192,50993,1,0,0:0:0:0:
448,192,51150,1,0,0:0:0:0:
192,192,51150,1,0,0:0:0:0:
448,192,51308,1,0,0:0:0:0:
320,192,51466,1,0,0:0:0:0:
192,192,51466,1,0,0:0:0:0:
192,192,51624,1,0,0:0:0:0:
320,192,51782,1,0,0:0:0:0:
64,192,51782,1,0,0:0:0:0:
320,192,51940,1,0,0:0:0:0:
64,192,52098,1,0,0:0:0:0:
448,192,52098,1,0,0:0:0:0:
320,192,52177,1,0,0:0:0:0:
192,192,52256,1,0,0:0:0:0:
448,192,52335,1,0,0:0:0:0:
64,192,52414,1,0,0:0:0:0:
192,192,52493,1,0,0:0:0:0:
320,192,52572,1,0,0:0:0:0:
64,192,52650,1,0,0:0:0:0:
448,192,52729,1,0,0:0:0:0:
320,192,52808,1,0,0:0:0:0:
192,192,52887,1,0,0:0:0:0:
64,192,52966,1,0,0:0:0:0:
448,192,53045,1,0,0:0:0:0:
320,192,53124,1,0,0:0:0:0:
64,192,53203,1,0,0:0:0:0:
192,192,53282,1,0,0:0:0:0:
448,192,53519,1,0,0:0:0:0:
64,192,53519,1,0,0:0:0:0:
320,192,53519,1,0,0:0:0:0:
448,192,53677,1,0,0:0:0:0:
64,192,53677,1,0,0:0:0:0:
320,192,53677,1,0,0:0:0:0:
448,192,53835,1,0,0:0:0:0:
64,192,53835,1,0,0:0:0:0:
320,192,53835,1,0,0:0:0:0:
448,192,53993,128,0,54387:0:0:0:0:
64,192,53993,128,0,54387:0:0:0:0:
320,192,53993,128,0,54387:0:0:0:0:
192,192,54466,128,0,54861:0:0:0:0:
64,192,54466,128,0,54861:0:0:0:0:
448,192,54466,128,0,54861:0:0:0:0:
448,192,54940,1,0,0:0:0:0:
64,192,54940,1,0,0:0:0:0:
320,192,55098,1,0,0:0:0:0:
64,192,55256,1,0,0:0:0:0:
448,192,55256,1,0,0:0:0:0:
320,192,55414,1,0,0:0:0:0:
192,192,55414,1,0,0:0:0:0:
192,192,55572,1,0,0:0:0:0:
64,192,55572,1,0,0:0:0:0:
320,192,55729,1,0,0:0:0:0:
448,192,55729,1,0,0:0:0:0:
192,192,55887,1,0,0:0:0:0:
448,192,56045,1,0,0:0:0:0:
64,192,56045,1,0,0:0:0:0:
320,192,56203,1,0,0:0:0:0:
192,192,56203,1,0,0:0:0:0:
192,192,56361,1,0,0:0:0:0:
448,192,56361,1,0,0:0:0:0:
64,192,56519,128,0,56677:0:0:0:0:
320,192,56519,128,0,56677:0:0:0:0:
192,192,56677,128,0,56835:0:0:0:0:
448,192,56677,128,0,56835:0:0:0:0:
64,192,56835,128,0,56993:0:0:0:0:
320,192,56835,128,0,56993:0:0:0:0:
192,192,56993,128,0,57150:0:0:0:0:
448,192,56993,128,0,57150:0:0:0:0:
320,192,57150,1,0,0:0:0:0:
64,192,57150,1,0,0:0:0:0:
192,192,57308,1,0,0:0:0:0:
64,192,57466,1,0,0:0:0:0:
448,192,57466,1,0,0:0:0:0:
320,192,57624,1,0,0:0:0:0:
192,192,57782,1,0,0:0:0:0:
64,192,57782,1,0,0:0:0:0:
320,192,57940,1,0,0:0:0:0:
448,192,57940,1,0,0:0:0:0:
448,192,58098,1,0,0:0:0:0:
64,192,58098,1,0,0:0:0:0:
320,192,58256,1,0,0:0:0:0:
192,192,58256,1,0,0:0:0:0:
64,192,58414,1,0,0:0:0:0:
192,192,58572,1,0,0:0:0:0:
448,192,58572,1,0,0:0:0:0:
448,192,58729,1,0,0:0:0:0:
64,192,58729,1,0,0:0:0:0:
320,192,58887,1,0,0:0:0:0:
64,192,58887,1,0,0:0:0:0:
448,192,59045,128,0,59203:0:0:0:0:
192,192,59045,128,0,59203:0:0:0:0:
64,192,59203,128,0,59361:0:0:0:0:
320,192,59203,128,0,59361:0:0:0:0:
448,192,59361,128,0,59519:0:0:0:0:
192,192,59361,128,0,59519:0:0:0:0:
64,192,59519,128,0,59677:0:0:0:0:
320,192,59519,128,0,59677:0:0:0:0:
192,192,59677,1,0,0:0:0:0:
448,192,59677,1,0,0:0:0:0:
320,192,59835,1,0,0:0:0:0:
448,192,59993,1,0,0:0:0:0:
192,192,59993,1,0,0:0:0:0:
64,192,60150,1,0,0:0:0:0:
192,192,60308,1,0,0:0:0:0:
448,192,60308,1,0,0:0:0:0:
320,192,60466,1,0,0:0:0:0:
64,192,60466,1,0,0:0:0:0:
448,192,60624,1,0,0:0:0:0:
64,192,60624,1,0,0:0:0:0:
320,192,60782,1,0,0:0:0:0:
192,192,60782,1,0,0:0:0:0:
448,192,60940,128,0,61256:0:0:0:0:
64,192,60940,128,0,61256:0:0:0:0:
320,192,61256,1,0,0:0:0:0:
192,192,61256,1,0,0:0:0:0:
320,192,61414,128,0,61729:0:0:0:0:
192,192,61414,128,0,61729:0:0:0:0:
448,192,61729,1,0,0:0:0:0:
64,192,61729,1,0,0:0:0:0:
320,192,61887,1,0,0:0:0:0:
192,192,61887,1,0,0:0:0:0:
320,192,62203,1,0,0:0:0:0:
448,192,62203,1,0,0:0:0:0:
64,192,62203,1,0,0:0:0:0:
192,192,62519,1,0,0:0:0:0:
64,192,62519,1,0,0:0:0:0:
448,192,62519,1,0,0:0:0:0:
448,192,62835,1,0,0:0:0:0:
192,192,62835,1,0,0:0:0:0:
320,192,62993,1,0,0:0:0:0:
64,192,62993,1,0,0:0:0:0:
448,192,63150,1,0,0:0:0:0:
64,192,63150,1,0,0:0:0:0:
320,192,63308,1,0,0:0:0:0:
448,192,63308,1,0,0:0:0:0:
192,192,63308,1,0,0:0:0:0:
64,192,63624,1,0,0:0:0:0:
448,192,63624,1,0,0:0:0:0:
192,192,63624,1,0,0:0:0:0:
192,192,63782,1,0,0:0:0:0:
448,192,63782,1,0,0:0:0:0:
64,192,63782,1,0,0:0:0:0:
448,192,63940,1,0,0:0:0:0:
192,192,63940,1,0,0:0:0:0:
64,192,63940,1,0,0:0:0:0:
192,192,64098,128,0,64493:0:0:0:0:
64,192,64098,128,0,64493:0:0:0:0:
448,192,64098,128,0,64493:0:0:0:0:
64,192,64572,128,0,64966:0:0:0:0:
320,192,64572,128,0,64966:0:0:0:0:
448,192,64572,128,0,64966:0:0:0:0:
448,192,65045,1,0,0:0:0:0:
64,192,65045,1,0,0:0:0:0:
192,192,65203,1,0,0:0:0:0:
448,192,65361,1,0,0:0:0:0:
64,192,65361,1,0,0:0:0:0:
192,192,65519,1,0,0:0:0:0:
320,192,65519,1,0,0:0:0:0:
448,192,65677,1,0,0:0:0:0:
320,192,65677,1,0,0:0:0:0:
192,192,65835,1,0,0:0:0:0:
64,192,65835,1,0,0:0:0:0:
320,192,65993,1,0,0:0:0:0:
64,192,66150,1,0,0:0:0:0:
448,192,66150,1,0,0:0:0:0:
192,192,66308,1,0,0:0:0:0:
320,192,66308,1,0,0:0:0:0:
320,192,66466,1,0,0:0:0:0:
64,192,66466,1,0,0:0:0:0:
192,192,66624,128,0,66782:0:0:0:0:
448,192,66624,128,0,66782:0:0:0:0:
320,192,66782,128,0,66940:0:0:0:0:
64,192,66782,128,0,66940:0:0:0:0:
448,192,66940,128,0,67098:0:0:0:0:
192,192,66940,128,0,67098:0:0:0:0:
320,192,67098,128,0,67256:0:0:0:0:
64,192,67098,128,0,67256:0:0:0:0:
448,192,67256,1,0,0:0:0:0:
192,192,67256,1,0,0:0:0:0:
320,192,67414,1,0,0:0:0:0:
64,192,67572,1,0,0:0:0:0:
448,192,67572,1,0,0:0:0:0:
192,192,67729,1,0,0:0:0:0:
448,192,67887,1,0,0:0:0:0:
320,192,67887,1,0,0:0:0:0:
64,192,68045,1,0,0:0:0:0:
192,192,68045,1,0,0:0:0:0:
64,192,68203,1,0,0:0:0:0:
448,192,68203,1,0,0:0:0:0:
320,192,68361,1,0,0:0:0:0:
192,192,68361,1,0,0:0:0:0:
448,192,68519,1,0,0:0:0:0:
320,192,68677,1,0,0:0:0:0:
64,192,68677,1,0,0:0:0:0:
64,192,68835,1,0,0:0:0:0:
448,192,68835,1,0,0:0:0:0:
192,192,68993,1,0,0:0:0:0:
448,192,68993,1,0,0:0:0:0:
64,192,69150,128,0,69308:0:0:0:0:
320,192,69150,128,0,69308:0:0:0:0:
192,192,69308,128,0,69466:0:0:0:0:
448,192,69308,128,0,69466:0:0:0:0:
64,192,69466,128,0,69624:0:0:0:0:
320,192,69466,128,0,69624:0:0:0:0:
448,192,69624,128,0,69782:0:0:0:0:
192,192,69624,128,0,69782:0:0:0:0:
64,192,69782,1,0,0:0:0:0:
320,192,69782,1,0,0:0:0:0:
192,192,69940,1,0,0:0:0:0:
448,192,70098,1,0,0:0:0:0:
64,192,70098,1,0,0:0:0:0:
448,192,70256,1,0,0:0:0:0:
320,192,70414,1,0,0:0:0:0:
64,192,70414,1,0,0:0:0:0:
192,192,70572,1,0,0:0:0:0:
64,192,70729,1,0,0:0:0:0:
448,192,70729,1,0,0:0:0:0:
64,192,70887,1,0,0:0:0:0:
320,192,71045,1,0,0:0:0:0:
448,192,71045,1,0,0:0:0:0:
448,192,71203,1,0,0:0:0:0:
192,192,71203,1,0,0:0:0:0:
320,192,71361,1,0,0:0:0:0:
64,192,71361,1,0,0:0:0:0:
448,192,71519,128,0,71835:0:0:0:0:
64,192,71519,128,0,71835:0:0:0:0:
320,192,71835,1,0,0:0:0:0:
192,192,71835,1,0,0:0:0:0:
448,192,71993,1,0,0:0:0:0:
64,192,71993,1,0,0:0:0:0:
320,192,72150,1,0,0:0:0:0:
192,192,72150,1,0,0:0:0:0:
320,192,72308,1,0,0:0:0:0:
64,192,72308,1,0,0:0:0:0:
192,192,72466,1,0,0:0:0:0:
320,192,72624,1,0,0:0:0:0:
448,192,72624,1,0,0:0:0:0:
64,192,72624,1,0,0:0:0:0:
192,192,72782,1,0,0:0:0:0:
192,192,72940,1,0,0:0:0:0:
64,192,72940,1,0,0:0:0:0:
448,192,72940,1,0,0:0:0:0:
320,192,73098,1,0,0:0:0:0:
448,192,73256,1,0,0:0:0:0:
192,192,73256,1,0,0:0:0:0:
64,192,73256,1,0,0:0:0:0:
192,192,73414,1,0,0:0:0:0:
64,192,73414,1,0,0:0:0:0:
320,192,74361,1,0,0:0:0:0:
64,192,74361,1,0,0:0:0:0:
192,192,74519,1,0,0:0:0:0:
448,192,74519,1,0,0:0:0:0:
64,192,74677,128,0,75150:0:0:0:0:
320,192,74677,1,0,0:0:0:0:
448,192,74677,1,0,0:0:0:0:
192,192,75150,1,0,0:0:0:0:
448,192,75150,1,0,0:0:0:0:
320,192,75466,1,0,0:0:0:0:
192,192,75624,1,0,0:0:0:0:
448,192,75782,1,0,0:0:0:0:
64,192,75782,1,0,0:0:0:0:
320,192,75940,1,0,0:0:0:0:
448,192,76256,1,0,0:0:0:0:
192,192,76256,1,0,0:0:0:0:
64,192,76256,1,0,0:0:0:0:
448,192,76414,1,0,0:0:0:0:
192,192,76414,1,0,0:0:0:0:
64,192,76414,1,0,0:0:0:0:
448,192,76572,1,0,0:0:0:0:
192,192,76572,1,0,0:0:0:0:
64,192,76572,1,0,0:0:0:0:
448,192,76729,1,0,0:0:0:0:
192,192,76729,1,0,0:0:0:0:
64,192,76729,1,0,0:0:0:0:
448,192,77045,1,0,0:0:0:0:
320,192,77124,1,0,0:0:0:0:
192,192,77203,1,0,0:0:0:0:
64,192,77282,1,0,0:0:0:0:
448,192,77361,128,0,77677:0:0:0:0:
192,192,77677,1,0,0:0:0:0:
448,192,77887,1,0,0:0:0:0:
320,192,77993,1,0,0:0:0:0:
192,192,77993,128,0,78308:0:0:0:0:
64,192,78308,128,0,78624:0:0:0:0:
192,192,78624,128,0,78940:0:0:0:0:
320,192,78940,128,0,79150:0:0:0:0:
64,192,79150,1,0,0:0:0:0:
192,192,79256,1,0,0:0:0:0:
448,192,79256,128,0,79572:0:0:0:0:
192,192,79572,128,0,79887:0:0:0:0:
448,192,79887,128,0,80203:0:0:0:0:
64,192,80203,128,0,80414:0:0:0:0:
448,192,80414,1,0,0:0:0:0:
192,192,80519,128,0,80835:0:0:0:0:
320,192,80519,1,0,0:0:0:0:
320,192,80835,128,0,81150:0:0:0:0:
448,192,81150,128,0,81466:0:0:0:0:
192,192,81466,128,0,81782:0:0:0:0:
64,192,81466,1,0,0:0:0:0:
448,192,81782,128,0,82098:0:0:0:0:
320,192,81782,1,0,0:0:0:0:
64,192,82098,1,0,0:0:0:0:
64,192,82414,128,0,82729:0:0:0:0:
192,192,82729,1,0,0:0:0:0:
64,192,82940,1,0,0:0:0:0:
192,192,83045,1,0,0:0:0:0:
320,192,83045,128,0,83361:0:0:0:0:
448,192,83361,128,0,83677:0:0:0:0:
320,192,83677,128,0,83993:0:0:0:0:
192,192,83993,128,0,84308:0:0:0:0:
448,192,84308,1,0,0:0:0:0:
64,192,84308,128,0,84624:0:0:0:0:
320,192,84624,128,0,84940:0:0:0:0:
64,192,84940,128,0,85256:0:0:0:0:
320,192,85256,128,0,85466:0:0:0:0:
64,192,85466,1,0,0:0:0:0:
448,192,85572,128,0,85887:0:0:0:0:
192,192,85572,1,0,0:0:0:0:
320,192,85887,128,0,86203:0:0:0:0:
64,192,86203,128,0,86414:0:0:0:0:
448,192,86414,1,0,0:0:0:0:
320,192,86519,128,0,86729:0:0:0:0:
64,192,86729,1,0,0:0:0:0:
448,192,86835,1,0,0:0:0:0:
192,192,86835,1,0,0:0:0:0:
320,192,86993,1,0,0:0:0:0:
192,192,87150,1,0,0:0:0:0:
64,192,87308,1,0,0:0:0:0:
448,192,87466,1,0,0:0:0:0:
192,192,87466,1,0,0:0:0:0:
192,192,88098,128,0,88414:0:0:0:0:
448,192,88098,1,0,0:0:0:0:
64,192,88414,128,0,88729:0:0:0:0:
192,192,88729,1,0,0:0:0:0:
448,192,88729,1,0,0:0:0:0:
64,192,89045,1,0,0:0:0:0:
192,192,89203,128,0,89519:0:0:0:0:
448,192,89361,1,0,0:0:0:0:
64,192,89519,128,0,89835:0:0:0:0:
192,192,89835,128,0,90308:0:0:0:0:
448,192,89993,1,0,0:0:0:0:
64,192,90308,1,0,0:0:0:0:
448,192,90624,1,0,0:0:0:0:
448,192,91256,1,0,0:0:0:0:
64,192,91572,128,0,91887:0:0:0:0:
192,192,91887,128,0,92203:0:0:0:0:
448,192,91887,1,0,0:0:0:0:
320,192,92203,128,0,92519:0:0:0:0:
64,192,92519,1,0,0:0:0:0:
448,192,92519,128,0,92835:0:0:0:0:
320,192,92835,128,0,93150:0:0:0:0:
64,192,93150,1,0,0:0:0:0:
448,192,93150,128,0,93466:0:0:0:0:
192,192,93466,128,0,93782:0:0:0:0:
448,192,93782,1,0,0:0:0:0:
64,192,93782,1,0,0:0:0:0:
64,192,94414,1,0,0:0:0:0:
320,192,94414,1,0,0:0:0:0:
64,192,95045,1,0,0:0:0:0:
192,192,95045,1,0,0:0:0:0:
448,192,95519,1,0,0:0:0:0:
320,192,95835,1,0,0:0:0:0:
192,192,95993,1,0,0:0:0:0:
320,192,96308,128,0,97572:0:0:0:0:
64,192,97572,128,0,97729:0:0:0:0:
448,192,97572,1,0,0:0:0:0:
320,192,97729,1,0,0:0:0:0:
64,192,97887,1,0,0:0:0:0:
448,192,97887,128,0,98045:0:0:0:0:
192,192,98045,1,0,0:0:0:0:
320,192,98203,128,0,98361:0:0:0:0:
448,192,98203,1,0,0:0:0:0:
64,192,98361,1,0,0:0:0:0:
320,192,98519,1,0,0:0:0:0:
192,192,98519,128,0,98677:0:0:0:0:
448,192,98677,1,0,0:0:0:0:
64,192,98835,128,0,98993:0:0:0:0:
192,192,98835,1,0,0:0:0:0:
448,192,98993,1,0,0:0:0:0:
320,192,99150,128,0,99308:0:0:0:0:
192,192,99150,128,0,99308:0:0:0:0:
192,192,99466,128,0,99624:0:0:0:0:
320,192,99466,128,0,99624:0:0:0:0:
64,192,99782,1,0,0:0:0:0:
448,192,99782,1,0,0:0:0:0:
448,192,100098,128,0,100256:0:0:0:0:
320,192,100098,1,0,0:0:0:0:
192,192,100256,1,0,0:0:0:0:
448,192,100414,1,0,0:0:0:0:
64,192,100414,128,0,100572:0:0:0:0:
320,192,100572,1,0,0:0:0:0:
192,192,100729,128,0,100887:0:0:0:0:
64,192,100729,1,0,0:0:0:0:
448,192,100887,1,0,0:0:0:0:
320,192,101045,128,0,101203:0:0:0:0:
192,192,101045,1,0,0:0:0:0:
64,192,101203,1,0,0:0:0:0:
448,192,101361,128,0,101519:0:0:0:0:
320,192,101361,1,0,0:0:0:0:
64,192,101519,1,0,0:0:0:0:
192,192,101677,128,0,101835:0:0:0:0:
320,192,101677,128,0,101835:0:0:0:0:
192,192,101993,128,0,102150:0:0:0:0:
320,192,101993,128,0,102150:0:0:0:0:
64,192,102308,1,0,0:0:0:0:
448,192,102308,1,0,0:0:0:0:
448,192,102624,1,0,0:0:0:0:
64,192,102624,1,0,0:0:0:0:
64,192,102940,1,0,0:0:0:0:
448,192,102940,128,0,103256:0:0:0:0:
320,192,103256,128,0,103414:0:0:0:0:
64,192,103256,1,0,0:0:0:0:
448,192,103414,128,0,103729:0:0:0:0:
64,192,103572,1,0,0:0:0:0:
320,192,103729,1,0,0:0:0:0:
64,192,103887,1,0,0:0:0:0:
448,192,103887,1,0,0:0:0:0:
448,192,104203,1,0,0:0:0:0:
192,192,104203,128,0,104519:0:0:0:0:
448,192,104519,1,0,0:0:0:0:
64,192,104519,128,0,104835:0:0:0:0:
192,192,104835,128,0,105150:0:0:0:0:
448,192,104835,1,0,0:0:0:0:
448,192,105150,128,0,105624:0:0:0:0:
64,192,105150,1,0,0:0:0:0:
320,192,105308,1,0,0:0:0:0:
192,192,105466,1,0,0:0:0:0:
64,192,105624,128,0,106098:0:0:0:0:
320,192,105624,1,0,0:0:0:0:
448,192,105782,1,0,0:0:0:0:
320,192,105940,1,0,0:0:0:0:
448,192,106098,1,0,0:0:0:0:
192,192,106098,128,0,106414:0:0:0:0:
320,192,106256,1,0,0:0:0:0:
64,192,106414,1,0,0:0:0:0:
448,192,106414,1,0,0:0:0:0:
64,192,106572,1,0,0:0:0:0:
192,192,106729,1,0,0:0:0:0:
448,192,106729,1,0,0:0:0:0:
448,192,106887,1,0,0:0:0:0:
320,192,107045,1,0,0:0:0:0:
192,192,107045,1,0,0:0:0:0:
192,192,107203,1,0,0:0:0:0:
320,192,107361,1,0,0:0:0:0:
64,192,107361,1,0,0:0:0:0:
320,192,107519,1,0,0:0:0:0:
64,192,107677,1,0,0:0:0:0:
448,192,107677,1,0,0:0:0:0:
320,192,107756,1,0,0:0:0:0:
192,192,107835,1,0,0:0:0:0:
448,192,107914,1,0,0:0:0:0:
64,192,107993,1,0,0:0:0:0:
192,192,108072,1,0,0:0:0:0:
320,192,108150,1,0,0:0:0:0:
64,192,108229,1,0,0:0:0:0:
448,192,108308,1,0,0:0:0:0:
320,192,108387,1,0,0:0:0:0:
192,192,108466,1,0,0:0:0:0:
64,192,108545,1,0,0:0:0:0:
448,192,108624,1,0,0:0:0:0:
320,192,108703,1,0,0:0:0:0:
64,192,108782,1,0,0:0:0:0:
192,192,108861,1,0,0:0:0:0:
64,192,109098,1,0,0:0:0:0:
320,192,109098,1,0,0:0:0:0:
448,192,109098,1,0,0:0:0:0:
320,192,109256,1,0,0:0:0:0:
448,192,109256,1,0,0:0:0:0:
64,192,109256,1,0,0:0:0:0:
64,192,109414,1,0,0:0:0:0:
448,192,109414,1,0,0:0:0:0:
320,192,109414,1,0,0:0:0:0:
64,192,109572,128,0,109966:0:0:0:0:
448,192,109572,128,0,109966:0:0:0:0:
320,192,109572,128,0,109966:0:0:0:0:
448,192,110045,128,0,110440:0:0:0:0:
64,192,110045,128,0,110440:0:0:0:0:
192,192,110045,128,0,110440:0:0:0:0:
64,192,110519,1,0,0:0:0:0:
448,192,110519,1,0,0:0:0:0:
192,192,110677,1,0,0:0:0:0:
320,192,110835,1,0,0:0:0:0:
64,192,110835,1,0,0:0:0:0:
64,192,110993,1,0,0:0:0:0:
448,192,110993,1,0,0:0:0:0:
448,192,111150,1,0,0:0:0:0:
320,192,111150,1,0,0:0:0:0:
192,192,111308,1,0,0:0:0:0:
64,192,111308,1,0,0:0:0:0:
320,192,111466,1,0,0:0:0:0:
448,192,111624,1,0,0:0:0:0:
192,192,111624,1,0,0:0:0:0:
448,192,111782,1,0,0:0:0:0:
64,192,111782,1,0,0:0:0:0:
64,192,111940,1,0,0:0:0:0:
320,192,111940,1,0,0:0:0:0:
320,192,112098,128,0,112256:0:0:0:0:
192,192,112098,128,0,112256:0:0:0:0:
64,192,112256,128,0,112414:0:0:0:0:
448,192,112256,128,0,112414:0:0:0:0:
320,192,112414,128,0,112572:0:0:0:0:
192,192,112414,128,0,112572:0:0:0:0:
64,192,112572,128,0,112729:0:0:0:0:
448,192,112572,128,0,112729:0:0:0:0:
320,192,112729,1,0,0:0:0:0:
192,192,112729,1,0,0:0:0:0:
448,192,112887,1,0,0:0:0:0:
64,192,113045,1,0,0:0:0:0:
320,192,113045,1,0,0:0:0:0:
192,192,113203,1,0,0:0:0:0:
320,192,113361,1,0,0:0:0:0:
448,192,113361,1,0,0:0:0:0:
64,192,113519,1,0,0:0:0:0:
192,192,113519,1,0,0:0:0:0:
448,192,113677,1,0,0:0:0:0:
64,192,113677,1,0,0:0:0:0:
192,192,113835,1,0,0:0:0:0:
320,192,113835,1,0,0:0:0:0:
448,192,113993,1,0,0:0:0:0:
320,192,114150,1,0,0:0:0:0:
64,192,114150,1,0,0:0:0:0:
192,192,114308,1,0,0:0:0:0:
448,192,114308,1,0,0:0:0:0:
192,192,114466,1,0,0:0:0:0:
320,192,114466,1,0,0:0:0:0:
64,192,114624,128,0,114782:0:0:0:0:
448,192,114624,128,0,114782:0:0:0:0:
192,192,114782,128,0,114940:0:0:0:0:
320,192,114782,128,0,114940:0:0:0:0:
448,192,114940,128,0,115098:0:0:0:0:
64,192,114940,128,0,115098:0:0:0:0:
192,192,115098,128,0,115256:0:0:0:0:
320,192,115098,128,0,115256:0:0:0:0:
64,192,115256,1,0,0:0:0:0:
448,192,115256,1,0,0:0:0:0:
192,192,115414,1,0,0:0:0:0:
320,192,115572,1,0,0:0:0:0:
64,192,115572,1,0,0:0:0:0:
448,192,115729,1,0,0:0:0:0:
64,192,115887,1,0,0:0:0:0:
320,192,115887,1,0,0:0:0:0:
448,192,116045,1,0,0:0:0:0:
192,192,116045,1,0,0:0:0:0:
64,192,116203,1,0,0:0:0:0:
448,192,116203,1,0,0:0:0:0:
320,192,116361,1,0,0:0:0:0:
192,192,116361,1,0,0:0:0:0:
64,192,116519,128,0,116835:0:0:0:0:
448,192,116519,128,0,116835:0:0:0:0:
320,192,116835,1,0,0:0:0:0:
192,192,116835,1,0,0:0:0:0:
320,192,116993,128,0,117308:0:0:0:0:
192,192,116993,128,0,117308:0:0:0:0:
64,192,117308,1,0,0:0:0:0:
448,192,117308,1,0,0:0:0:0:
192,192,117466,1,0,0:0:0:0:
320,192,117466,1,0,0:0:0:0:
64,192,117782,1,0,0:0:0:0:
448,192,117782,1,0,0:0:0:0:
192,192,117782,1,0,0:0:0:0:
64,192,118098,1,0,0:0:0:0:
320,192,118098,1,0,0:0:0:0:
448,192,118098,1,0,0:0:0:0:
320,192,118414,1,0,0:0:0:0:
64,192,118414,1,0,0:0:0:0:
448,192,118572,1,0,0:0:0:0:
192,192,118572,1,0,0:0:0:0:
64,192,118729,1,0,0:0:0:0:
448,192,118729,1,0,0:0:0:0:
192,192,118887,1,0,0:0:0:0:
320,192,118887,1,0,0:0:0:0:
64,192,118887,1,0,0:0:0:0:
64,192,119203,1,0,0:0:0:0:
320,192,119203,1,0,0:0:0:0:
448,192,119203,1,0,0:0:0:0:
448,192,119361,1,0,0:0:0:0:
320,192,119361,1,0,0:0:0:0:
64,192,119361,1,0,0:0:0:0:
64,192,119519,1,0,0:0:0:0:
320,192,119519,1,0,0:0:0:0:
448,192,119519,1,0,0:0:0:0:
64,192,119677,128,0,120072:0:0:0:0:
320,192,119677,128,0,120072:0:0:0:0:
448,192,119677,128,0,120072:0:0:0:0:
448,192,120150,128,0,120545:0:0:0:0:
64,192,120150,128,0,120545:0:0:0:0:
192,192,120150,128,0,120545:0:0:0:0:
64,192,120624,1,0,0:0:0:0:
448,192,120624,1,0,0:0:0:0:
320,192,120782,1,0,0:0:0:0:
192,192,120940,1,0,0:0:0:0:
448,192,120940,1,0,0:0:0:0:
64,192,121098,1,0,0:0:0:0:
448,192,121098,1,0,0:0:0:0:
64,192,121256,1,0,0:0:0:0:
192,192,121256,1,0,0:0:0:0:
448,192,121414,1,0,0:0:0:0:
320,192,121414,1,0,0:0:0:0:
192,192,121572,1,0,0:0:0:0:
64,192,121729,1,0,0:0:0:0:
320,192,121729,1,0,0:0:0:0:
192,192,121887,1,0,0:0:0:0:
448,192,121887,1,0,0:0:0:0:
448,192,122045,1,0,0:0:0:0:
64,192,122045,1,0,0:0:0:0:
192,192,122203,128,0,122361:0:0:0:0:
320,192,122203,128,0,122361:0:0:0:0:
448,192,122361,128,0,122519:0:0:0:0:
64,192,122361,128,0,122519:0:0:0:0:
192,192,122519,128,0,122677:0:0:0:0:
320,192,122519,128,0,122677:0:0:0:0:
64,192,122677,128,0,122835:0:0:0:0:
448,192,122677,128,0,122835:0:0:0:0:
192,192,122835,1,0,0:0:0:0:
320,192,122835,1,0,0:0:0:0:
64,192,122993,1,0,0:0:0:0:
448,192,123150,1,0,0:0:0:0:
192,192,123150,1,0,0:0:0:0:
320,192,123308,1,0,0:0:0:0:
192,192,123466,1,0,0:0:0:0:
64,192,123466,1,0,0:0:0:0:
448,192,123624,1,0,0:0:0:0:
320,192,123624,1,0,0:0:0:0:
448,192,123782,1,0,0:0:0:0:
64,192,123782,1,0,0:0:0:0:
192,192,123940,1,0,0:0:0:0:
320,192,123940,1,0,0:0:0:0:
64,192,124098,1,0,0:0:0:0:
192,192,124256,1,0,0:0:0:0:
448,192,124256,1,0,0:0:0:0:
320,192,124414,1,0,0:0:0:0:
64,192,124414,1,0,0:0:0:0:
320,192,124572,1,0,0:0:0:0:
192,192,124572,1,0,0:0:0:0:
64,192,124729,128,0,124887:0:0:0:0:
448,192,124729,128,0,124887:0:0:0:0:
320,192,124887,128,0,125045:0:0:0:0:
192,192,124887,128,0,125045:0:0:0:0:
64,192,125045,128,0,125203:0:0:0:0:
448,192,125045,128,0,125203:0:0:0:0:
192,192,125203,128,0,125361:0:0:0:0:
320,192,125203,128,0,125361:0:0:0:0:
448,192,125361,1,0,0:0:0:0:
64,192,125361,1,0,0:0:0:0:
320,192,125519,1,0,0:0:0:0:
448,192,125677,1,0,0:0:0:0:
64,192,125677,1,0,0:0:0:0:
64,192,125835,1,0,0:0:0:0:
192,192,125993,1,0,0:0:0:0:
448,192,125993,1,0,0:0:0:0:
320,192,126150,1,0,0:0:0:0:
64,192,126308,1,0,0:0:0:0:
448,192,126308,1,0,0:0:0:0:
448,192,126466,1,0,0:0:0:0:
192,192,126624,1,0,0:0:0:0:
64,192,126624,1,0,0:0:0:0:
320,192,126782,1,0,0:0:0:0:
64,192,126782,1,0,0:0:0:0:
448,192,126940,1,0,0:0:0:0:
192,192,126940,1,0,0:0:0:0:
448,192,127098,128,0,127414:0:0:0:0:
64,192,127098,128,0,127414:0:0:0:0:
320,192,127414,1,0,0:0:0:0:
192,192,127414,1,0,0:0:0:0:
64,192,127572,1,0,0:0:0:0:
448,192,127572,1,0,0:0:0:0:
320,192,127729,1,0,0:0:0:0:
192,192,127729,1,0,0:0:0:0:
192,192,127887,1,0,0:0:0:0:
448,192,127887,1,0,0:0:0:0:
320,192,128045,1,0,0:0:0:0:
192,192,128203,1,0,0:0:0:0:
448,192,128203,1,0,0:0:0:0:
64,192,128203,1,0,0:0:0:0:
320,192,128361,1,0,0:0:0:0:
448,192,128519,1,0,0:0:0:0:
64,192,128519,1,0,0:0:0:0:
320,192,128519,1,0,0:0:0:0:
192,192,128677,1,0,0:0:0:0:
320,192,128835,1,0,0:0:0:0:
448,192,128835,1,0,0:0:0:0:
64,192,128835,1,0,0:0:0:0:
448,192,128993,1,0,0:0:0:0:
320,192,128993,1,0,0:0:0:0:
448,192,130414,1,0,0:0:0:0:
192,192,130414,128,0,130887:0:0:0:0:
64,192,130572,1,0,0:0:0:0:
320,192,130729,1,0,0:0:0:0:
448,192,130887,1,0,0:0:0:0:
64,192,130887,128,0,131361:0:0:0:0:
320,192,131203,1,0,0:0:0:0:
192,192,131361,128,0,131677:0:0:0:0:
448,192,131361,1,0,0:0:0:0:
64,192,131519,1,0,0:0:0:0:
320,192,131677,128,0,132150:0:0:0:0:
64,192,131993,1,0,0:0:0:0:
448,192,132150,128,0,132624:0:0:0:0:
192,192,132308,1,0,0:0:0:0:
320,192,132624,128,0,132940:0:0:0:0:
64,192,132624,1,0,0:0:0:0:
192,192,132940,128,0,133414:0:0:0:0:
448,192,132940,1,0,0:0:0:0:
64,192,133098,1,0,0:0:0:0:
320,192,133256,1,0,0:0:0:0:
64,192,133414,128,0,134045:0:0:0:0:
448,192,133414,1,0,0:0:0:0:
192,192,133729,1,0,0:0:0:0:
320,192,133887,1,0,0:0:0:0:
448,192,134045,1,0,0:0:0:0:
192,192,134045,1,0,0:0:0:0:
320,192,134519,1,0,0:0:0:0:
192,192,134519,1,0,0:0:0:0:
192,192,134835,1,0,0:0:0:0:
448,192,134835,128,0,135150:0:0:0:0:
64,192,135150,128,0,135308:0:0:0:0:
320,192,135150,1,0,0:0:0:0:
192,192,135308,128,0,135624:0:0:0:0:
448,192,135466,1,0,0:0:0:0:
320,192,135466,1,0,0:0:0:0:
64,192,135624,1,0,0:0:0:0:
320,192,135940,1,0,0:0:0:0:
448,192,136098,128,0,136414:0:0:0:0:
320,192,136414,128,0,136572:0:0:0:0:
192,192,136572,128,0,137045:0:0:0:0:
64,192,136572,1,0,0:0:0:0:
448,192,137045,1,0,0:0:0:0:
64,192,137045,128,0,137361:0:0:0:0:
192,192,137361,1,0,0:0:0:0:
320,192,137361,128,0,137677:0:0:0:0:
448,192,137677,128,0,137835:0:0:0:0:
64,192,137677,1,0,0:0:0:0:
192,192,137835,128,0,138150:0:0:0:0:
320,192,137993,1,0,0:0:0:0:
448,192,137993,1,0,0:0:0:0:
64,192,138150,128,0,139098:0:0:0:0:
320,192,139098,1,0,0:0:0:0:
448,192,139098,128,0,140203:0:0:0:0:
320,192,140203,1,0,0:0:0:0:
320,192,140361,1,0,0:0:0:0:
448,192,140519,128,0,140835:0:0:0:0:
64,192,140519,1,0,0:0:0:0:
64,192,140835,1,0,0:0:0:0:
192,192,140835,1,0,0:0:0:0:
448,192,140993,128,0,141308:0:0:0:0:
64,192,141150,1,0,0:0:0:0:
320,192,141308,128,0,141624:0:0:0:0:
64,192,141466,1,0,0:0:0:0:
448,192,141624,128,0,141940:0:0:0:0:
64,192,141782,1,0,0:0:0:0:
320,192,141940,1,0,0:0:0:0:
64,192,142098,1,0,0:0:0:0:
64,192,142414,1,0,0:0:0:0:
64,192,142729,1,0,0:0:0:0:
448,192,143045,1,0,0:0:0:0:
192,192,143045,1,0,0:0:0:0:
448,192,143361,1,0,0:0:0:0:
64,192,143361,1,0,0:0:0:0:
320,192,143519,128,0,143835:0:0:0:0:
448,192,143677,1,0,0:0:0:0:
64,192,143835,128,0,144150:0:0:0:0:
448,192,143993,1,0,0:0:0:0:
192,192,144150,128,0,144466:0:0:0:0:
448,192,144308,1,0,0:0:0:0:
64,192,144466,128,0,144782:0:0:0:0:
448,192,144624,1,0,0:0:0:0:
192,192,144782,128,0,145098:0:0:0:0:
448,192,144940,1,0,0:0:0:0:
320,192,145098,1,0,0:0:0:0:
64,192,145098,1,0,0:0:0:0:
448,192,145256,1,0,0:0:0:0:
320,192,145572,1,0,0:0:0:0:
64,192,145572,1,0,0:0:0:0:
64,192,145729,1,0,0:0:0:0:
192,192,145887,1,0,0:0:0:0:
448,192,145887,128,0,146045:0:0:0:0:
320,192,146045,1,0,0:0:0:0:
64,192,146203,128,0,146361:0:0:0:0:
192,192,146361,1,0,0:0:0:0:
448,192,146361,1,0,0:0:0:0:
64,192,146519,1,0,0:0:0:0:
448,192,146519,1,0,0:0:0:0:
192,192,146677,1,0,0:0:0:0:
448,192,146835,1,0,0:0:0:0:
64,192,146835,1,0,0:0:0:0:
320,192,146993,1,0,0:0:0:0:
64,192,147150,128,0,147466:0:0:0:0:
448,192,147150,1,0,0:0:0:0:
192,192,147308,1,0,0:0:0:0:
320,192,147466,1,0,0:0:0:0:
448,192,147466,128,0,147782:0:0:0:0:
64,192,147624,1,0,0:0:0:0:
320,192,147782,1,0,0:0:0:0:
192,192,147782,128,0,148098:0:0:0:0:
64,192,147940,1,0,0:0:0:0:
448,192,148098,1,0,0:0:0:0:
320,192,148098,1,0,0:0:0:0:
448,192,148256,1,0,0:0:0:0:
192,192,148256,1,0,0:0:0:0:
64,192,148414,1,0,0:0:0:0:
320,192,148414,1,0,0:0:0:0:
192,192,148572,1,0,0:0:0:0:
64,192,148572,1,0,0:0:0:0:
320,192,148729,1,0,0:0:0:0:
448,192,148729,1,0,0:0:0:0:
64,192,148887,1,0,0:0:0:0:
448,192,148887,1,0,0:0:0:0:
320,192,149045,1,0,0:0:0:0:
192,192,149045,1,0,0:0:0:0:
64,192,149203,1,0,0:0:0:0:
192,192,149203,1,0,0:0:0:0:
320,192,149361,1,0,0:0:0:0:
64,192,149440,1,0,0:0:0:0:
448,192,149519,1,0,0:0:0:0:
320,192,149598,1,0,0:0:0:0:
192,192,149677,1,0,0:0:0:0:
448,192,149756,1,0,0:0:0:0:
64,192,149835,1,0,0:0:0:0:
192,192,149914,1,0,0:0:0:0:
320,192,149993,1,0,0:0:0:0:
64,192,150072,1,0,0:0:0:0:
448,192,150150,1,0,0:0:0:0:
320,192,150229,1,0,0:0:0:0:
192,192,150308,1,0,0:0:0:0:
448,192,150387,1,0,0:0:0:0:
64,192,150466,1,0,0:0:0:0:
192,192,150545,1,0,0:0:0:0:
64,192,150782,1,0,0:0:0:0:
192,192,150782,1,0,0:0:0:0:
448,192,150782,1,0,0:0:0:0:
448,192,150940,1,0,0:0:0:0:
192,192,150940,1,0,0:0:0:0:
64,192,150940,1,0,0:0:0:0:
64,192,151098,1,0,0:0:0:0:
448,192,151098,1,0,0:0:0:0:
192,192,151098,1,0,0:0:0:0:
448,192,151256,128,0,151650:0:0:0:0:
192,192,151256,128,0,151650:0:0:0:0:
64,192,151256,128,0,151650:0:0:0:0:
448,192,151729,128,0,152124:0:0:0:0:
320,192,151729,128,0,152124:0:0:0:0:
64,192,151729,128,0,152124:0:0:0:0:
64,192,152203,1,0,0:0:0:0:
448,192,152203,1,0,0:0:0:0:
320,192,152361,1,0,0:0:0:0:
192,192,152519,1,0,0:0:0:0:
448,192,152519,1,0,0:0:0:0:
320,192,152677,1,0,0:0:0:0:
64,192,152677,1,0,0:0:0:0:
192,192,152835,1,0,0:0:0:0:
64,192,152835,1,0,0:0:0:0:
320,192,152993,1,0,0:0:0:0:
448,192,152993,1,0,0:0:0:0:
192,192,153150,1,0,0:0:0:0:
64,192,153308,1,0,0:0:0:0:
448,192,153308,1,0,0:0:0:0:
320,192,153466,1,0,0:0:0:0:
192,192,153466,1,0,0:0:0:0:
192,192,153624,1,0,0:0:0:0:
448,192,153624,1,0,0:0:0:0:
64,192,153782,128,0,153940:0:0:0:0:
320,192,153782,1,0,0:0:0:0:
192,192,153940,128,0,154098:0:0:0:0:
320,192,153940,1,0,0:0:0:0:
448,192,154098,128,0,154256:0:0:0:0:
64,192,154098,1,0,0:0:0:0:
320,192,154256,128,0,154414:0:0:0:0:
64,192,154256,1,0,0:0:0:0:
192,192,154414,1,0,0:0:0:0:
448,192,154414,1,0,0:0:0:0:
64,192,154572,1,0,0:0:0:0:
448,192,154729,1,0,0:0:0:0:
192,192,154729,1,0,0:0:0:0:
320,192,154887,1,0,0:0:0:0:
192,192,155045,1,0,0:0:0:0:
64,192,155045,1,0,0:0:0:0:
448,192,155203,1,0,0:0:0:0:
320,192,155203,1,0,0:0:0:0:
64,192,155361,1,0,0:0:0:0:
448,192,155361,1,0,0:0:0:0:
192,192,155519,1,0,0:0:0:0:
320,192,155519,1,0,0:0:0:0:
64,192,155677,1,0,0:0:0:0:
192,192,155835,1,0,0:0:0:0:
448,192,155835,1,0,0:0:0:0:
64,192,155993,1,0,0:0:0:0:
448,192,155993,1,0,0:0:0:0:
320,192,156150,1,0,0:0:0:0:
64,192,156150,1,0,0:0:0:0:
192,192,156308,1,0,0:0:0:0:
448,192,156308,128,0,156466:0:0:0:0:
192,192,156466,1,0,0:0:0:0:
320,192,156466,128,0,156624:0:0:0:0:
64,192,156624,128,0,156782:0:0:0:0:
448,192,156624,1,0,0:0:0:0:
448,192,156782,1,0,0:0:0:0:
192,192,156782,128,0,156940:0:0:0:0:
64,192,156940,1,0,0:0:0:0:
320,192,156940,1,0,0:0:0:0:
192,192,157098,1,0,0:0:0:0:
320,192,157256,1,0,0:0:0:0:
448,192,157256,1,0,0:0:0:0:
64,192,157414,1,0,0:0:0:0:
192,192,157572,1,0,0:0:0:0:
448,192,157572,1,0,0:0:0:0:
320,192,157729,1,0,0:0:0:0:
64,192,157729,1,0,0:0:0:0:
64,192,157887,1,0,0:0:0:0:
448,192,157887,1,0,0:0:0:0:
192,192,158045,1,0,0:0:0:0:
320,192,158045,1,0,0:0:0:0:
64,192,158203,128,0,158519:0:0:0:0:
448,192,158203,128,0,158361:0:0:0:0:
320,192,158361,1,0,0:0:0:0:
192,192,158519,1,0,0:0:0:0:
448,192,158519,1,0,0:0:0:0:
192,192,158677,128,0,158993:0:0:0:0:
320,192,158677,128,0,158993:0:0:0:0:
64,192,158993,1,0,0:0:0:0:
448,192,158993,1,0,0:0:0:0:
320,192,159150,1,0,0:0:0:0:
192,192,159150,1,0,0:0:0:0:
448,192,159466,1,0,0:0:0:0:
64,192,159466,1,0,0:0:0:0:
320,192,159466,1,0,0:0:0:0:
192,192,159782,1,0,0:0:0:0:
448,192,159782,1,0,0:0:0:0:
64,192,159782,1,0,0:0:0:0:
192,192,160098,1,0,0:0:0:0:
448,192,160098,1,0,0:0:0:0:
320,192,160256,1,0,0:0:0:0:
64,192,160256,1,0,0:0:0:0:
64,192,160414,1,0,0:0:0:0:
448,192,160414,1,0,0:0:0:0:
448,192,160572,1,0,0:0:0:0:
320,192,160572,1,0,0:0:0:0:
192,192,160572,1,0,0:0:0:0:
448,192,160887,1,0,0:0:0:0:
64,192,160887,1,0,0:0:0:0:
192,192,160887,1,0,0:0:0:0:
64,192,161045,1,0,0:0:0:0:
448,192,161045,1,0,0:0:0:0:
192,192,161045,1,0,0:0:0:0:
64,192,161203,1,0,0:0:0:0:
448,192,161203,1,0,0:0:0:0:
192,192,161203,1,0,0:0:0:0:
448,192,161361,128,0,161756:0:0:0:0:
64,192,161361,128,0,161756:0:0:0:0:
192,192,161361,128,0,161756:0:0:0:0:
320,192,161835,128,0,162229:0:0:0:0:
448,192,161835,128,0,162229:0:0:0:0:
64,192,161835,128,0,162229:0:0:0:0:
64,192,162308,1,0,0:0:0:0:
448,192,162308,1,0,0:0:0:0:
192,192,162466,1,0,0:0:0:0:
64,192,162624,1,0,0:0:0:0:
320,192,162624,1,0,0:0:0:0:
192,192,162782,1,0,0:0:0:0:
448,192,162782,1,0,0:0:0:0:
320,192,162940,1,0,0:0:0:0:
448,192,162940,1,0,0:0:0:0:
192,192,163098,1,0,0:0:0:0:
64,192,163098,1,0,0:0:0:0:
320,192,163256,1,0,0:0:0:0:
64,192,163414,1,0,0:0:0:0:
448,192,163414,1,0,0:0:0:0:
192,192,163572,1,0,0:0:0:0:
320,192,163572,1,0,0:0:0:0:
64,192,163729,1,0,0:0:0:0:
320,192,163729,1,0,0:0:0:0:
192,192,163887,128,0,164045:0:0:0:0:
448,192,163887,1,0,0:0:0:0:
64,192,164045,128,0,164203:0:0:0:0:
448,192,164045,1,0,0:0:0:0:
320,192,164203,128,0,164361:0:0:0:0:
192,192,164203,1,0,0:0:0:0:
448,192,164361,128,0,164519:0:0:0:0:
192,192,164361,1,0,0:0:0:0:
64,192,164519,1,0,0:0:0:0:
320,192,164519,1,0,0:0:0:0:
192,192,164677,1,0,0:0:0:0:
64,192,164835,1,0,0:0:0:0:
448,192,164835,1,0,0:0:0:0:
192,192,164993,1,0,0:0:0:0:
448,192,165150,1,0,0:0:0:0:
320,192,165150,1,0,0:0:0:0:
192,192,165308,1,0,0:0:0:0:
64,192,165308,1,0,0:0:0:0:
64,192,165466,1,0,0:0:0:0:
448,192,165466,1,0,0:0:0:0:
320,192,165624,1,0,0:0:0:0:
192,192,165624,1,0,0:0:0:0:
448,192,165782,1,0,0:0:0:0:
320,192,165940,1,0,0:0:0:0:
64,192,165940,1,0,0:0:0:0:
448,192,166098,1,0,0:0:0:0:
64,192,166098,1,0,0:0:0:0:
448,192,166256,1,0,0:0:0:0:
192,192,166256,1,0,0:0:0:0:
64,192,166414,1,0,0:0:0:0:
320,192,166414,128,0,166572:0:0:0:0:
64,192,166572,1,0,0:0:0:0:
448,192,166572,128,0,166729:0:0:0:0:
192,192,166729,128,0,166887:0:0:0:0:
320,192,166729,1,0,0:0:0:0:
320,192,166887,1,0,0:0:0:0:
64,192,166887,128,0,167045:0:0:0:0:
192,192,167045,1,0,0:0:0:0:
448,192,167045,1,0,0:0:0:0:
320,192,167203,1,0,0:0:0:0:
448,192,167361,1,0,0:0:0:0:
64,192,167361,1,0,0:0:0:0:
448,192,167519,1,0,0:0:0:0:
320,192,167677,1,0,0:0:0:0:
64,192,167677,1,0,0:0:0:0:
192,192,167835,1,0,0:0:0:0:
448,192,167993,1,0,0:0:0:0:
64,192,167993,1,0,0:0:0:0:
64,192,168150,1,0,0:0:0:0:
448,192,168308,1,0,0:0:0:0:
320,192,168308,1,0,0:0:0:0:
192,192,168466,1,0,0:0:0:0:
448,192,168466,1,0,0:0:0:0:
320,192,168624,1,0,0:0:0:0:
64,192,168624,1,0,0:0:0:0:
64,192,168782,128,0,169098:0:0:0:0:
448,192,168782,128,0,169098:0:0:0:0:
192,192,169098,1,0,0:0:0:0:
320,192,169098,1,0,0:0:0:0:
448,192,169256,1,0,0:0:0:0:
64,192,169256,1,0,0:0:0:0:
320,192,169414,1,0,0:0:0:0:
192,192,169414,1,0,0:0:0:0:
320,192,169572,1,0,0:0:0:0:
64,192,169572,1,0,0:0:0:0:
192,192,169729,1,0,0:0:0:0:
448,192,169887,1,0,0:0:0:0:
320,192,169887,1,0,0:0:0:0:
64,192,169887,1,0,0:0:0:0:
192,192,170045,1,0,0:0:0:0:
192,192,170203,1,0,0:0:0:0:
64,192,170203,1,0,0:0:0:0:
448,192,170203,1,0,0:0:0:0:
320,192,170361,1,0,0:0:0:0:
64,192,170519,1,0,0:0:0:0:
448,192,170519,1,0,0:0:0:0:
192,192,170519,1,0,0:0:0:0:
192,192,170677,1,0,0:0:0:0:
64,192,170677,1,0,0:0:0:0:
192,192,171624,1,0,0:0:0:0:
64,192,171624,1,0,0:0:0:0:
448,192,171782,1,0,0:0:0:0:
64,192,171782,1,0,0:0:0:0:
192,192,171940,1,0,0:0:0:0:
320,192,171940,1,0,0:0:0:0:
448,192,171940,128,0,172256:0:0:0:0:
320,192,172256,128,0,172414:0:0:0:0:
192,192,172414,128,0,172572:0:0:0:0:
448,192,172414,1,0,0:0:0:0:
64,192,172572,128,0,172729:0:0:0:0:
448,192,172729,128,0,172887:0:0:0:0:
320,192,172887,128,0,173045:0:0:0:0:
192,192,173045,128,0,173203:0:0:0:0:
448,192,173045,1,0,0:0:0:0:
64,192,173203,128,0,173519:0:0:0:0:
192,192,173519,1,0,0:0:0:0:
320,192,173519,1,0,0:0:0:0:
448,192,173519,1,0,0:0:0:0:
448,192,173677,1,0,0:0:0:0:
320,192,173677,1,0,0:0:0:0:
192,192,173677,1,0,0:0:0:0:
448,192,173835,1,0,0:0:0:0:
320,192,173835,1,0,0:0:0:0:
192,192,173835,1,0,0:0:0:0:
448,192,173993,1,0,0:0:0:0:
320,192,173993,1,0,0:0:0:0:
192,192,173993,1,0,0:0:0:0:
