osu file format v14

[General]
AudioFilename: audio.mp3
AudioLeadIn: 0
PreviewTime: 56384
Countdown: 0
SampleSet: Soft
StackLeniency: 0.7
Mode: 0
LetterboxInBreaks: 0
WidescreenStoryboard: 0

[Editor]
Bookmarks: 14002,36606,47908,59210
DistanceSpacing: 1
BeatDivisor: 4
GridSize: 8
TimelineZoom: 1

[Metadata]
Title:Aurora
TitleUnicode:歐若拉
Artist:Angela Chang
ArtistUnicode:張韶涵
Creator:Rizen
Version:Normal
Source:
Tags:Neoskylove 张韶涵 zhang shao han
BeatmapID:1294097
BeatmapSetID:611812

[Difficulty]
HPDrainRate:3
CircleSize:3.5
OverallDifficulty:4
ApproachRate:4
SliderMultiplier:1.5
SliderTickRate:1

[Events]
//Background and Video events
0,0,"56643520-aurora-borealis-wallpapers.jpg",0,0
//Break Periods
//Storyboard Layer 0 (Background)
//Storyboard Layer 1 (Fail)
//Storyboard Layer 2 (Pass)
//Storyboard Layer 3 (Foreground)
//Storyboard Sound Samples

[TimingPoints]
2700,706.380974805745,4,2,1,90,1,0
36606,-100,4,2,1,50,0,0
47908,-100,4,2,1,60,0,0
57797,-100,4,2,1,70,0,0
58504,-100,4,2,1,80,0,0
59210,-100,4,2,1,90,0,1
81814,-100,4,2,1,90,0,0

[Colours]
Combo1 : 242,214,100
Combo2 : 105,235,112
Combo3 : 0,82,181
Combo4 : 184,182,182

[HitObjects]
106,78,14002,6,0,L|255:65,1,150,6|8,0:0|0:0,0:0:0:0:
356,92,15061,1,0,0:0:0:0:
426,167,15414,2,0,P|435:241|414:313,1,150,2|8,0:0|0:0,0:0:0:0:
224,224,16827,6,0,L|74:211,1,150,2|10,0:0|0:0,0:0:0:0:
20,301,17887,1,2,0:0:0:0:
87,380,18240,2,0,P|124:382|160:373,1,75,2|0,0:0|0:0,0:0:0:0:
251,320,18946,2,0,P|288:317|324:326,1,75,10|0,0:0|0:0,0:0:0:0:
416,377,19653,6,0,L|403:227,1,150,2|8,0:0|0:0,0:0:0:0:
365,129,20712,1,0,0:0:0:0:
391,28,21065,2,0,P|450:71|467:142,1,150,2|8,0:0|0:0,0:0:0:0:
261,184,22478,6,0,L|111:171,1,150,2|8,0:0|0:0,0:0:0:0:
78,70,23538,1,2,0:0:0:0:
166,13,23891,2,0,L|240:19,1,75,0|0,0:0|0:0,0:0:0:0:
315,94,24597,1,10,0:0:0:0:
261,184,24951,1,10,0:0:0:0:
272,288,25304,6,0,P|337:255|365:186,1,150,6|8,0:0|0:0,0:0:0:0:
315,94,26363,1,0,0:0:0:0:
217,54,26716,2,0,L|67:67,1,150,2|8,0:0|0:0,0:0:0:0:
8,268,28129,6,0,L|158:281,1,150,2|10,0:0|0:0,0:0:0:0:
257,249,29189,1,2,0:0:0:0:
305,155,29542,2,0,P|307:117|299:81,1,75,2|0,0:0|0:0,0:0:0:0:
194,88,30248,2,0,P|191:125|199:161,1,75,10|0,0:0|0:0,0:0:0:0:
257,249,30955,6,0,L|407:236,1,150,2|8,0:0|0:0,0:0:0:0:
443,137,32014,1,0,0:0:0:0:
412,36,32368,2,0,P|354:81|338:153,1,150,2|8,0:0|0:0,0:0:0:0:
256,346,33780,6,0,P|239:274|181:229,1,150,2|8,0:0|0:0,0:0:0:0:
79,258,34840,1,2,0:0:0:0:
84,361,35193,2,0,P|120:353|150:330,1,75,0|0,0:0|0:0,0:0:0:0:
181,229,35899,2,0,P|165:195|138:168,1,75,10|10,0:0|0:0,0:0:0:0:
56,102,36606,6,0,P|128:116|201:99,1,150,2|10,0:0|0:0,0:0:0:0:
399,171,38019,2,0,P|326:188|253:173,1,150,2|10,0:0|3:2,0:0:0:0:
323,94,39078,1,2,3:2:0:0:
423,67,39431,6,0,P|484:110|506:181,1,150,2|8,0:0|0:0,0:0:0:0:
341,312,40844,2,0,P|305:303|268:301,1,75,2|2,0:0|0:0,0:0:0:0:
164,282,41550,2,0,P|127:291|90:293,1,75,10|2,3:2|3:2,0:0:0:0:
114,190,42257,6,0,P|136:119|109:51,1,150,2|10,0:0|0:0,0:0:0:0:
245,211,43670,2,0,P|217:279|239:349,1,150,2|10,0:0|3:2,0:0:0:0:
321,283,44729,1,2,3:2:0:0:
400,217,45082,6,0,P|422:287|395:356,1,150,2|8,0:0|0:0,0:0:0:0:
187,323,46495,2,0,L|178:248,1,75,2|2,0:0|0:0,0:0:0:0:
75,268,47202,2,0,L|83:193,1,75,10|2,3:2|3:2,0:0:0:0:
29,103,47908,6,0,L|178:87,1,150,2|8,0:0|0:0,0:0:0:0:
351,205,49321,2,0,L|201:189,1,150,2|10,0:0|3:2,0:0:0:0:
178,87,50380,1,0,3:2:0:0:
99,19,50733,6,0,P|74:88|100:157,1,150,2|8,0:0|0:0,0:0:0:0:
305,113,52146,2,0,L|379:122,1,75,2|2,0:0|0:0,0:0:0:0:
433,213,52853,2,0,L|358:222,1,75,8|0,3:2|3:2,0:0:0:0:
268,276,53559,6,0,P|341:269|407:302,1,150,2|8,0:0|0:0,0:0:0:0:
206,362,54972,2,0,P|133:369|67:336,1,150,2|10,0:0|3:2,0:0:0:0:
151,274,56031,1,2,3:2:0:0:
236,212,56384,6,0,P|169:178|96:185,1,150,2|8,0:0|0:0,0:0:0:0:
273,296,57797,2,0,P|302:272|321:240,1,75,2|2,0:0|0:0,0:0:0:0:
299,137,58504,1,10,3:2:0:0:
205,89,58857,1,2,3:2:0:0:
100,106,59210,6,0,P|139:168|209:193,1,150,6|10,0:0|0:0,0:0:0:0:
410,133,60623,2,0,L|406:95,2,37.5,2|2|0,0:0|0:0|0:0,0:0:0:0:
489,202,61329,2,0,L|482:276,1,75,10|0,0:0|0:0,0:0:0:0:
409,352,62036,6,0,P|339:326|266:337,1,150,2|8,0:0|0:0,0:0:0:0:
171,383,63095,1,2,0:0:0:0:
76,337,63448,2,0,P|73:300|80:263,1,75,2|2,0:0|0:0,0:0:0:0:
5,189,64155,2,0,P|11:152|8:114,1,75,10|2,0:0|0:0,0:0:0:0:
42,15,64861,6,0,L|191:31,1,150,2|10,0:0|0:0,0:0:0:0:
373,129,66274,2,0,P|392:125|409:117,2,37.5,2|2|0,0:0|0:0|0:0,0:0:0:0:
290,191,66980,2,0,P|316:217|351:232,1,75,10|0,0:0|0:0,0:0:0:0:
450,200,67687,6,0,P|444:274|394:328,1,150,2|8,0:0|0:0,0:0:0:0:
290,316,68746,1,2,0:0:0:0:
189,349,69099,2,0,P|184:313|193:276,1,75,2|0,0:0|0:0,0:0:0:0:
278,213,69806,2,0,P|251:187|217:174,1,75,8|4,0:0|0:3,0:0:0:0:
118,209,70512,6,0,L|130:59,1,150,6|10,0:0|0:0,0:0:0:0:
278,213,71925,2,0,L|241:216,2,37.5,2|2|0,0:0|0:0|0:0,0:0:0:0:
362,263,72631,2,0,P|375:228|374:191,1,75,10|0,0:0|0:0,0:0:0:0:
303,112,73338,6,0,P|231:132|160:111,1,150,2|8,0:0|0:0,0:0:0:0:
233,36,74397,1,2,0:0:0:0:
336,17,74750,2,0,P|368:36|391:65,1,75,2|2,0:0|0:0,0:0:0:0:
436,160,75457,2,0,P|445:196|441:233,1,75,10|2,0:0|0:0,0:0:0:0:
374,314,76163,6,0,L|224:298,1,150,2|10,0:0|0:0,0:0:0:0:
35,207,77576,2,0,P|17:213|-1:215,2,37.5,2|2|0,0:0|0:0|0:0,0:0:0:0:
129,161,78282,2,0,P|150:130|160:94,1,75,10|0,0:0|0:0,0:0:0:0:
104,5,78989,6,0,L|254:21,1,150,2|8,0:0|0:0,0:0:0:0:
356,2,80048,1,2,0:0:0:0:
429,75,80401,2,0,P|431:94|429:113,2,37.5,2|2|0,0:0|0:0|0:0,0:0:0:0:
330,103,81108,2,0,P|320:139|322:176,1,75,2|8,0:0|0:3,0:0:0:0:
394,252,81814,5,4,0:0:0:0:
256,192,82167,12,0,84640,0:0:0:0:
