osu file format v14

[General]
AudioFilename: audio.mp3
AudioLeadIn: 0
PreviewTime: 50382
Countdown: 0
SampleSet: Normal
StackLeniency: 0.7
Mode: 1
LetterboxInBreaks: 0
WidescreenStoryboard: 1

[Editor]
Bookmarks: 83718,87410,91103,94795,109564,158497,173256,176948,180640,184333
DistanceSpacing: 0.1
BeatDivisor: 2
GridSize: 32
TimelineZoom: 1.599999

[Metadata]
Title:What I Would Give
TitleUnicode:What I Would Give
Artist:AngelMaker
ArtistUnicode:AngelMaker
Creator:HomieLove
Version:Futsuu
Source:
Tags:greenshell death metal deathcore english dusk sanctum
BeatmapID:4449454
BeatmapSetID:2118463

[Difficulty]
HPDrainRate:6
CircleSize:3
OverallDifficulty:4.5
ApproachRate:10
SliderMultiplier:1.4
SliderTickRate:1

[Events]
//Background and Video events
0,0,"bg.jpg",0,-40
//Break Periods
2,158687,186652
//Storyboard Layer 0 (Background)
//Storyboard Layer 1 (Fail)
//Storyboard Layer 2 (Pass)
//Storyboard Layer 3 (Foreground)
//Storyboard Layer 4 (Overlay)
//Storyboard Sound Samples

[TimingPoints]
-281,230.769230769231,28,1,0,5,1,8
-281,-129.032258064516,28,1,0,5,0,8
6065,-129.032258064516,28,1,0,100,0,8
6180,230.769230769231,4,1,0,100,1,0
6180,-129.032258064516,4,1,0,100,0,0
20891,-129.032258064516,4,1,0,100,0,0
50487,-129.032258064516,4,1,0,100,0,1
64333,-129.032258064516,4,1,0,100,0,0
65256,-129.032258064516,4,1,0,100,0,1
80026,-129.032258064516,4,1,0,100,0,0
109564,-129.032258064516,4,1,0,100,0,1
116949,-129.032258064516,4,1,0,100,0,0
117064,-129.032258064516,4,1,0,100,0,0
144122,-129.032258064516,4,1,0,100,0,0
151045,-129.032258064516,4,1,0,100,0,0
158487,461.538461538462,4,1,0,100,1,0
158487,-64.5161290322581,4,1,0,100,0,0
158717,-64.5161290322581,4,1,0,40,0,0
188025,461.538461538462,4,1,0,5,1,8
188487,230.769230769231,4,1,0,100,1,1
188487,-129.032258064516,4,1,0,100,0,1
202333,-129.032258064516,4,1,0,100,0,0
203256,-129.032258064516,4,1,0,100,0,1
218025,-129.032258064516,4,1,0,100,0,0
232794,-129.032258064516,4,1,0,100,0,1
247563,-129.032258064516,4,1,0,100,0,0

[HitObjects]
224,224,6180,5,4,0:0:0:0:
288,160,8026,1,8,0:0:0:0:
224,224,9872,1,4,0:0:0:0:
288,160,11718,1,8,0:0:0:0:
224,160,12872,1,0,0:0:0:0:
288,160,13103,1,8,0:0:0:0:
224,160,13564,1,0,0:0:0:0:
224,160,13795,1,0,0:0:0:0:
224,160,14026,1,0,0:0:0:0:
224,160,14256,1,0,0:0:0:0:
288,160,14487,1,8,0:0:0:0:
224,224,15410,1,4,0:0:0:0:
224,224,16333,1,4,0:0:0:0:
224,160,16564,1,0,0:0:0:0:
288,160,16795,1,8,0:0:0:0:
224,224,17256,1,4,0:0:0:0:
224,224,17718,1,4,0:0:0:0:
288,224,18180,1,12,0:0:0:0:
288,224,18641,1,12,0:0:0:0:
224,224,19103,1,4,0:0:0:0:
224,160,19333,1,4,0:0:0:0:
224,224,19564,1,4,0:0:0:0:
224,160,19795,1,0,0:0:0:0:
288,224,20026,1,12,0:0:0:0:
224,160,20256,1,0,0:0:0:0:
288,160,20487,1,8,0:0:0:0:
288,160,20603,1,8,0:0:0:0:
224,160,20718,1,0,0:0:0:0:
288,224,20949,1,12,0:0:0:0:
288,160,21410,1,8,0:0:0:0:
224,160,22795,1,0,0:0:0:0:
288,160,23026,1,8,0:0:0:0:
288,160,23141,1,8,0:0:0:0:
288,160,23256,1,8,0:0:0:0:
224,160,23487,1,0,0:0:0:0:
288,160,23718,1,8,0:0:0:0:
224,160,23949,1,0,0:0:0:0:
288,160,24180,1,8,0:0:0:0:
288,160,24410,1,8,0:0:0:0:
224,160,24641,1,0,0:0:0:0:
224,160,25103,1,0,0:0:0:0:
288,160,26487,1,8,0:0:0:0:
288,160,26603,1,8,0:0:0:0:
224,160,26718,1,0,0:0:0:0:
288,160,26949,1,8,0:0:0:0:
288,160,27064,1,8,0:0:0:0:
224,160,27180,1,0,0:0:0:0:
288,160,27410,1,8,0:0:0:0:
224,160,27641,1,0,0:0:0:0:
288,160,27872,1,8,0:0:0:0:
288,160,28103,1,8,0:0:0:0:
224,160,28333,1,0,0:0:0:0:
224,160,28564,1,0,0:0:0:0:
288,160,28795,1,8,0:0:0:0:
224,160,29026,1,0,0:0:0:0:
288,160,29256,1,8,0:0:0:0:
288,160,29487,1,8,0:0:0:0:
288,160,29718,1,8,0:0:0:0:
288,160,29949,1,8,0:0:0:0:
224,160,30180,1,0,0:0:0:0:
288,160,30641,1,8,0:0:0:0:
288,160,30872,1,8,0:0:0:0:
224,160,31103,1,0,0:0:0:0:
288,160,31333,1,8,0:0:0:0:
288,160,31564,1,8,0:0:0:0:
288,160,31795,1,8,0:0:0:0:
224,160,32026,1,0,0:0:0:0:
288,160,32487,1,8,0:0:0:0:
224,160,32718,1,0,0:0:0:0:
288,160,32949,1,8,0:0:0:0:
224,160,33180,1,0,0:0:0:0:
288,160,33410,1,8,0:0:0:0:
288,160,33641,1,8,0:0:0:0:
224,160,33872,1,0,0:0:0:0:
288,160,34333,1,8,0:0:0:0:
288,160,34564,1,8,0:0:0:0:
224,160,34795,1,0,0:0:0:0:
224,160,35026,1,0,0:0:0:0:
288,160,35256,1,8,0:0:0:0:
288,160,35372,1,8,0:0:0:0:
224,160,35487,1,0,0:0:0:0:
288,224,35718,1,12,0:0:0:0:
288,160,36180,1,8,0:0:0:0:
288,160,36410,1,8,0:0:0:0:
288,160,36641,1,8,0:0:0:0:
288,160,36872,1,8,0:0:0:0:
288,160,37103,1,8,0:0:0:0:
288,160,37333,1,8,0:0:0:0:
224,160,37564,1,0,0:0:0:0:
224,160,37910,1,0,0:0:0:0:
224,160,38256,1,0,0:0:0:0:
288,160,38487,1,8,0:0:0:0:
288,160,38949,1,8,0:0:0:0:
224,160,39410,1,0,0:0:0:0:
288,160,39641,1,8,0:0:0:0:
288,160,39872,1,8,0:0:0:0:
224,160,40103,1,0,0:0:0:0:
288,160,40333,1,8,0:0:0:0:
288,160,40564,1,8,0:0:0:0:
224,160,40795,1,0,0:0:0:0:
288,160,41026,1,8,0:0:0:0:
224,160,41256,1,0,0:0:0:0:
288,160,41487,1,8,0:0:0:0:
224,160,41603,1,0,0:0:0:0:
224,160,41833,1,0,0:0:0:0:
288,160,41949,1,8,0:0:0:0:
288,160,42180,1,8,0:0:0:0:
224,160,42641,1,0,0:0:0:0:
288,160,43103,1,8,0:0:0:0:
288,160,43333,1,8,0:0:0:0:
224,160,43564,1,0,0:0:0:0:
224,160,43795,1,0,0:0:0:0:
288,160,44026,1,8,0:0:0:0:
224,160,44256,1,0,0:0:0:0:
288,160,44487,1,8,0:0:0:0:
288,160,44718,1,8,0:0:0:0:
224,160,44949,1,0,0:0:0:0:
288,160,45180,1,8,0:0:0:0:
288,160,45295,1,8,0:0:0:0:
224,160,45410,1,0,0:0:0:0:
288,160,45641,1,8,0:0:0:0:
288,160,45872,1,8,0:0:0:0:
288,160,46333,1,8,0:0:0:0:
288,160,46449,1,8,0:0:0:0:
224,160,46564,1,0,0:0:0:0:
288,160,46795,1,8,0:0:0:0:
288,160,47141,1,8,0:0:0:0:
288,160,47487,1,8,0:0:0:0:
224,160,47949,1,0,0:0:0:0:
288,160,48180,1,8,0:0:0:0:
288,160,48410,1,8,0:0:0:0:
224,160,48641,1,0,0:0:0:0:
224,160,48987,1,0,0:0:0:0:
224,160,49333,1,0,0:0:0:0:
288,160,49564,1,8,0:0:0:0:
288,160,49680,1,8,0:0:0:0:
224,160,49795,1,0,0:0:0:0:
224,160,49910,1,0,0:0:0:0:
288,160,50026,1,8,0:0:0:0:
224,160,50256,1,0,0:0:0:0:
224,224,50487,1,4,0:0:0:0:
288,160,50718,1,8,0:0:0:0:
224,160,50949,1,0,0:0:0:0:
288,160,51180,1,8,0:0:0:0:
224,160,51410,1,0,0:0:0:0:
288,160,52333,1,8,0:0:0:0:
224,160,52564,1,0,0:0:0:0:
288,160,52680,1,8,0:0:0:0:
224,160,52910,1,0,0:0:0:0:
288,160,53026,1,8,0:0:0:0:
288,160,53256,1,8,0:0:0:0:
224,160,53718,1,0,0:0:0:0:
288,224,54180,1,12,0:0:0:0:
288,160,54410,1,8,0:0:0:0:
288,160,54641,1,8,0:0:0:0:
288,160,55103,1,8,0:0:0:0:
224,160,55333,1,0,0:0:0:0:
288,160,55564,1,8,0:0:0:0:
224,160,55795,1,0,0:0:0:0:
288,160,56026,1,8,0:0:0:0:
224,160,56256,1,0,0:0:0:0:
288,160,56372,1,8,0:0:0:0:
288,160,56603,1,8,0:0:0:0:
224,160,56718,1,0,0:0:0:0:
288,160,56949,1,8,0:0:0:0:
224,160,57410,1,0,0:0:0:0:
288,160,57872,1,8,0:0:0:0:
224,160,58103,1,0,0:0:0:0:
288,160,58218,1,8,0:0:0:0:
224,160,58449,1,0,0:0:0:0:
288,160,58564,1,8,0:0:0:0:
288,160,58795,1,8,0:0:0:0:
288,160,59026,1,8,0:0:0:0:
288,160,59256,1,8,0:0:0:0:
224,160,59487,1,0,0:0:0:0:
288,160,59718,1,8,0:0:0:0:
224,160,59949,1,0,0:0:0:0:
288,160,60064,1,8,0:0:0:0:
224,160,60295,1,0,0:0:0:0:
288,160,60410,1,8,0:0:0:0:
288,160,60641,1,8,0:0:0:0:
224,160,61103,1,0,0:0:0:0:
288,160,61333,1,8,0:0:0:0:
288,160,61564,1,8,0:0:0:0:
224,160,61795,1,0,0:0:0:0:
288,160,61910,1,8,0:0:0:0:
224,160,62141,1,0,0:0:0:0:
288,160,62256,1,8,0:0:0:0:
288,160,62718,1,8,0:0:0:0:
288,160,62949,1,8,0:0:0:0:
224,160,63180,1,0,0:0:0:0:
288,160,63410,1,8,0:0:0:0:
224,160,63641,1,0,0:0:0:0:
288,160,63756,1,8,0:0:0:0:
288,160,63987,1,8,0:0:0:0:
224,160,64103,1,0,0:0:0:0:
288,160,64333,1,8,0:0:0:0:
288,224,65256,1,12,0:0:0:0:
224,160,65487,1,0,0:0:0:0:
288,160,65718,1,8,0:0:0:0:
224,160,65949,1,0,0:0:0:0:
288,160,66180,1,8,0:0:0:0:
224,160,66641,1,0,0:0:0:0:
288,160,67103,1,8,0:0:0:0:
288,160,67333,1,8,0:0:0:0:
224,160,67564,1,0,0:0:0:0:
224,160,67795,1,0,0:0:0:0:
288,160,68026,1,8,0:0:0:0:
224,160,68487,1,0,0:0:0:0:
288,160,68949,1,8,0:0:0:0:
288,160,69180,1,8,0:0:0:0:
288,160,69410,1,8,0:0:0:0:
224,160,69641,1,0,0:0:0:0:
288,160,69872,1,8,0:0:0:0:
288,160,70103,1,8,0:0:0:0:
288,160,70333,1,8,0:0:0:0:
224,160,70564,1,0,0:0:0:0:
288,160,70795,1,8,0:0:0:0:
224,160,71026,1,0,0:0:0:0:
288,160,71141,1,8,0:0:0:0:
288,160,71372,1,8,0:0:0:0:
224,160,71487,1,0,0:0:0:0:
288,160,71718,1,8,0:0:0:0:
224,160,72180,1,0,0:0:0:0:
288,160,72641,1,8,0:0:0:0:
288,160,72872,1,8,0:0:0:0:
288,160,73103,1,8,0:0:0:0:
224,160,73333,1,0,0:0:0:0:
288,160,73564,1,8,0:0:0:0:
224,160,74026,1,0,0:0:0:0:
288,160,74256,1,8,0:0:0:0:
224,160,74487,1,0,0:0:0:0:
288,160,74718,1,8,0:0:0:0:
288,160,74949,1,8,0:0:0:0:
224,160,75180,1,0,0:0:0:0:
288,160,75410,1,8,0:0:0:0:
224,160,75872,1,0,0:0:0:0:
288,160,76103,1,8,0:0:0:0:
288,160,76333,1,8,0:0:0:0:
224,160,76564,1,0,0:0:0:0:
288,160,76680,1,8,0:0:0:0:
224,160,76910,1,0,0:0:0:0:
288,160,77026,1,8,0:0:0:0:
224,160,77256,1,0,0:0:0:0:
288,160,77487,1,8,0:0:0:0:
224,160,77603,1,0,0:0:0:0:
288,160,77833,1,8,0:0:0:0:
224,160,77949,1,0,0:0:0:0:
288,160,78180,1,8,0:0:0:0:
288,160,79103,1,8,0:0:0:0:
288,160,79564,1,8,0:0:0:0:
224,224,80026,1,4,0:0:0:0:
288,160,81872,1,8,0:0:0:0:
288,160,82795,1,8,0:0:0:0:
288,160,83256,1,8,0:0:0:0:
224,160,83487,1,0,0:0:0:0:
288,160,83718,1,8,0:0:0:0:
224,160,83949,1,0,0:0:0:0:
224,160,84064,1,0,0:0:0:0:
288,160,84180,1,8,0:0:0:0:
224,160,84410,1,0,0:0:0:0:
288,160,84641,1,8,0:0:0:0:
288,160,85333,1,8,0:0:0:0:
224,160,85564,1,0,0:0:0:0:
288,160,85795,1,8,0:0:0:0:
288,160,85910,1,8,0:0:0:0:
224,160,86026,1,0,0:0:0:0:
288,160,86256,1,8,0:0:0:0:
224,160,86487,1,0,0:0:0:0:
224,160,87180,1,0,0:0:0:0:
288,160,87410,1,8,0:0:0:0:
288,160,87641,1,8,0:0:0:0:
288,160,87756,1,8,0:0:0:0:
224,160,87987,1,0,0:0:0:0:
288,160,88103,1,8,0:0:0:0:
224,160,88333,1,0,0:0:0:0:
288,160,89026,1,8,0:0:0:0:
224,160,89256,1,0,0:0:0:0:
224,160,89487,1,0,0:0:0:0:
224,160,89603,1,0,0:0:0:0:
288,160,89833,1,8,0:0:0:0:
224,160,89949,1,0,0:0:0:0:
288,160,90180,1,8,0:0:0:0:
224,160,90641,1,0,0:0:0:0:
224,160,90872,1,0,0:0:0:0:
288,224,91103,1,12,0:0:0:0:
224,160,91564,1,0,0:0:0:0:
224,160,91795,1,0,0:0:0:0:
288,224,92026,1,12,0:0:0:0:
224,160,92487,1,0,0:0:0:0:
224,160,92718,1,0,0:0:0:0:
288,224,92949,1,12,0:0:0:0:
224,160,93180,1,0,0:0:0:0:
288,224,93410,1,12,0:0:0:0:
224,160,93641,1,0,0:0:0:0:
288,224,93872,1,12,0:0:0:0:
224,160,94564,1,0,0:0:0:0:
288,160,94795,1,8,0:0:0:0:
224,160,95026,1,0,0:0:0:0:
224,160,95141,1,0,0:0:0:0:
224,160,95256,1,0,0:0:0:0:
224,160,95487,1,0,0:0:0:0:
288,160,95718,1,8,0:0:0:0:
288,160,96410,1,8,0:0:0:0:
224,160,96641,1,0,0:0:0:0:
288,160,96872,1,8,0:0:0:0:
288,160,96987,1,8,0:0:0:0:
288,160,97103,1,8,0:0:0:0:
288,160,97333,1,8,0:0:0:0:
224,160,97564,1,0,0:0:0:0:
224,160,98256,1,0,0:0:0:0:
288,160,98487,1,8,0:0:0:0:
288,160,98718,1,8,0:0:0:0:
288,160,98833,1,8,0:0:0:0:
224,160,98949,1,0,0:0:0:0:
224,160,99180,1,0,0:0:0:0:
288,160,99410,1,8,0:0:0:0:
288,160,100103,1,8,0:0:0:0:
224,160,100333,1,0,0:0:0:0:
224,160,100564,1,0,0:0:0:0:
224,160,100680,1,0,0:0:0:0:
288,160,100795,1,8,0:0:0:0:
288,160,101026,1,8,0:0:0:0:
224,160,101256,1,0,0:0:0:0:
224,160,101487,1,0,0:0:0:0:
288,160,101718,1,8,0:0:0:0:
288,160,101833,1,8,0:0:0:0:
288,160,101949,1,8,0:0:0:0:
224,224,102180,1,4,0:0:0:0:
224,160,102872,1,0,0:0:0:0:
288,224,103103,1,12,0:0:0:0:
224,160,103564,1,0,0:0:0:0:
224,160,104718,1,0,0:0:0:0:
288,224,104949,1,12,0:0:0:0:
288,224,105295,1,12,0:0:0:0:
288,224,105641,1,12,0:0:0:0:
224,224,105872,1,4,0:0:0:0:
224,160,106564,1,0,0:0:0:0:
288,224,106795,1,12,0:0:0:0:
224,160,107256,1,0,0:0:0:0:
224,160,108410,1,0,0:0:0:0:
288,224,108641,1,12,0:0:0:0:
224,160,108872,1,0,0:0:0:0:
224,160,108987,1,0,0:0:0:0:
288,160,109103,1,8,0:0:0:0:
288,160,109333,1,8,0:0:0:0:
224,160,109564,1,0,0:0:0:0:
288,160,109795,1,8,0:0:0:0:
288,160,109910,1,8,0:0:0:0:
288,160,110026,1,8,0:0:0:0:
288,160,110256,1,8,0:0:0:0:
288,160,110718,1,8,0:0:0:0:
224,160,110949,1,0,0:0:0:0:
288,160,111410,1,8,0:0:0:0:
288,160,111641,1,8,0:0:0:0:
288,160,111756,1,8,0:0:0:0:
224,160,111872,1,0,0:0:0:0:
288,160,112333,1,8,0:0:0:0:
224,160,112564,1,0,0:0:0:0:
288,160,112680,1,8,0:0:0:0:
224,160,112795,1,0,0:0:0:0:
288,160,113026,1,8,0:0:0:0:
224,160,113256,1,0,0:0:0:0:
288,160,113487,1,8,0:0:0:0:
288,160,113603,1,8,0:0:0:0:
288,160,113718,1,8,0:0:0:0:
288,160,113949,1,8,0:0:0:0:
288,160,114410,1,8,0:0:0:0:
224,160,114641,1,0,0:0:0:0:
288,160,115103,1,8,0:0:0:0:
288,160,115333,1,8,0:0:0:0:
224,160,115449,1,0,0:0:0:0:
224,160,115564,1,0,0:0:0:0:
288,160,116026,1,8,0:0:0:0:
224,160,116256,1,0,0:0:0:0:
224,160,116372,1,0,0:0:0:0:
288,160,116487,1,8,0:0:0:0:
288,160,116718,1,8,0:0:0:0:
224,224,116949,1,4,0:0:0:0:
288,224,118795,1,12,0:0:0:0:
288,224,120641,1,12,0:0:0:0:
224,160,120872,1,0,0:0:0:0:
224,160,121103,1,0,0:0:0:0:
224,160,121333,1,0,0:0:0:0:
288,160,121564,1,8,0:0:0:0:
224,160,121795,1,0,0:0:0:0:
288,160,122026,1,8,0:0:0:0:
288,160,122256,1,8,0:0:0:0:
224,160,122487,1,0,0:0:0:0:
224,160,122718,1,0,0:0:0:0:
224,160,122949,1,0,0:0:0:0:
224,160,123064,1,0,0:0:0:0:
224,160,123180,1,0,0:0:0:0:
288,160,123410,1,8,0:0:0:0:
224,160,123641,1,0,0:0:0:0:
224,160,123872,1,0,0:0:0:0:
288,224,124333,1,12,0:0:0:0:
224,160,124564,1,0,0:0:0:0:
224,160,124795,1,0,0:0:0:0:
224,160,125026,1,0,0:0:0:0:
288,160,125256,1,8,0:0:0:0:
224,160,125487,1,0,0:0:0:0:
288,160,125718,1,8,0:0:0:0:
288,160,125949,1,8,0:0:0:0:
224,160,126180,1,0,0:0:0:0:
224,160,126410,1,0,0:0:0:0:
224,160,126641,1,0,0:0:0:0:
224,160,126756,1,0,0:0:0:0:
224,160,126872,1,0,0:0:0:0:
288,160,127103,1,8,0:0:0:0:
224,160,127333,1,0,0:0:0:0:
224,160,127564,1,0,0:0:0:0:
288,160,127795,1,8,0:0:0:0:
288,224,128949,1,12,0:0:0:0:
224,160,129180,1,0,0:0:0:0:
288,160,129410,1,8,0:0:0:0:
288,160,129641,1,8,0:0:0:0:
224,160,129872,1,0,0:0:0:0:
288,160,130103,1,8,0:0:0:0:
288,160,130333,1,8,0:0:0:0:
288,160,130449,1,8,0:0:0:0:
288,160,130564,1,8,0:0:0:0:
224,160,130795,1,0,0:0:0:0:
288,160,131026,1,8,0:0:0:0:
288,160,131256,1,8,0:0:0:0:
288,160,131372,1,8,0:0:0:0:
224,160,131487,1,0,0:0:0:0:
288,160,131718,1,8,0:0:0:0:
224,160,131949,1,0,0:0:0:0:
288,160,132180,1,8,0:0:0:0:
224,224,132641,1,4,0:0:0:0:
224,160,132872,1,0,0:0:0:0:
288,160,133103,1,8,0:0:0:0:
288,160,133333,1,8,0:0:0:0:
224,160,133564,1,0,0:0:0:0:
288,160,133795,1,8,0:0:0:0:
288,160,134026,1,8,0:0:0:0:
288,160,134256,1,8,0:0:0:0:
224,160,134487,1,0,0:0:0:0:
224,160,134718,1,0,0:0:0:0:
288,160,134949,1,8,0:0:0:0:
288,160,135180,1,8,0:0:0:0:
224,160,135410,1,0,0:0:0:0:
288,160,135641,1,8,0:0:0:0:
224,160,135872,1,0,0:0:0:0:
224,160,135987,1,0,0:0:0:0:
288,160,136103,1,8,0:0:0:0:
288,160,136564,1,8,0:0:0:0:
288,160,136795,1,8,0:0:0:0:
224,160,137026,1,0,0:0:0:0:
288,160,137256,1,8,0:0:0:0:
224,160,137487,1,0,0:0:0:0:
288,160,137718,1,8,0:0:0:0:
288,160,137833,1,8,0:0:0:0:
288,160,137949,1,8,0:0:0:0:
224,160,138180,1,0,0:0:0:0:
224,160,138410,1,0,0:0:0:0:
288,160,138641,1,8,0:0:0:0:
224,160,138872,1,0,0:0:0:0:
288,160,139103,1,8,0:0:0:0:
288,160,139333,1,8,0:0:0:0:
224,160,139564,1,0,0:0:0:0:
224,224,140026,1,4,0:0:0:0:
224,160,140256,1,0,0:0:0:0:
288,160,140487,1,8,0:0:0:0:
288,160,140718,1,8,0:0:0:0:
224,160,140949,1,0,0:0:0:0:
288,160,141180,1,8,0:0:0:0:
224,160,141410,1,0,0:0:0:0:
224,160,141526,1,0,0:0:0:0:
288,160,141641,1,8,0:0:0:0:
224,160,141872,1,0,0:0:0:0:
224,160,142103,1,0,0:0:0:0:
288,160,142333,1,8,0:0:0:0:
224,160,142564,1,0,0:0:0:0:
288,224,142795,1,12,0:0:0:0:
224,224,143026,1,4,0:0:0:0:
288,224,143256,1,12,0:0:0:0:
224,224,143487,1,4,0:0:0:0:
224,224,143718,1,4,0:0:0:0:
224,160,144180,1,0,0:0:0:0:
288,160,144641,1,8,0:0:0:0:
224,160,144872,1,0,0:0:0:0:
224,160,145333,1,0,0:0:0:0:
224,160,145564,1,0,0:0:0:0:
224,160,146026,1,0,0:0:0:0:
224,160,146256,1,0,0:0:0:0:
288,160,146487,1,8,0:0:0:0:
224,160,146718,1,0,0:0:0:0:
288,160,146949,1,8,0:0:0:0:
224,160,147180,1,0,0:0:0:0:
224,224,147410,1,4,0:0:0:0:
224,160,147872,1,0,0:0:0:0:
288,160,148333,1,8,0:0:0:0:
224,160,148564,1,0,0:0:0:0:
224,160,149026,1,0,0:0:0:0:
224,160,149256,1,0,0:0:0:0:
224,160,149487,1,0,0:0:0:0:
224,160,149949,1,0,0:0:0:0:
288,160,150180,1,8,0:0:0:0:
288,160,150410,1,8,0:0:0:0:
288,160,150641,1,8,0:0:0:0:
224,160,151103,1,0,0:0:0:0:
224,160,151333,1,0,0:0:0:0:
224,160,151564,1,0,0:0:0:0:
224,160,151795,1,0,0:0:0:0:
288,160,152026,1,8,0:0:0:0:
224,160,152256,1,0,0:0:0:0:
224,160,152372,1,0,0:0:0:0:
224,160,152487,1,0,0:0:0:0:
224,160,152718,1,0,0:0:0:0:
288,224,152949,1,12,0:0:0:0:
288,224,153872,1,12,0:0:0:0:
224,160,154103,1,0,0:0:0:0:
288,160,154333,1,8,0:0:0:0:
224,160,154564,1,0,0:0:0:0:
224,224,154795,1,4,0:0:0:0:
224,224,155256,1,4,0:0:0:0:
288,224,155718,1,12,0:0:0:0:
288,224,156180,1,12,0:0:0:0:
224,224,156641,1,4,0:0:0:0:
224,160,156872,1,0,0:0:0:0:
224,224,157103,1,4,0:0:0:0:
224,160,157333,1,0,0:0:0:0:
288,224,157564,1,12,0:0:0:0:
224,160,157795,1,0,0:0:0:0:
224,160,157910,1,0,0:0:0:0:
288,160,158026,1,8,0:0:0:0:
224,160,158256,1,0,0:0:0:0:
288,224,158487,1,12,0:0:0:0:
256,192,187102,12,0,188255,0:0:0:0:
224,224,188487,5,4,0:0:0:0:
288,160,188717,1,8,0:0:0:0:
224,160,188948,1,0,0:0:0:0:
288,160,189179,1,8,0:0:0:0:
224,160,189410,1,0,0:0:0:0:
288,160,190333,1,8,0:0:0:0:
224,160,190563,1,0,0:0:0:0:
288,160,190679,1,8,0:0:0:0:
224,160,190910,1,0,0:0:0:0:
288,160,191025,1,8,0:0:0:0:
288,160,191256,1,8,0:0:0:0:
224,160,191717,1,0,0:0:0:0:
288,224,192179,1,12,0:0:0:0:
288,160,192410,1,8,0:0:0:0:
288,160,192640,1,8,0:0:0:0:
288,160,193102,1,8,0:0:0:0:
224,160,193333,1,0,0:0:0:0:
288,160,193563,1,8,0:0:0:0:
224,160,193794,1,0,0:0:0:0:
288,160,194025,1,8,0:0:0:0:
224,160,194256,1,0,0:0:0:0:
288,160,194371,1,8,0:0:0:0:
288,160,194602,1,8,0:0:0:0:
224,160,194717,1,0,0:0:0:0:
288,160,194948,1,8,0:0:0:0:
224,160,195410,1,0,0:0:0:0:
288,160,195871,1,8,0:0:0:0:
224,160,196102,1,0,0:0:0:0:
288,160,196217,1,8,0:0:0:0:
224,160,196448,1,0,0:0:0:0:
288,160,196563,1,8,0:0:0:0:
288,160,196794,1,8,0:0:0:0:
288,160,197025,1,8,0:0:0:0:
288,160,197256,1,8,0:0:0:0:
224,160,197487,1,0,0:0:0:0:
288,160,197717,1,8,0:0:0:0:
224,160,197948,1,0,0:0:0:0:
288,160,198063,1,8,0:0:0:0:
224,160,198294,1,0,0:0:0:0:
288,160,198410,1,8,0:0:0:0:
288,160,198640,1,8,0:0:0:0:
224,160,199102,1,0,0:0:0:0:
288,160,199333,1,8,0:0:0:0:
288,160,199563,1,8,0:0:0:0:
224,160,199794,1,0,0:0:0:0:
288,160,199910,1,8,0:0:0:0:
224,160,200140,1,0,0:0:0:0:
288,160,200256,1,8,0:0:0:0:
288,160,200717,1,8,0:0:0:0:
288,160,200948,1,8,0:0:0:0:
224,160,201179,1,0,0:0:0:0:
288,160,201410,1,8,0:0:0:0:
224,160,201640,1,0,0:0:0:0:
288,160,201756,1,8,0:0:0:0:
288,160,201987,1,8,0:0:0:0:
224,160,202102,1,0,0:0:0:0:
288,160,202333,1,8,0:0:0:0:
288,224,203256,1,12,0:0:0:0:
224,160,203487,1,0,0:0:0:0:
288,160,203717,1,8,0:0:0:0:
224,160,203948,1,0,0:0:0:0:
288,160,204179,1,8,0:0:0:0:
224,160,204640,1,0,0:0:0:0:
288,160,205102,1,8,0:0:0:0:
288,160,205333,1,8,0:0:0:0:
224,160,205563,1,0,0:0:0:0:
224,160,205794,1,0,0:0:0:0:
288,160,206025,1,8,0:0:0:0:
224,160,206487,1,0,0:0:0:0:
288,160,206948,1,8,0:0:0:0:
288,160,207179,1,8,0:0:0:0:
288,160,207410,1,8,0:0:0:0:
224,160,207640,1,0,0:0:0:0:
288,160,207871,1,8,0:0:0:0:
288,160,208102,1,8,0:0:0:0:
288,160,208333,1,8,0:0:0:0:
224,160,208563,1,0,0:0:0:0:
288,160,208794,1,8,0:0:0:0:
224,160,209025,1,0,0:0:0:0:
288,160,209140,1,8,0:0:0:0:
288,160,209371,1,8,0:0:0:0:
224,160,209487,1,0,0:0:0:0:
288,160,209717,1,8,0:0:0:0:
224,160,210179,1,0,0:0:0:0:
288,160,210640,1,8,0:0:0:0:
288,160,210871,1,8,0:0:0:0:
288,160,211102,1,8,0:0:0:0:
224,160,211333,1,0,0:0:0:0:
288,160,211563,1,8,0:0:0:0:
224,160,212025,1,0,0:0:0:0:
288,160,212256,1,8,0:0:0:0:
224,160,212487,1,0,0:0:0:0:
288,160,212717,1,8,0:0:0:0:
288,160,212948,1,8,0:0:0:0:
224,160,213179,1,0,0:0:0:0:
288,160,213410,1,8,0:0:0:0:
224,160,213871,1,0,0:0:0:0:
288,160,214102,1,8,0:0:0:0:
288,160,214333,1,8,0:0:0:0:
224,160,214563,1,0,0:0:0:0:
288,160,214679,1,8,0:0:0:0:
224,160,214910,1,0,0:0:0:0:
288,160,215025,1,8,0:0:0:0:
224,160,215256,1,0,0:0:0:0:
288,160,215487,1,8,0:0:0:0:
224,160,215602,1,0,0:0:0:0:
288,160,215833,1,8,0:0:0:0:
224,160,215948,1,0,0:0:0:0:
288,160,216179,1,8,0:0:0:0:
288,160,217102,1,8,0:0:0:0:
224,160,217333,1,0,0:0:0:0:
288,160,217563,1,8,0:0:0:0:
288,160,217794,1,8,0:0:0:0:
224,160,218025,1,0,0:0:0:0:
288,160,218948,1,8,0:0:0:0:
288,160,219410,1,8,0:0:0:0:
288,160,219640,1,8,0:0:0:0:
288,160,220333,1,8,0:0:0:0:
224,160,220563,1,0,0:0:0:0:
288,160,221256,1,8,0:0:0:0:
288,160,221371,1,8,0:0:0:0:
288,160,221487,1,8,0:0:0:0:
224,160,221717,1,0,0:0:0:0:
288,160,222179,1,8,0:0:0:0:
288,160,222410,1,8,0:0:0:0:
288,160,223102,1,8,0:0:0:0:
224,160,223333,1,0,0:0:0:0:
288,160,224025,1,8,0:0:0:0:
288,160,224140,1,8,0:0:0:0:
224,160,224256,1,0,0:0:0:0:
288,160,224487,1,8,0:0:0:0:
288,160,224717,1,8,0:0:0:0:
224,160,224948,1,0,0:0:0:0:
224,160,225063,1,0,0:0:0:0:
224,160,225179,1,0,0:0:0:0:
288,160,225410,1,8,0:0:0:0:
288,160,225871,1,8,0:0:0:0:
288,160,226102,1,8,0:0:0:0:
224,160,226563,1,0,0:0:0:0:
288,160,227025,1,8,0:0:0:0:
288,160,227487,1,8,0:0:0:0:
288,160,227717,1,8,0:0:0:0:
288,160,228640,1,8,0:0:0:0:
224,160,228871,1,0,0:0:0:0:
224,160,229102,1,0,0:0:0:0:
288,160,230256,1,8,0:0:0:0:
224,160,230487,1,0,0:0:0:0:
288,160,230717,1,8,0:0:0:0:
224,160,231871,1,0,0:0:0:0:
224,160,232102,1,0,0:0:0:0:
288,160,232333,1,8,0:0:0:0:
288,160,232563,1,8,0:0:0:0:
224,160,232794,1,0,0:0:0:0:
224,160,233256,1,0,0:0:0:0:
288,160,233487,1,8,0:0:0:0:
288,160,233948,1,8,0:0:0:0:
224,160,234179,1,0,0:0:0:0:
224,160,234410,1,0,0:0:0:0:
288,160,234640,1,8,0:0:0:0:
288,160,234871,1,8,0:0:0:0:
288,160,235102,1,8,0:0:0:0:
224,160,235333,1,0,0:0:0:0:
224,160,235794,1,0,0:0:0:0:
288,160,236025,1,8,0:0:0:0:
224,160,236487,1,0,0:0:0:0:
224,160,236640,1,0,0:0:0:0:
224,160,236794,1,0,0:0:0:0:
288,160,236948,1,8,0:0:0:0:
288,160,237410,1,8,0:0:0:0:
288,160,237563,1,8,0:0:0:0:
288,160,237717,1,8,0:0:0:0:
224,160,237871,1,0,0:0:0:0:
288,160,238333,1,8,0:0:0:0:
224,160,238487,1,0,0:0:0:0:
224,160,238640,1,0,0:0:0:0:
288,160,238794,1,8,0:0:0:0:
224,160,239256,1,0,0:0:0:0:
288,160,239410,1,8,0:0:0:0:
288,160,239563,1,8,0:0:0:0:
224,160,239717,1,0,0:0:0:0:
288,160,240179,1,8,0:0:0:0:
288,160,240410,1,8,0:0:0:0:
224,160,240640,1,0,0:0:0:0:
224,160,240871,1,0,0:0:0:0:
288,160,241102,1,8,0:0:0:0:
224,160,241333,1,0,0:0:0:0:
288,160,241563,1,8,0:0:0:0:
288,160,241794,1,8,0:0:0:0:
224,160,242025,1,0,0:0:0:0:
288,160,242256,1,8,0:0:0:0:
288,160,242487,1,8,0:0:0:0:
224,160,242717,1,0,0:0:0:0:
288,160,242948,1,8,0:0:0:0:
224,160,243179,1,0,0:0:0:0:
224,160,243410,1,0,0:0:0:0:
288,160,243640,1,8,0:0:0:0:
224,160,243871,1,0,0:0:0:0:
224,160,243987,1,0,0:0:0:0:
224,160,244102,1,0,0:0:0:0:
288,160,244333,1,8,0:0:0:0:
288,160,244563,1,8,0:0:0:0:
224,160,244794,1,0,0:0:0:0:
224,160,244910,1,0,0:0:0:0:
224,160,245025,1,0,0:0:0:0:
288,160,245256,1,8,0:0:0:0:
224,160,245487,1,0,0:0:0:0:
288,160,245717,1,8,0:0:0:0:
288,160,245948,1,8,0:0:0:0:
224,160,246179,1,0,0:0:0:0:
288,160,246410,1,8,0:0:0:0:
224,160,246640,1,0,0:0:0:0:
224,160,246871,1,0,0:0:0:0:
288,160,247102,1,8,0:0:0:0:
224,160,247333,1,0,0:0:0:0:
288,224,247563,1,12,0:0:0:0:
