osu file format v14

[General]
AudioFilename: audio.mp3
AudioLeadIn: 0
PreviewTime: 21114
Countdown: 0
SampleSet: Soft
StackLeniency: 0.7
Mode: 0
LetterboxInBreaks: 0
WidescreenStoryboard: 0

[Editor]
DistanceSpacing: 0.8
BeatDivisor: 4
GridSize: 4
TimelineZoom: 2.1

[Metadata]
Title:Ven Bailalo
TitleUnicode:Ven Bailalo
Artist:Angel y Khris feat. Dancing Uganda Knuckles
ArtistUnicode:Angel y Khris feat. Dancing Uganda Knuckles
Creator:TheShadowOfDark
Version:Noche de Perreo
Source:
Tags:
BeatmapID:1945043
BeatmapSetID:931513

[Difficulty]
HPDrainRate:6
CircleSize:4
OverallDifficulty:9
ApproachRate:9
SliderMultiplier:2
SliderTickRate:1

[Events]
//Background and Video events
0,0,"ven bailalo.jpg",0,0
//Break Periods
//Storyboard Layer 0 (Background)
//Storyboard Layer 1 (Fail)
//Storyboard Layer 2 (Pass)
//Storyboard Layer 3 (Foreground)
//Storyboard Sound Samples

[TimingPoints]
393,618.556701030928,4,2,0,100,1,0
2248,-83.3333333333333,4,2,0,100,0,0
2867,-50,4,2,0,100,0,0
21423,-100,4,2,0,100,0,0
22042,-83.3333333333333,4,2,0,100,0,0
22661,-50,4,2,0,100,0,0

[Colours]
Combo1 : 255,45,45
Combo2 : 255,0,0
Combo3 : 255,164,119
Combo4 : 221,0,0
Combo5 : 255,255,255

[HitObjects]
47,160,393,6,0,L|57:224,1,50
146,225,702,2,0,L|138:175,1,50
36,148,1011,2,0,L|44:229,1,50
156,236,1320,2,0,L|150:173,1,50
66,310,1630,5,0,0:0:0:0:
66,310,1836,1,0,0:0:0:0:
66,310,2042,1,0,0:0:0:0:
66,310,2248,6,0,B|156:356|161:281|254:323,1,179.999994506836
290,337,2867,6,0,P|260:246|322:169,1,200
512,126,3331,1,0,0:0:0:0:
373,265,3485,2,0,L|130:257,1,200
104,38,4104,2,0,P|210:109|140:275,1,300
124,292,4722,1,0,0:0:0:0:
0,45,5032,1,0,0:0:0:0:
217,136,5341,6,0,B|317:180|317:90|436:147,1,200
512,244,5805,1,0,0:0:0:0:
384,336,5960,2,0,P|370:229|388:200,1,100
491,67,6269,1,0,0:0:0:0:
491,67,6578,2,0,P|421:176|281:105,1,300
274,70,7197,1,0,0:0:0:0:
512,226,7506,1,0,0:0:0:0:
270,330,7815,6,0,B|168:376|175:275|34:350,1,200
14,118,8279,1,0,0:0:0:0:
218,239,8434,1,0,0:0:0:0:
136,47,8588,1,0,0:0:0:0:
76,330,8743,1,0,0:0:0:0:
76,330,9052,2,0,P|161:227|45:119,1,300
14,118,9671,1,0,0:0:0:0:
173,381,9980,1,0,0:0:0:0:
301,171,10289,6,0,B|392:125|399:205|506:153,1,200
371,27,10753,1,0,0:0:0:0:
183,118,10908,2,0,P|181:218|208:257,1,100
355,356,11217,2,0,P|357:256|330:217,1,100
254,22,11527,1,0,0:0:0:0:
141,353,11681,1,0,0:0:0:0:
425,152,11836,1,0,0:0:0:0:
77,146,11990,1,0,0:0:0:0:
355,356,12145,1,0,0:0:0:0:
355,356,12454,1,0,0:0:0:0:
355,356,12764,6,0,P|406:254|324:170,1,200
192,94,13228,1,0,0:0:0:0:
81,286,13382,2,0,L|296:271,1,200
354,4,14001,2,0,P|263:102|366:187,1,300
419,182,14619,1,0,0:0:0:0:
181,0,14929,1,0,0:0:0:0:
81,286,15238,6,0,B|155:242|211:313|282:270,1,200
419,182,15702,1,0,0:0:0:0:
271,100,15856,2,0,P|224:144|217:188,1,100
267,381,16166,1,0,0:0:0:0:
267,381,16475,2,0,P|276:278|111:265,1,300
76,293,17094,1,0,0:0:0:0:
371,343,17403,1,0,0:0:0:0:
318,48,17712,6,0,B|232:91|194:22|88:77,1,200
0,228,18176,1,0,0:0:0:0:
240,224,18331,1,0,0:0:0:0:
13,73,18485,1,0,0:0:0:0:
128,313,18640,1,0,0:0:0:0:
128,313,18949,2,0,P|244:363|376:252,1,300
381,222,19568,2,0,P|391:133|475:65,1,200
458,322,20186,5,0,0:0:0:0:
277,102,20341,1,0,0:0:0:0:
249,384,20496,1,0,0:0:0:0:
424,162,20650,1,0,0:0:0:0:
111,187,20805,1,0,0:0:0:0:
375,300,20960,1,0,0:0:0:0:
110,54,21114,1,0,0:0:0:0:
249,384,21269,1,0,0:0:0:0:
402,79,21423,6,0,P|406:37|391:0,2,66.6666666666667
424,162,22042,2,0,P|338:140|325:47,1,179.999994506836
402,79,22661,6,0,L|391:279,1,200
512,185,23124,1,0,0:0:0:0:
402,79,23278,2,0,L|159:87,1,200
132,305,23898,2,0,P|244:219|194:81,1,300
149,66,24515,1,0,0:0:0:0:
0,339,24825,1,0,0:0:0:0:
217,248,25134,6,0,B|317:204|317:294|436:237,1,200
512,140,25598,1,0,0:0:0:0:
384,48,25753,2,0,P|370:155|388:184,1,100
491,317,26062,1,0,0:0:0:0:
491,317,26372,2,0,P|421:208|281:279,1,300
274,314,26990,1,0,0:0:0:0:
512,158,27299,1,0,0:0:0:0:
270,54,27608,6,0,B|168:8|175:109|34:34,1,200
14,266,28072,1,0,0:0:0:0:
218,145,28227,1,0,0:0:0:0:
136,337,28381,1,0,0:0:0:0:
76,54,28536,1,0,0:0:0:0:
76,54,28846,2,0,P|161:157|45:265,1,300
14,266,29464,1,0,0:0:0:0:
173,3,29773,1,0,0:0:0:0:
301,213,30083,6,0,B|392:259|399:179|506:231,1,200
371,357,30546,1,0,0:0:0:0:
183,266,30701,2,0,P|181:166|208:127,1,100
355,28,31011,2,0,P|357:128|330:167,1,100
487,227,31320,2,0,P|392:250|301:212,1,200
135,63,31783,1,0,0:0:0:0:
355,28,31938,1,0,0:0:0:0:
355,28,32247,1,0,0:0:0:0:
355,28,32557,6,0,P|406:130|324:214,1,200
192,290,33021,1,0,0:0:0:0:
81,98,33175,2,0,L|296:113,1,200
354,380,33794,2,0,P|263:282|366:197,1,300
419,202,34412,1,0,0:0:0:0:
181,384,34722,1,0,0:0:0:0:
81,98,35031,6,0,B|155:142|211:71|282:114,1,200
419,202,35495,1,0,0:0:0:0:
271,284,35650,2,0,P|224:240|217:196,1,100
267,3,35959,1,0,0:0:0:0:
267,3,36269,2,0,P|276:106|111:119,1,300
76,91,36887,1,0,0:0:0:0:
371,41,37196,1,0,0:0:0:0:
318,336,37505,6,0,B|232:293|194:362|88:307,1,200
0,156,37969,1,0,0:0:0:0:
240,160,38124,1,0,0:0:0:0:
13,311,38278,1,0,0:0:0:0:
128,71,38433,1,0,0:0:0:0:
128,71,38743,2,0,P|244:21|376:132,1,300
386,163,39362,1,0,0:0:0:0:
101,384,39671,1,0,0:0:0:0:
25,32,39980,5,0,0:0:0:0:
