osu file format v14

[General]
AudioFilename: audio.mp3
AudioLeadIn: 0
PreviewTime: -1
Countdown: 1
SampleSet: None
StackLeniency: 1
Mode: 1
LetterboxInBreaks: 0
WidescreenStoryboard: 0

[Editor]
DistanceSpacing: 1.5
BeatDivisor: 4
GridSize: 32
TimelineZoom: 1.9

[Metadata]
Title:The World Burning Around Me
TitleUnicode:The World Burning Around Me
Artist:Angel Vivaldi
ArtistUnicode:Angel Vivaldi
Creator:remii
Version:War
Source:
Tags:
BeatmapID:1693990
BeatmapSetID:807095

[Difficulty]
HPDrainRate:7
CircleSize:5
OverallDifficulty:6
ApproachRate:5
SliderMultiplier:1.6
SliderTickRate:1

[Events]
//Background and Video events
0,0,"The_Four_Horsemen_of_the_Apocalypse.png",0,0
//Break Periods
//Storyboard Layer 0 (Background)
//Storyboard Layer 1 (Fail)
//Storyboard Layer 2 (Pass)
//Storyboard Layer 3 (Foreground)
//Storyboard Sound Samples

[TimingPoints]
450,315.789473684211,4,2,0,100,1,0
450,-100,4,2,0,100,0,1
20660,-100,4,2,0,100,0,0
21923,-133.333333333333,4,2,0,100,0,0
41186,-166.666666666667,4,2,0,100,0,0
49871,-125,4,2,0,100,0,0
61081,-100,4,2,0,100,0,1
71186,-100,4,2,0,100,0,0
122976,-100,4,2,0,100,0,1
143186,-100,4,2,0,100,0,0

[HitObjects]
69,115,450,5,4,0:0:0:0:
124,120,607,1,0,0:0:0:0:
226,103,686,1,0,0:0:0:0:
131,23,765,1,8,0:0:0:0:
215,246,923,1,0,0:0:0:0:
200,210,1081,1,8,0:0:0:0:
96,183,1239,1,0,0:0:0:0:
154,184,1397,1,8,0:0:0:0:
90,98,1555,1,0,0:0:0:0:
238,84,1713,1,4,0:0:0:0:
95,277,1871,1,0,0:0:0:0:
160,34,1950,1,0,0:0:0:0:
225,116,2028,1,8,0:0:0:0:
85,190,2186,1,0,0:0:0:0:
70,110,2344,1,8,0:0:0:0:
180,189,2502,1,0,0:0:0:0:
68,98,2660,1,8,0:0:0:0:
121,92,2818,1,8,0:0:0:0:
116,124,2897,1,8,0:0:0:0:
133,115,2976,1,8,0:0:0:0:
66,205,3055,1,0,0:0:0:0:
192,83,3134,1,8,0:0:0:0:
177,120,3292,1,0,0:0:0:0:
100,85,3450,1,0,0:0:0:0:
163,100,3607,1,8,0:0:0:0:
38,200,3765,1,0,0:0:0:0:
53,84,3923,1,0,0:0:0:0:
87,144,4081,1,8,0:0:0:0:
254,203,4239,1,0,0:0:0:0:
141,119,4318,1,0,0:0:0:0:
130,105,4397,1,8,0:0:0:0:
71,236,4555,1,0,0:0:0:0:
149,109,4713,1,0,0:0:0:0:
63,132,4871,1,8,0:0:0:0:
207,281,5028,1,8,0:0:0:0:
138,114,5186,1,0,0:0:0:0:
123,193,5344,1,0,0:0:0:0:
83,76,5502,1,0,0:0:0:0:
409,167,5581,1,0,0:0:0:0:
245,220,5660,1,8,0:0:0:0:
398,107,5818,1,0,0:0:0:0:
74,184,5897,1,0,0:0:0:0:
261,55,5976,1,8,0:0:0:0:
103,99,6134,1,0,0:0:0:0:
11,115,6292,1,0,0:0:0:0:
122,62,6450,1,8,0:0:0:0:
167,260,6607,1,0,0:0:0:0:
160,166,6765,1,0,0:0:0:0:
195,141,6844,1,0,0:0:0:0:
178,140,6923,1,8,0:0:0:0:
103,61,7081,1,0,0:0:0:0:
77,98,7239,1,8,0:0:0:0:
229,53,7397,1,0,0:0:0:0:
41,188,7555,1,8,0:0:0:0:
216,153,7634,1,8,0:0:0:0:
144,65,7713,1,0,0:0:0:0:
91,62,7792,1,0,0:0:0:0:
169,104,7871,1,8,0:0:0:0:
105,162,8028,1,0,0:0:0:0:
56,144,8107,1,0,0:0:0:0:
121,63,8186,1,8,0:0:0:0:
176,52,8344,1,0,0:0:0:0:
183,205,8502,1,8,0:0:0:0:
127,132,8660,1,8,0:0:0:0:
185,140,8739,1,0,0:0:0:0:
63,199,8818,1,8,0:0:0:0:
176,30,8976,1,8,0:0:0:0:
87,46,9055,1,8,0:0:0:0:
114,137,9134,1,8,0:0:0:0:
129,78,9213,1,8,0:0:0:0:
3,155,9292,1,0,0:0:0:0:
98,88,9371,1,0,0:0:0:0:
117,128,9450,1,0,0:0:0:0:
131,96,9528,1,0,0:0:0:0:
98,88,9607,1,8,0:0:0:0:
117,128,9686,1,8,0:0:0:0:
131,96,9764,1,0,0:0:0:0:
98,88,9844,1,0,0:0:0:0:
117,128,9923,1,12,0:0:0:0:
69,92,10081,1,12,0:0:0:0:
54,175,10239,1,12,0:0:0:0:
104,47,10397,1,12,0:0:0:0:
165,33,10555,1,8,0:0:0:0:
192,96,10634,1,0,0:0:0:0:
96,128,10713,1,0,0:0:0:0:
128,192,10871,1,0,0:0:0:0:
32,96,11028,1,0,0:0:0:0:
160,96,11107,1,0,0:0:0:0:
128,32,11186,1,8,0:0:0:0:
0,192,11344,1,0,0:0:0:0:
192,96,11502,1,8,0:0:0:0:
128,192,11581,1,8,0:0:0:0:
96,96,11660,1,0,0:0:0:0:
64,96,11739,1,0,0:0:0:0:
192,64,11818,1,8,0:0:0:0:
160,0,11897,1,0,0:0:0:0:
128,96,11976,1,8,0:0:0:0:
224,160,12055,1,8,0:0:0:0:
64,128,12134,1,0,0:0:0:0:
64,288,12292,1,0,0:0:0:0:
128,32,12371,1,0,0:0:0:0:
192,64,12450,1,8,0:0:0:0:
96,160,12607,1,0,0:0:0:0:
0,96,12765,1,0,0:0:0:0:
160,96,12923,1,0,0:0:0:0:
96,192,13081,1,8,0:0:0:0:
96,64,13160,1,8,0:0:0:0:
96,64,13239,1,8,0:0:0:0:
96,96,13318,1,0,0:0:0:0:
64,128,13397,1,8,0:0:0:0:
128,256,13555,1,0,0:0:0:0:
320,128,13713,1,8,0:0:0:0:
128,128,13792,1,8,0:0:0:0:
96,96,13871,1,0,0:0:0:0:
160,96,14028,1,0,0:0:0:0:
192,0,14186,1,0,0:0:0:0:
64,128,14265,1,0,0:0:0:0:
32,32,14344,1,0,0:0:0:0:
96,96,14502,1,0,0:0:0:0:
32,160,14660,1,8,0:0:0:0:
128,160,14818,1,8,0:0:0:0:
32,96,14976,1,0,0:0:0:0:
96,64,15134,1,0,0:0:0:0:
32,160,15292,1,8,0:0:0:0:
0,96,15450,1,8,0:0:0:0:
128,96,15607,1,0,0:0:0:0:
32,160,15686,1,0,0:0:0:0:
96,192,15765,1,8,0:0:0:0:
192,128,15844,1,8,0:0:0:0:
288,64,15923,1,0,0:0:0:0:
96,96,16002,1,0,0:0:0:0:
128,32,16081,1,8,0:0:0:0:
160,96,16239,1,0,0:0:0:0:
64,160,16318,1,0,0:0:0:0:
64,96,16397,1,8,0:0:0:0:
128,32,16476,1,0,0:0:0:0:
160,64,16555,1,8,0:0:0:0:
32,64,16634,1,8,0:0:0:0:
64,224,16713,1,0,0:0:0:0:
64,64,16792,1,0,0:0:0:0:
64,96,16871,1,0,0:0:0:0:
128,128,16950,1,0,0:0:0:0:
192,192,17028,1,8,0:0:0:0:
64,96,17107,1,0,0:0:0:0:
160,96,17186,1,8,0:0:0:0:
96,160,17265,1,8,0:0:0:0:
64,128,17344,1,0,0:0:0:0:
32,96,17423,1,8,0:0:0:0:
128,224,17502,1,8,0:0:0:0:
96,64,17581,1,8,0:0:0:0:
96,96,17660,1,0,0:0:0:0:
128,64,17739,1,8,0:0:0:0:
192,64,17818,1,0,0:0:0:0:
96,160,17976,1,0,0:0:0:0:
96,32,18134,1,8,0:0:0:0:
0,160,18213,1,8,0:0:0:0:
64,96,18292,1,0,0:0:0:0:
128,64,18371,1,8,0:0:0:0:
192,192,18450,1,0,0:0:0:0:
128,128,18528,1,8,0:0:0:0:
192,64,18607,1,0,0:0:0:0:
160,128,18686,1,8,0:0:0:0:
96,224,18765,1,8,0:0:0:0:
64,128,18844,1,0,0:0:0:0:
128,32,18923,1,8,0:0:0:0:
32,192,19002,1,0,0:0:0:0:
64,64,19081,1,0,0:0:0:0:
288,128,19160,1,8,0:0:0:0:
224,96,19239,1,0,0:0:0:0:
96,64,19318,1,0,0:0:0:0:
0,128,19397,1,8,0:0:0:0:
96,160,19450,1,8,0:0:0:0:
128,96,19502,1,8,0:0:0:0:
128,64,19555,1,8,0:0:0:0:
128,32,19634,1,8,0:0:0:0:
160,224,19713,1,0,0:0:0:0:
64,256,19871,1,0,0:0:0:0:
96,96,20028,1,8,0:0:0:0:
224,96,20186,1,0,0:0:0:0:
32,160,20344,1,0,0:0:0:0:
96,96,20502,1,8,0:0:0:0:
96,224,20660,2,0,L|416:224,1,320
96,192,21923,1,0,0:0:0:0:
96,64,22555,1,8,0:0:0:0:
32,160,23186,1,0,0:0:0:0:
128,128,23265,1,0,0:0:0:0:
96,32,23344,1,0,0:0:0:0:
192,96,23423,1,0,0:0:0:0:
128,192,23502,1,0,0:0:0:0:
192,160,23660,1,0,0:0:0:0:
128,64,23818,1,8,0:0:0:0:
64,160,24450,1,8,0:0:0:0:
160,64,24765,1,8,0:0:0:0:
192,160,24818,1,8,0:0:0:0:
128,128,24871,1,0,0:0:0:0:
128,64,24923,1,0,0:0:0:0:
192,224,25002,1,0,0:0:0:0:
96,96,25081,1,8,0:0:0:0:
64,192,25239,1,0,0:0:0:0:
0,160,25397,1,0,0:0:0:0:
128,192,25713,1,8,0:0:0:0:
32,96,26344,1,0,0:0:0:0:
192,128,26976,1,8,0:0:0:0:
192,128,27607,1,8,0:0:0:0:
32,96,28081,1,8,0:0:0:0:
128,96,28134,1,8,0:0:0:0:
128,160,28186,1,8,0:0:0:0:
96,224,28239,1,0,0:0:0:0:
224,32,28397,1,8,0:0:0:0:
64,96,28555,1,8,0:0:0:0:
32,96,28713,1,8,0:0:0:0:
64,160,28871,1,8,0:0:0:0:
128,128,29028,1,0,0:0:0:0:
64,288,29186,1,0,0:0:0:0:
64,160,29344,1,0,0:0:0:0:
192,128,29502,1,8,0:0:0:0:
160,64,29581,1,0,0:0:0:0:
64,96,29660,1,8,0:0:0:0:
128,64,29739,1,8,0:0:0:0:
64,192,29818,1,0,0:0:0:0:
128,64,29897,1,8,0:0:0:0:
192,160,29976,1,0,0:0:0:0:
128,96,30055,1,0,0:0:0:0:
96,96,30134,1,0,0:0:0:0:
128,32,30213,1,0,0:0:0:0:
64,128,30292,1,0,0:0:0:0:
32,64,30371,1,0,0:0:0:0:
128,96,30450,1,8,0:0:0:0:
160,256,30765,1,0,0:0:0:0:
96,96,30844,1,0,0:0:0:0:
160,160,30923,1,0,0:0:0:0:
96,128,31002,1,0,0:0:0:0:
32,160,31081,1,0,0:0:0:0:
64,64,31239,1,0,0:0:0:0:
160,96,31397,1,8,0:0:0:0:
32,160,31476,1,0,0:0:0:0:
96,128,31555,1,0,0:0:0:0:
64,96,31634,1,0,0:0:0:0:
160,32,31713,1,8,0:0:0:0:
96,128,31792,1,8,0:0:0:0:
96,96,31871,1,0,0:0:0:0:
96,224,32028,1,8,0:0:0:0:
160,128,32660,1,8,0:0:0:0:
160,256,33292,1,0,0:0:0:0:
96,96,33371,1,0,0:0:0:0:
160,160,33450,1,0,0:0:0:0:
96,128,33529,1,0,0:0:0:0:
32,160,33608,1,0,0:0:0:0:
64,64,33766,1,8,0:0:0:0:
160,96,33924,1,0,0:0:0:0:
32,160,34003,1,0,0:0:0:0:
96,128,34082,1,0,0:0:0:0:
64,96,34161,1,0,0:0:0:0:
160,32,34240,1,8,0:0:0:0:
96,128,34319,1,8,0:0:0:0:
96,96,34398,1,0,0:0:0:0:
96,224,34555,1,8,0:0:0:0:
0,128,34713,1,8,0:0:0:0:
128,128,34792,1,8,0:0:0:0:
128,32,34871,1,8,0:0:0:0:
224,96,34950,1,8,0:0:0:0:
32,128,35028,1,0,0:0:0:0:
96,32,35107,1,0,0:0:0:0:
160,32,35186,1,8,0:0:0:0:
96,96,35265,1,0,0:0:0:0:
128,96,35344,1,8,0:0:0:0:
96,64,35423,1,8,0:0:0:0:
64,160,35502,1,0,0:0:0:0:
128,32,35581,1,0,0:0:0:0:
96,64,35660,1,0,0:0:0:0:
96,64,35739,1,0,0:0:0:0:
128,64,35818,1,8,0:0:0:0:
64,192,35897,1,8,0:0:0:0:
32,96,35976,1,0,0:0:0:0:
64,64,36055,1,0,0:0:0:0:
128,96,36134,1,0,0:0:0:0:
160,128,36292,1,0,0:0:0:0:
192,64,36450,1,8,0:0:0:0:
64,96,36528,1,0,0:0:0:0:
96,64,36607,1,0,0:0:0:0:
128,64,36686,1,0,0:0:0:0:
192,64,36765,1,8,0:0:0:0:
96,192,36844,1,8,0:0:0:0:
32,96,36923,1,0,0:0:0:0:
96,128,37081,1,8,0:0:0:0:
128,64,37555,1,0,0:0:0:0:
64,160,38028,1,8,0:0:0:0:
96,64,38344,1,0,0:0:0:0:
128,160,38818,1,8,0:0:0:0:
32,96,39292,1,8,0:0:0:0:
96,160,39607,1,0,0:0:0:0:
64,96,39765,1,0,0:0:0:0:
128,32,39923,1,8,0:0:0:0:
96,96,40081,1,0,0:0:0:0:
64,96,40239,1,0,0:0:0:0:
192,128,40397,1,8,0:0:0:0:
96,128,40555,1,0,0:0:0:0:
32,128,40713,1,0,0:0:0:0:
128,64,40871,1,12,0:0:0:0:
96,64,41186,1,0,0:0:0:0:
64,160,41344,1,0,0:0:0:0:
32,96,41660,1,0,0:0:0:0:
64,128,41818,1,8,0:0:0:0:
192,160,42134,1,8,0:0:0:0:
64,160,42450,1,0,0:0:0:0:
64,96,42607,1,0,0:0:0:0:
96,64,42660,1,0,0:0:0:0:
64,64,42713,1,0,0:0:0:0:
64,64,42765,1,8,0:0:0:0:
64,128,43397,1,0,0:0:0:0:
96,128,43713,1,0,0:0:0:0:
64,192,43871,1,8,0:0:0:0:
96,128,44344,1,0,0:0:0:0:
64,128,44660,1,8,0:0:0:0:
256,192,45292,1,0,0:0:0:0:
128,192,45607,1,8,0:0:0:0:
64,96,45765,1,8,0:0:0:0:
96,96,45923,1,4,0:0:0:0:
0,160,46239,1,8,0:0:0:0:
160,64,46397,1,0,0:0:0:0:
96,224,46713,1,0,0:0:0:0:
96,96,46871,1,0,0:0:0:0:
128,192,47186,1,0,0:0:0:0:
32,96,47660,1,0,0:0:0:0:
0,96,47713,1,0,0:0:0:0:
96,160,47765,1,0,0:0:0:0:
96,32,47818,1,8,0:0:0:0:
160,128,48134,1,0,0:0:0:0:
128,64,48292,1,0,0:0:0:0:
32,128,48450,1,8,0:0:0:0:
96,96,48607,1,0,0:0:0:0:
128,128,48765,1,8,0:0:0:0:
96,128,48923,1,0,0:0:0:0:
224,96,49081,1,0,0:0:0:0:
288,0,49239,1,8,0:0:0:0:
160,192,49397,1,0,0:0:0:0:
160,32,49555,1,8,0:0:0:0:
32,128,49607,1,8,0:0:0:0:
64,64,49660,1,8,0:0:0:0:
32,128,49713,1,8,0:0:0:0:
160,96,49871,1,0,0:0:0:0:
96,192,50028,1,0,0:0:0:0:
160,64,50186,1,8,0:0:0:0:
96,192,50344,1,0,0:0:0:0:
96,128,50502,1,0,0:0:0:0:
128,128,50660,1,0,0:0:0:0:
0,96,50818,1,0,0:0:0:0:
32,96,50976,1,4,0:0:0:0:
96,160,51450,1,8,0:0:0:0:
128,96,51607,1,8,0:0:0:0:
192,288,51765,1,0,0:0:0:0:
192,64,51923,1,0,0:0:0:0:
160,128,52239,1,8,0:0:0:0:
96,96,52713,1,0,0:0:0:0:
96,128,52765,1,0,0:0:0:0:
32,128,52818,1,0,0:0:0:0:
160,32,52871,1,8,0:0:0:0:
224,224,53186,1,0,0:0:0:0:
64,160,53502,1,8,0:0:0:0:
128,96,53660,1,0,0:0:0:0:
160,128,53976,1,0,0:0:0:0:
32,128,54292,1,0,0:0:0:0:
64,96,54450,1,0,0:0:0:0:
96,192,54765,1,0,0:0:0:0:
160,96,55081,1,0,0:0:0:0:
96,96,55134,1,0,0:0:0:0:
64,64,55186,1,0,0:0:0:0:
32,64,55239,1,8,0:0:0:0:
96,160,55318,1,8,0:0:0:0:
128,96,55397,1,0,0:0:0:0:
128,64,55555,1,0,0:0:0:0:
192,96,55713,1,0,0:0:0:0:
96,128,55871,1,0,0:0:0:0:
32,128,56028,1,12,0:0:0:0:
192,128,56344,1,8,0:0:0:0:
32,128,56502,1,8,0:0:0:0:
192,192,56818,1,0,0:0:0:0:
128,96,56976,1,0,0:0:0:0:
0,160,57292,1,8,0:0:0:0:
160,96,57607,1,0,0:0:0:0:
96,96,57765,1,8,0:0:0:0:
64,192,57923,1,0,0:0:0:0:
96,160,58239,1,0,0:0:0:0:
160,192,58555,1,12,0:0:0:0:
160,96,58871,1,0,0:0:0:0:
32,160,59028,1,0,0:0:0:0:
128,32,59344,1,8,0:0:0:0:
96,128,59502,1,0,0:0:0:0:
64,160,59818,1,0,0:0:0:0:
128,128,60134,1,0,0:0:0:0:
96,128,60186,1,0,0:0:0:0:
128,128,60239,1,0,0:0:0:0:
128,64,60292,1,8,0:0:0:0:
256,160,60450,1,8,0:0:0:0:
128,96,60607,1,0,0:0:0:0:
128,96,60765,1,0,0:0:0:0:
96,96,61081,5,8,0:0:0:0:
96,160,61134,1,8,0:0:0:0:
128,64,61186,1,8,0:0:0:0:
192,96,61239,1,0,0:0:0:0:
64,128,61318,1,8,0:0:0:0:
128,64,61397,1,0,0:0:0:0:
128,192,61555,1,0,0:0:0:0:
224,96,61634,1,0,0:0:0:0:
192,32,61713,1,8,0:0:0:0:
96,160,61871,1,0,0:0:0:0:
288,32,62028,1,8,0:0:0:0:
96,256,62186,1,0,0:0:0:0:
128,320,62344,1,8,0:0:0:0:
128,64,62397,1,8,0:0:0:0:
64,96,62450,1,8,0:0:0:0:
192,32,62502,1,0,0:0:0:0:
192,160,62581,1,8,0:0:0:0:
96,160,62660,1,0,0:0:0:0:
96,288,62739,1,0,0:0:0:0:
64,160,62818,1,0,0:0:0:0:
64,96,62897,1,0,0:0:0:0:
160,64,62976,1,8,0:0:0:0:
192,192,63134,1,0,0:0:0:0:
96,224,63292,1,8,0:0:0:0:
128,96,63450,1,0,0:0:0:0:
0,128,63607,1,8,0:0:0:0:
64,96,63660,1,8,0:0:0:0:
128,32,63713,1,8,0:0:0:0:
160,0,63765,1,0,0:0:0:0:
256,160,63844,1,8,0:0:0:0:
192,192,63923,1,0,0:0:0:0:
32,128,64002,1,0,0:0:0:0:
192,96,64081,1,8,0:0:0:0:
96,128,64160,1,0,0:0:0:0:
128,64,64239,1,8,0:0:0:0:
128,128,64292,1,0,0:0:0:0:
160,32,64344,1,0,0:0:0:0:
64,320,64397,1,8,0:0:0:0:
256,224,64476,1,0,0:0:0:0:
96,96,64555,1,8,0:0:0:0:
160,128,64607,1,8,0:0:0:0:
32,160,64660,1,8,0:0:0:0:
128,64,64713,1,0,0:0:0:0:
192,64,64765,1,0,0:0:0:0:
160,96,64818,1,0,0:0:0:0:
96,64,64871,1,8,0:0:0:0:
96,288,64950,1,0,0:0:0:0:
160,192,65028,1,0,0:0:0:0:
192,128,65081,1,0,0:0:0:0:
96,128,65134,1,0,0:0:0:0:
160,192,65186,1,8,0:0:0:0:
96,64,65239,1,0,0:0:0:0:
64,224,65292,1,0,0:0:0:0:
96,192,65344,1,8,0:0:0:0:
384,128,65423,1,0,0:0:0:0:
64,64,65502,1,0,0:0:0:0:
96,96,65581,1,0,0:0:0:0:
160,64,65660,1,0,0:0:0:0:
32,128,65739,1,0,0:0:0:0:
160,128,65818,1,8,0:0:0:0:
96,224,65897,1,8,0:0:0:0:
128,128,65976,1,8,0:0:0:0:
192,64,66055,1,8,0:0:0:0:
256,224,66134,1,0,0:0:0:0:
239,2,66213,1,8,0:0:0:0:
247,73,66292,1,8,0:0:0:0:
286,88,66371,1,0,0:0:0:0:
225,173,66450,1,0,0:0:0:0:
48,125,66528,1,0,0:0:0:0:
136,91,66607,1,0,0:0:0:0:
168,78,66686,1,0,0:0:0:0:
156,73,66765,1,8,0:0:0:0:
133,210,67397,1,0,0:0:0:0:
134,141,67476,1,0,0:0:0:0:
227,56,67555,1,0,0:0:0:0:
326,48,67634,1,0,0:0:0:0:
192,68,67713,1,8,0:0:0:0:
233,63,67792,1,8,0:0:0:0:
258,98,67871,1,0,0:0:0:0:
74,73,67950,1,0,0:0:0:0:
184,134,68028,1,8,0:0:0:0:
117,171,68660,1,8,0:0:0:0:
133,210,68739,1,8,0:0:0:0:
134,141,68818,1,8,0:0:0:0:
227,56,68897,1,8,0:0:0:0:
326,48,68976,1,0,0:0:0:0:
192,68,69055,1,0,0:0:0:0:
233,63,69134,1,8,0:0:0:0:
258,98,69213,1,8,0:0:0:0:
74,73,69292,1,0,0:0:0:0:
165,195,69450,1,8,0:0:0:0:
98,114,69607,1,0,0:0:0:0:
161,277,69765,1,0,0:0:0:0:
165,86,69923,1,8,0:0:0:0:
296,203,70002,1,8,0:0:0:0:
130,65,70081,1,0,0:0:0:0:
310,128,70160,1,0,0:0:0:0:
62,141,70239,1,8,0:0:0:0:
78,54,70318,1,0,0:0:0:0:
138,79,70397,1,8,0:0:0:0:
137,173,70476,1,0,0:0:0:0:
286,53,70555,1,0,0:0:0:0:
197,58,70634,1,8,0:0:0:0:
165,30,70713,1,0,0:0:0:0:
208,70,70792,1,8,0:0:0:0:
122,35,70871,1,8,0:0:0:0:
110,162,70950,1,0,0:0:0:0:
180,93,71028,1,8,0:0:0:0:
84,91,71081,1,8,0:0:0:0:
215,67,71134,1,8,0:0:0:0:
213,18,71186,1,0,0:0:0:0:
247,247,71344,1,0,0:0:0:0:
254,152,71502,1,0,0:0:0:0:
196,138,71660,1,8,0:0:0:0:
116,107,71739,1,0,0:0:0:0:
110,83,71818,1,0,0:0:0:0:
115,150,71976,1,0,0:0:0:0:
138,103,72134,1,0,0:0:0:0:
190,197,72292,1,0,0:0:0:0:
64,180,72450,1,8,0:0:0:0:
151,13,72607,1,0,0:0:0:0:
254,115,72686,1,0,0:0:0:0:
189,114,72765,1,8,0:0:0:0:
283,141,72923,1,0,0:0:0:0:
98,112,73081,1,0,0:0:0:0:
228,106,73239,1,8,0:0:0:0:
101,188,73397,1,8,0:0:0:0:
93,139,73555,1,0,0:0:0:0:
181,108,73634,1,8,0:0:0:0:
91,109,73713,1,8,0:0:0:0:
145,61,73792,1,8,0:0:0:0:
213,56,73871,1,0,0:0:0:0:
301,213,74028,1,0,0:0:0:0:
241,116,74186,1,0,0:0:0:0:
108,176,74344,1,8,0:0:0:0:
116,138,74502,1,8,0:0:0:0:
146,114,74660,1,0,0:0:0:0:
133,112,74818,1,0,0:0:0:0:
75,163,74976,1,8,0:0:0:0:
295,55,75055,1,8,0:0:0:0:
178,95,75134,1,0,0:0:0:0:
173,19,75213,1,0,0:0:0:0:
173,80,75292,1,8,0:0:0:0:
99,110,75371,1,8,0:0:0:0:
112,63,75450,1,8,0:0:0:0:
170,61,75528,1,8,0:0:0:0:
202,195,75607,1,0,0:0:0:0:
108,116,75765,1,0,0:0:0:0:
167,43,75923,1,0,0:0:0:0:
101,222,76081,1,0,0:0:0:0:
229,98,76134,1,0,0:0:0:0:
132,133,76186,1,0,0:0:0:0:
140,52,76239,1,8,0:0:0:0:
303,24,76397,1,0,0:0:0:0:
85,250,76555,1,8,0:0:0:0:
71,145,76634,1,0,0:0:0:0:
127,74,76713,1,0,0:0:0:0:
139,59,76792,1,0,0:0:0:0:
201,66,76871,1,8,0:0:0:0:
135,158,77028,1,8,0:0:0:0:
124,39,77186,1,8,0:0:0:0:
143,178,77344,1,0,0:0:0:0:
268,114,77397,1,8,0:0:0:0:
197,74,77450,1,8,0:0:0:0:
229,16,77502,1,8,0:0:0:0:
72,185,77660,1,0,0:0:0:0:
111,77,77818,1,0,0:0:0:0:
155,82,77897,1,8,0:0:0:0:
126,96,77976,1,8,0:0:0:0:
192,63,78055,1,8,0:0:0:0:
124,39,78134,1,0,0:0:0:0:
203,222,78292,1,0,0:0:0:0:
177,207,78450,1,8,0:0:0:0:
160,171,78528,1,8,0:0:0:0:
120,85,78607,1,0,0:0:0:0:
267,54,78686,1,0,0:0:0:0:
195,94,78765,1,8,0:0:0:0:
104,120,78923,1,0,0:0:0:0:
73,281,79081,1,8,0:0:0:0:
35,156,79239,1,0,0:0:0:0:
56,69,79318,1,0,0:0:0:0:
248,81,79397,1,8,0:0:0:0:
193,166,79555,1,0,0:0:0:0:
100,110,79713,1,0,0:0:0:0:
84,57,79871,1,8,0:0:0:0:
264,49,79950,1,0,0:0:0:0:
175,84,80028,1,0,0:0:0:0:
164,281,80186,1,0,0:0:0:0:
218,189,80344,1,0,0:0:0:0:
118,31,80502,1,8,0:0:0:0:
151,49,80555,1,8,0:0:0:0:
182,38,80607,1,8,0:0:0:0:
243,60,80660,1,0,0:0:0:0:
55,121,80713,1,0,0:0:0:0:
158,130,80765,1,0,0:0:0:0:
250,21,80818,1,8,0:0:0:0:
237,124,80976,1,8,0:0:0:0:
144,210,81134,1,8,0:0:0:0:
169,83,81292,1,0,0:0:0:0:
31,121,81450,1,8,0:0:0:0:
102,107,81607,1,0,0:0:0:0:
338,103,81686,1,0,0:0:0:0:
129,83,81765,1,0,0:0:0:0:
151,158,81923,1,0,0:0:0:0:
218,99,82081,1,8,0:0:0:0:
247,99,82239,1,0,0:0:0:0:
141,144,82397,1,0,0:0:0:0:
120,91,82555,1,0,0:0:0:0:
82,200,82634,1,0,0:0:0:0:
171,50,82713,1,0,0:0:0:0:
131,80,82792,1,0,0:0:0:0:
101,85,82871,1,0,0:0:0:0:
124,144,83028,1,0,0:0:0:0:
210,45,83186,1,0,0:0:0:0:
274,222,83344,1,8,0:0:0:0:
125,190,83502,1,0,0:0:0:0:
139,144,83660,1,8,0:0:0:0:
223,146,83818,1,8,0:0:0:0:
208,23,83897,1,0,0:0:0:0:
263,103,83976,1,0,0:0:0:0:
109,47,84055,1,0,0:0:0:0:
185,94,84134,1,0,0:0:0:0:
173,215,84450,1,8,0:0:0:0:
142,92,85081,1,0,0:0:0:0:
191,53,85160,1,0,0:0:0:0:
210,35,85239,1,0,0:0:0:0:
204,66,85318,1,0,0:0:0:0:
174,118,85397,1,0,0:0:0:0:
145,253,85555,1,0,0:0:0:0:
72,154,85713,1,0,0:0:0:0:
179,85,85871,1,8,0:0:0:0:
143,39,86028,1,0,0:0:0:0:
187,41,86186,1,8,0:0:0:0:
148,157,86344,1,0,0:0:0:0:
180,248,86423,1,0,0:0:0:0:
42,68,86502,1,0,0:0:0:0:
141,84,86581,1,0,0:0:0:0:
168,12,86660,1,8,0:0:0:0:
14,163,86739,1,8,0:0:0:0:
250,129,86818,1,0,0:0:0:0:
268,13,86871,1,0,0:0:0:0:
198,10,86923,1,0,0:0:0:0:
237,71,86976,1,8,0:0:0:0:
110,200,87134,1,8,0:0:0:0:
177,59,87292,1,0,0:0:0:0:
78,131,87450,1,0,0:0:0:0:
166,72,87607,1,8,0:0:0:0:
221,120,87686,1,8,0:0:0:0:
260,128,87765,1,8,0:0:0:0:
133,96,87923,1,8,0:0:0:0:
172,190,88081,1,0,0:0:0:0:
219,147,88239,1,8,0:0:0:0:
116,173,88871,1,0,0:0:0:0:
243,133,89502,1,8,0:0:0:0:
128,191,90134,1,0,0:0:0:0:
62,125,90213,1,0,0:0:0:0:
136,53,90292,1,0,0:0:0:0:
216,80,90450,1,0,0:0:0:0:
170,97,90607,1,0,0:0:0:0:
218,121,90765,1,8,0:0:0:0:
101,219,90923,1,0,0:0:0:0:
188,95,91081,1,0,0:0:0:0:
138,158,91239,1,0,0:0:0:0:
246,150,91397,1,8,0:0:0:0:
169,127,91476,1,8,0:0:0:0:
231,32,91555,1,8,0:0:0:0:
123,64,91634,1,8,0:0:0:0:
141,253,91713,1,0,0:0:0:0:
119,89,91765,1,0,0:0:0:0:
138,45,91818,1,0,0:0:0:0:
193,80,91871,1,8,0:0:0:0:
136,102,91950,1,8,0:0:0:0:
141,76,92028,1,0,0:0:0:0:
151,57,92107,1,8,0:0:0:0:
106,124,92186,1,8,0:0:0:0:
144,35,92265,1,0,0:0:0:0:
165,35,92344,1,0,0:0:0:0:
191,8,92397,1,0,0:0:0:0:
29,103,92450,1,0,0:0:0:0:
245,32,92502,1,8,0:0:0:0:
271,254,92660,1,8,0:0:0:0:
120,166,92739,1,8,0:0:0:0:
174,142,92818,1,8,0:0:0:0:
234,107,92897,1,0,0:0:0:0:
233,126,92976,1,8,0:0:0:0:
162,120,93134,1,0,0:0:0:0:
41,157,93292,1,0,0:0:0:0:
164,35,93450,1,8,0:0:0:0:
100,99,93607,1,0,0:0:0:0:
153,81,93686,1,0,0:0:0:0:
104,40,93765,1,0,0:0:0:0:
176,24,93844,1,0,0:0:0:0:
253,87,93923,1,8,0:0:0:0:
182,194,94081,1,8,0:0:0:0:
337,102,94239,1,0,0:0:0:0:
90,136,94397,1,0,0:0:0:0:
144,138,94555,1,8,0:0:0:0:
204,135,94713,1,8,0:0:0:0:
207,36,94871,1,0,0:0:0:0:
94,173,95028,1,0,0:0:0:0:
145,87,95186,1,8,0:0:0:0:
149,67,95265,1,8,0:0:0:0:
192,38,95344,1,8,0:0:0:0:
120,55,95423,1,8,0:0:0:0:
196,42,95502,1,0,0:0:0:0:
182,161,95660,1,0,0:0:0:0:
72,42,95818,1,0,0:0:0:0:
225,153,95897,1,0,0:0:0:0:
154,98,95976,1,0,0:0:0:0:
202,82,96055,1,0,0:0:0:0:
169,50,96134,1,8,0:0:0:0:
157,141,96213,1,8,0:0:0:0:
141,34,96292,1,0,0:0:0:0:
158,68,96344,1,8,0:0:0:0:
188,34,96397,1,8,0:0:0:0:
111,54,96450,1,8,0:0:0:0:
3,143,96607,1,0,0:0:0:0:
127,142,96765,1,0,0:0:0:0:
90,220,96923,1,8,0:0:0:0:
220,24,97002,1,0,0:0:0:0:
159,35,97081,1,8,0:0:0:0:
138,100,97160,1,0,0:0:0:0:
96,162,97239,1,8,0:0:0:0:
249,66,97318,1,0,0:0:0:0:
134,57,97397,1,0,0:0:0:0:
73,61,97476,1,0,0:0:0:0:
211,1,97555,1,8,0:0:0:0:
208,97,97634,1,0,0:0:0:0:
147,63,97713,1,8,0:0:0:0:
18,221,97818,1,0,0:0:0:0:
88,179,97923,1,0,0:0:0:0:
108,65,98028,1,8,0:0:0:0:
156,62,98134,1,0,0:0:0:0:
224,68,98239,1,0,0:0:0:0:
204,70,98344,1,8,0:0:0:0:
239,74,98450,1,0,0:0:0:0:
129,134,98555,1,0,0:0:0:0:
142,62,98660,1,8,0:0:0:0:
160,124,98765,1,0,0:0:0:0:
53,99,98871,1,0,0:0:0:0:
158,93,98976,1,8,0:0:0:0:
86,13,99081,1,0,0:0:0:0:
176,68,99186,1,0,0:0:0:0:
76,134,99292,1,8,0:0:0:0:
141,16,99450,1,0,0:0:0:0:
141,116,99607,1,8,0:0:0:0:
146,57,99660,1,8,0:0:0:0:
141,64,99713,1,8,0:0:0:0:
265,72,99765,1,0,0:0:0:0:
104,129,99818,1,8,0:0:0:0:
299,139,100239,1,0,0:0:0:0:
210,257,100318,1,0,0:0:0:0:
209,140,100397,1,0,0:0:0:0:
147,156,100476,1,0,0:0:0:0:
240,54,100555,1,8,0:0:0:0:
181,74,100634,1,8,0:0:0:0:
153,98,100713,1,8,0:0:0:0:
231,43,100792,1,8,0:0:0:0:
172,72,100871,1,0,0:0:0:0:
74,137,100923,1,0,0:0:0:0:
100,39,100976,1,0,0:0:0:0:
172,13,101028,1,8,0:0:0:0:
108,20,101081,1,0,0:0:0:0:
185,59,101134,1,0,0:0:0:0:
73,102,101186,1,8,0:0:0:0:
167,118,101239,1,0,0:0:0:0:
184,100,101292,1,8,0:0:0:0:
149,194,101344,1,0,0:0:0:0:
181,107,101397,1,0,0:0:0:0:
223,122,101450,1,0,0:0:0:0:
173,24,101502,1,8,0:0:0:0:
80,66,101660,1,0,0:0:0:0:
349,93,101818,1,8,0:0:0:0:
244,38,101976,1,0,0:0:0:0:
176,79,102134,1,0,0:0:0:0:
151,157,102292,1,0,0:0:0:0:
147,70,102450,1,8,0:0:0:0:
168,122,102765,1,4,0:0:0:0:
228,98,103239,1,8,0:0:0:0:
195,143,103555,1,0,0:0:0:0:
135,89,103713,1,0,0:0:0:0:
146,101,104028,1,8,0:0:0:0:
197,144,104502,1,0,0:0:0:0:
149,35,104555,1,0,0:0:0:0:
153,40,104607,1,0,0:0:0:0:
268,74,104660,1,8,0:0:0:0:
76,133,104976,1,0,0:0:0:0:
246,210,105292,1,4,0:0:0:0:
225,121,105765,1,8,0:0:0:0:
97,168,106081,1,0,0:0:0:0:
66,59,106239,1,0,0:0:0:0:
233,94,106555,1,0,0:0:0:0:
85,84,106713,1,0,0:0:0:0:
149,68,106871,1,0,0:0:0:0:
225,126,107028,1,8,0:0:0:0:
48,212,107186,1,0,0:0:0:0:
202,149,107344,1,0,0:0:0:0:
243,18,107502,1,8,0:0:0:0:
212,159,107660,1,8,0:0:0:0:
53,136,107818,1,4,0:0:0:0:
341,141,108292,1,8,0:0:0:0:
80,133,108607,1,0,0:0:0:0:
155,97,108765,1,0,0:0:0:0:
224,135,109081,1,0,0:0:0:0:
106,108,109555,1,0,0:0:0:0:
97,101,109607,1,0,0:0:0:0:
178,25,109660,1,0,0:0:0:0:
244,45,109713,1,8,0:0:0:0:
152,195,109871,1,0,0:0:0:0:
186,46,110028,1,0,0:0:0:0:
164,217,110186,1,8,0:0:0:0:
129,85,110239,1,8,0:0:0:0:
137,65,110292,1,8,0:0:0:0:
152,123,110344,1,0,0:0:0:0:
188,67,110502,1,0,0:0:0:0:
122,92,110660,1,0,0:0:0:0:
105,59,110818,1,8,0:0:0:0:
222,88,110976,1,0,0:0:0:0:
138,219,111134,1,0,0:0:0:0:
104,146,111292,1,0,0:0:0:0:
133,50,111344,1,0,0:0:0:0:
149,51,111397,1,0,0:0:0:0:
139,22,111450,1,8,0:0:0:0:
268,112,111528,1,8,0:0:0:0:
236,19,111607,1,8,0:0:0:0:
275,99,111686,1,8,0:0:0:0:
181,54,111765,1,0,0:0:0:0:
149,158,111923,1,0,0:0:0:0:
157,86,112081,1,0,0:0:0:0:
34,86,112239,1,8,0:0:0:0:
178,68,112397,1,0,0:0:0:0:
185,205,112555,1,8,0:0:0:0:
196,153,112871,1,4,0:0:0:0:
183,184,113344,1,8,0:0:0:0:
171,63,113660,1,0,0:0:0:0:
203,49,113818,1,0,0:0:0:0:
144,173,114134,1,0,0:0:0:0:
115,58,114450,1,0,0:0:0:0:
224,55,114502,1,0,0:0:0:0:
211,30,114555,1,0,0:0:0:0:
165,53,114607,1,8,0:0:0:0:
106,153,114686,1,8,0:0:0:0:
165,61,114765,1,0,0:0:0:0:
160,37,114923,1,0,0:0:0:0:
149,35,115081,1,0,0:0:0:0:
122,141,115160,1,0,0:0:0:0:
96,48,115239,1,0,0:0:0:0:
168,72,115397,1,0,0:0:0:0:
214,173,115555,1,0,0:0:0:0:
109,46,115713,1,8,0:0:0:0:
139,38,115871,1,0,0:0:0:0:
98,149,116028,1,8,0:0:0:0:
138,97,116107,1,0,0:0:0:0:
206,72,116186,1,0,0:0:0:0:
57,73,116344,1,0,0:0:0:0:
198,155,116660,1,8,0:0:0:0:
341,80,116739,1,0,0:0:0:0:
189,82,116818,1,8,0:0:0:0:
189,36,116897,1,0,0:0:0:0:
159,30,116976,1,8,0:0:0:0:
126,151,117055,1,0,0:0:0:0:
120,61,117134,1,8,0:0:0:0:
169,99,117292,1,0,0:0:0:0:
151,32,117450,1,0,0:0:0:0:
84,104,117607,1,8,0:0:0:0:
152,45,117765,1,0,0:0:0:0:
174,148,117818,1,0,0:0:0:0:
168,93,117871,1,0,0:0:0:0:
256,38,117923,1,8,0:0:0:0:
159,138,118239,1,0,0:0:0:0:
188,25,118397,1,8,0:0:0:0:
112,157,118713,1,0,0:0:0:0:
170,43,118871,1,0,0:0:0:0:
196,135,119186,1,8,0:0:0:0:
165,108,119660,1,0,0:0:0:0:
43,76,119713,1,0,0:0:0:0:
211,40,119765,1,0,0:0:0:0:
82,99,119818,1,8,0:0:0:0:
128,31,120134,1,8,0:0:0:0:
143,56,120186,1,8,0:0:0:0:
195,52,120239,1,8,0:0:0:0:
235,234,120292,1,0,0:0:0:0:
52,32,120344,1,0,0:0:0:0:
129,47,120397,1,0,0:0:0:0:
118,140,120450,1,8,0:0:0:0:
150,86,120923,1,0,0:0:0:0:
98,76,121239,1,0,0:0:0:0:
111,39,121397,1,0,0:0:0:0:
212,108,121555,1,8,0:0:0:0:
180,16,121607,1,8,0:0:0:0:
173,47,121660,1,8,0:0:0:0:
170,15,121713,1,0,0:0:0:0:
135,152,121871,1,0,0:0:0:0:
232,88,122028,1,0,0:0:0:0:
126,52,122186,1,0,0:0:0:0:
185,107,122344,1,8,0:0:0:0:
139,129,122502,1,0,0:0:0:0:
97,63,122660,1,8,0:0:0:0:
218,80,122976,1,8,0:0:0:0:
251,29,123028,1,0,0:0:0:0:
213,48,123081,1,0,0:0:0:0:
200,72,123134,1,8,0:0:0:0:
297,36,123213,1,0,0:0:0:0:
187,13,123292,1,8,0:0:0:0:
301,170,123450,1,0,0:0:0:0:
214,105,123607,1,0,0:0:0:0:
143,68,123686,1,0,0:0:0:0:
119,60,123765,1,8,0:0:0:0:
190,49,123844,1,0,0:0:0:0:
167,79,123923,1,8,0:0:0:0:
110,210,124081,1,0,0:0:0:0:
101,139,124239,1,8,0:0:0:0:
190,57,124292,1,0,0:0:0:0:
157,25,124344,1,0,0:0:0:0:
148,23,124397,1,8,0:0:0:0:
146,34,124476,1,0,0:0:0:0:
218,21,124555,1,8,0:0:0:0:
250,228,124634,1,0,0:0:0:0:
154,0,124713,1,0,0:0:0:0:
144,32,124792,1,0,0:0:0:0:
165,98,124871,1,8,0:0:0:0:
132,173,125028,1,0,0:0:0:0:
133,144,125186,1,8,0:0:0:0:
57,117,125265,1,8,0:0:0:0:
171,66,125344,1,0,0:0:0:0:
256,99,125502,1,8,0:0:0:0:
298,123,125555,1,0,0:0:0:0:
213,50,125607,1,0,0:0:0:0:
147,71,125660,1,8,0:0:0:0:
230,78,125739,1,0,0:0:0:0:
103,242,125818,1,8,0:0:0:0:
134,160,125897,1,0,0:0:0:0:
143,168,125976,1,0,0:0:0:0:
165,113,126055,1,0,0:0:0:0:
179,54,126134,1,8,0:0:0:0:
81,138,126186,1,0,0:0:0:0:
109,51,126239,1,0,0:0:0:0:
55,78,126292,1,8,0:0:0:0:
85,69,126371,1,0,0:0:0:0:
141,76,126450,1,8,0:0:0:0:
142,93,126502,1,8,0:0:0:0:
152,79,126555,1,8,0:0:0:0:
136,34,126607,1,0,0:0:0:0:
230,153,126686,1,0,0:0:0:0:
19,202,126765,1,8,0:0:0:0:
236,100,126818,1,8,0:0:0:0:
113,83,126871,1,8,0:0:0:0:
162,102,126923,1,0,0:0:0:0:
239,169,127002,1,0,0:0:0:0:
48,178,127081,1,8,0:0:0:0:
140,93,127134,1,8,0:0:0:0:
98,74,127186,1,8,0:0:0:0:
86,45,127239,1,0,0:0:0:0:
214,47,127292,1,8,0:0:0:0:
156,66,127344,1,8,0:0:0:0:
124,86,127397,1,0,0:0:0:0:
243,183,127476,1,0,0:0:0:0:
158,71,127555,1,8,0:0:0:0:
110,229,127634,1,8,0:0:0:0:
130,131,127713,1,8,0:0:0:0:
231,127,127792,1,8,0:0:0:0:
178,277,127871,1,0,0:0:0:0:
181,101,127950,1,0,0:0:0:0:
91,102,128028,1,8,0:0:0:0:
293,57,128081,1,0,0:0:0:0:
191,222,128134,1,0,0:0:0:0:
217,55,128186,1,8,0:0:0:0:
247,41,128344,1,8,0:0:0:0:
143,149,128502,1,0,0:0:0:0:
159,41,128660,1,8,0:0:0:0:
99,130,128713,1,0,0:0:0:0:
91,102,128765,1,0,0:0:0:0:
149,70,128818,1,8,0:0:0:0:
231,173,128897,1,8,0:0:0:0:
212,91,128976,1,0,0:0:0:0:
193,181,129134,1,0,0:0:0:0:
224,130,129292,1,0,0:0:0:0:
163,77,129344,1,8,0:0:0:0:
179,45,129397,1,8,0:0:0:0:
164,73,129450,1,0,0:0:0:0:
170,115,129528,1,8,0:0:0:0:
128,83,129607,1,0,0:0:0:0:
148,136,129765,1,8,0:0:0:0:
218,274,129923,1,0,0:0:0:0:
115,72,129976,1,0,0:0:0:0:
123,41,130028,1,0,0:0:0:0:
166,109,130081,1,8,0:0:0:0:
258,13,130160,1,0,0:0:0:0:
339,54,130239,1,8,0:0:0:0:
227,150,130397,1,0,0:0:0:0:
160,111,130555,1,8,0:0:0:0:
86,130,130607,1,8,0:0:0:0:
152,81,130660,1,8,0:0:0:0:
160,37,130713,1,0,0:0:0:0:
197,19,130792,1,8,0:0:0:0:
222,71,130871,1,0,0:0:0:0:
221,225,131028,1,0,0:0:0:0:
165,119,131186,1,8,0:0:0:0:
63,95,131239,1,0,0:0:0:0:
160,28,131292,1,0,0:0:0:0:
110,79,131344,1,8,0:0:0:0:
137,97,131423,1,0,0:0:0:0:
208,61,131502,1,8,0:0:0:0:
172,232,131660,1,0,0:0:0:0:
194,163,131818,1,0,0:0:0:0:
76,152,131897,1,0,0:0:0:0:
155,118,131976,1,8,0:0:0:0:
181,66,132055,1,0,0:0:0:0:
169,61,132134,1,8,0:0:0:0:
139,57,132213,1,8,0:0:0:0:
265,104,132292,1,0,0:0:0:0:
156,64,132371,1,0,0:0:0:0:
243,104,132450,1,8,0:0:0:0:
117,141,132528,1,0,0:0:0:0:
220,56,132607,1,8,0:0:0:0:
121,85,132686,1,8,0:0:0:0:
209,120,132765,1,0,0:0:0:0:
7,248,132844,1,0,0:0:0:0:
112,53,132923,1,0,0:0:0:0:
168,69,133002,1,0,0:0:0:0:
135,90,133081,1,8,0:0:0:0:
149,102,133239,1,0,0:0:0:0:
238,219,133397,1,0,0:0:0:0:
123,173,133555,1,0,0:0:0:0:
168,107,133634,1,0,0:0:0:0:
148,104,133713,1,8,0:0:0:0:
251,92,133871,1,8,0:0:0:0:
152,84,134028,1,0,0:0:0:0:
165,151,134186,1,8,0:0:0:0:
117,80,134265,1,0,0:0:0:0:
107,74,134344,1,0,0:0:0:0:
169,46,134502,1,8,0:0:0:0:
166,157,134660,1,0,0:0:0:0:
212,71,134739,1,0,0:0:0:0:
154,103,134818,1,0,0:0:0:0:
90,114,134897,1,0,0:0:0:0:
146,128,134976,1,8,0:0:0:0:
165,115,135134,1,8,0:0:0:0:
149,63,135292,1,8,0:0:0:0:
226,73,135371,1,0,0:0:0:0:
149,29,135450,1,0,0:0:0:0:
186,75,135528,1,0,0:0:0:0:
194,64,135607,1,8,0:0:0:0:
225,194,135765,1,0,0:0:0:0:
227,130,135923,1,8,0:0:0:0:
119,114,136002,1,8,0:0:0:0:
93,52,136081,1,0,0:0:0:0:
139,87,136160,1,0,0:0:0:0:
131,84,136239,1,8,0:0:0:0:
106,141,136318,1,0,0:0:0:0:
74,123,136397,1,8,0:0:0:0:
206,128,136476,1,8,0:0:0:0:
153,43,136555,1,0,0:0:0:0:
325,128,136713,1,0,0:0:0:0:
133,131,136871,1,8,0:0:0:0:
154,108,136950,1,0,0:0:0:0:
160,29,137028,1,0,0:0:0:0:
106,21,137107,1,0,0:0:0:0:
126,107,137186,1,8,0:0:0:0:
227,104,137344,1,0,0:0:0:0:
138,92,137502,1,0,0:0:0:0:
219,105,137581,1,0,0:0:0:0:
116,85,137660,1,8,0:0:0:0:
178,92,137818,1,8,0:0:0:0:
135,53,137976,1,0,0:0:0:0:
254,161,138134,5,8,0:0:0:0:
190,96,138186,1,0,0:0:0:0:
150,25,138239,1,0,0:0:0:0:
200,88,138292,1,8,0:0:0:0:
161,184,138371,1,0,0:0:0:0:
19,158,138450,1,8,0:0:0:0:
103,137,138528,1,8,0:0:0:0:
248,114,138607,1,0,0:0:0:0:
106,52,138686,1,8,0:0:0:0:
108,62,138765,1,0,0:0:0:0:
243,148,138844,1,8,0:0:0:0:
164,65,138923,1,0,0:0:0:0:
161,237,139002,1,8,0:0:0:0:
165,121,139081,1,0,0:0:0:0:
104,99,139160,1,8,0:0:0:0:
144,87,139239,1,8,0:0:0:0:
164,65,139292,1,8,0:0:0:0:
291,8,139344,1,8,0:0:0:0:
165,45,139397,1,0,0:0:0:0:
229,52,139476,1,0,0:0:0:0:
212,238,139555,1,8,0:0:0:0:
142,160,139634,1,0,0:0:0:0:
225,111,139713,1,8,0:0:0:0:
111,154,139792,1,0,0:0:0:0:
148,132,139871,1,8,0:0:0:0:
262,78,139950,1,0,0:0:0:0:
110,65,140028,1,0,0:0:0:0:
186,115,140107,1,0,0:0:0:0:
167,13,140186,1,8,0:0:0:0:
138,74,140265,1,0,0:0:0:0:
242,40,140344,1,8,0:0:0:0:
277,61,140423,1,8,0:0:0:0:
69,111,140502,1,0,0:0:0:0:
126,178,140581,1,0,0:0:0:0:
148,50,140660,1,0,0:0:0:0:
220,54,140713,1,0,0:0:0:0:
109,34,140765,1,0,0:0:0:0:
145,68,140818,1,8,0:0:0:0:
164,75,140897,1,8,0:0:0:0:
256,157,140976,1,0,0:0:0:0:
231,90,141055,1,8,0:0:0:0:
164,94,141134,1,8,0:0:0:0:
204,60,141186,1,8,0:0:0:0:
131,164,141239,1,8,0:0:0:0:
228,281,141292,1,0,0:0:0:0:
117,80,141371,1,8,0:0:0:0:
202,70,141450,1,8,0:0:0:0:
194,63,141528,1,8,0:0:0:0:
240,53,141607,1,8,0:0:0:0:
107,152,141686,1,8,0:0:0:0:
83,66,141765,1,8,0:0:0:0:
164,75,141844,1,8,0:0:0:0:
166,84,141923,1,0,0:0:0:0:
204,182,141976,1,0,0:0:0:0:
167,9,142028,1,0,0:0:0:0:
158,55,142081,1,8,0:0:0:0:
258,127,142239,1,8,0:0:0:0:
32,70,142397,1,0,0:0:0:0:
140,103,142450,1,0,0:0:0:0:
128,129,142502,1,0,0:0:0:0:
141,35,142555,1,8,0:0:0:0:
52,75,142713,1,8,0:0:0:0:
132,115,142871,1,0,0:0:0:0:
211,30,143028,1,8,0:0:0:0:
203,152,143186,1,0,0:0:0:0:
82,158,143344,1,0,0:0:0:0:
210,24,143423,1,0,0:0:0:0:
123,59,143502,1,0,0:0:0:0:
161,120,143660,1,8,0:0:0:0:
193,85,143818,1,0,0:0:0:0:
204,94,143976,1,0,0:0:0:0:
154,118,144134,1,8,0:0:0:0:
148,88,144213,1,0,0:0:0:0:
86,43,144292,1,0,0:0:0:0:
218,85,144371,1,0,0:0:0:0:
176,94,144450,1,0,0:0:0:0:
156,213,144607,1,0,0:0:0:0:
164,49,144765,1,0,0:0:0:0:
154,141,144923,1,8,0:0:0:0:
153,122,145081,1,0,0:0:0:0:
146,137,145239,1,8,0:0:0:0:
256,91,145397,1,0,0:0:0:0:
174,50,145476,1,0,0:0:0:0:
132,111,145555,1,0,0:0:0:0:
118,52,145634,1,0,0:0:0:0:
168,72,145713,1,0,0:0:0:0:
240,185,145871,1,8,0:0:0:0:
87,193,145950,1,8,0:0:0:0:
133,98,146028,1,0,0:0:0:0:
175,84,146107,1,0,0:0:0:0:
230,103,146186,1,8,0:0:0:0:
205,98,146265,1,0,0:0:0:0:
185,116,146344,1,8,0:0:0:0:
215,114,146502,1,0,0:0:0:0:
199,122,146581,1,0,0:0:0:0:
209,147,146660,1,8,0:0:0:0:
277,77,146739,1,0,0:0:0:0:
141,137,146818,1,8,0:0:0:0:
118,69,146976,1,8,0:0:0:0:
90,105,147055,1,8,0:0:0:0:
68,71,147134,1,8,0:0:0:0:
60,36,147213,1,8,0:0:0:0:
176,69,147292,1,0,0:0:0:0:
149,134,147450,1,0,0:0:0:0:
186,115,147528,1,0,0:0:0:0:
190,103,147607,1,8,0:0:0:0:
165,76,147686,1,8,0:0:0:0:
67,79,147765,1,8,0:0:0:0:
149,8,147844,1,8,0:0:0:0:
227,6,147923,1,0,0:0:0:0:
207,104,148081,1,0,0:0:0:0:
256,204,148239,1,8,0:0:0:0:
170,109,148318,1,0,0:0:0:0:
172,82,148397,1,0,0:0:0:0:
138,136,148476,1,0,0:0:0:0:
168,95,148555,1,8,0:0:0:0:
181,207,148713,1,0,0:0:0:0:
96,130,148792,1,0,0:0:0:0:
214,92,148871,1,8,0:0:0:0:
157,103,148950,1,8,0:0:0:0:
127,111,149028,1,0,0:0:0:0:
102,58,149107,1,8,0:0:0:0:
216,76,149186,1,0,0:0:0:0:
235,154,149344,1,8,0:0:0:0:
149,63,149423,1,8,0:0:0:0:
115,155,149502,1,0,0:0:0:0:
144,66,149581,1,0,0:0:0:0:
203,49,149660,1,8,0:0:0:0:
131,101,149739,1,0,0:0:0:0:
81,63,149818,1,8,0:0:0:0:
298,179,149976,1,0,0:0:0:0:
149,94,150055,1,0,0:0:0:0:
256,77,150134,1,0,0:0:0:0:
54,107,150213,1,0,0:0:0:0:
44,120,150292,1,8,0:0:0:0:
117,132,150371,1,8,0:0:0:0:
136,40,150450,1,8,0:0:0:0:
140,56,150528,1,8,0:0:0:0:
148,101,150607,1,0,0:0:0:0:
271,225,150686,1,0,0:0:0:0:
118,101,150765,1,8,0:0:0:0:
178,181,150844,1,8,0:0:0:0:
264,152,150923,1,0,0:0:0:0:
105,176,151002,1,0,0:0:0:0:
149,85,151081,1,0,0:0:0:0:
135,70,151160,1,0,0:0:0:0:
160,78,151239,1,8,0:0:0:0:
272,159,151397,1,8,0:0:0:0:
213,40,151476,1,8,0:0:0:0:
247,66,151555,1,0,0:0:0:0:
171,170,151713,1,0,0:0:0:0:
143,165,151871,1,8,0:0:0:0:
154,95,151950,1,8,0:0:0:0:
117,73,152028,1,0,0:0:0:0:
176,226,152107,1,0,0:0:0:0:
110,59,152186,1,0,0:0:0:0:
142,85,152265,1,0,0:0:0:0:
235,100,152344,1,8,0:0:0:0:
105,107,152423,1,0,0:0:0:0:
107,29,152502,1,0,0:0:0:0:
169,60,152581,1,0,0:0:0:0:
213,93,152660,1,8,0:0:0:0:
125,144,152739,1,0,0:0:0:0:
242,88,152818,1,0,0:0:0:0:
199,64,152897,1,0,0:0:0:0:
200,127,152976,1,8,0:0:0:0:
146,155,153055,1,8,0:0:0:0:
45,83,153134,1,8,0:0:0:0:
145,60,153213,1,0,0:0:0:0:
189,48,153292,1,8,0:0:0:0:
99,192,153371,1,0,0:0:0:0:
199,226,153450,1,8,0:0:0:0:
209,162,153528,1,8,0:0:0:0:
98,74,153607,1,8,0:0:0:0:
176,107,153686,1,0,0:0:0:0:
206,63,153765,1,8,0:0:0:0:
128,72,153844,1,8,0:0:0:0:
120,76,153923,1,8,0:0:0:0:
252,131,154002,1,0,0:0:0:0:
156,151,154081,1,8,0:0:0:0:
177,70,154160,1,8,0:0:0:0:
184,150,154239,1,8,0:0:0:0:
135,139,154318,1,0,0:0:0:0:
129,37,154397,1,8,0:0:0:0:
169,38,154476,1,8,0:0:0:0:
76,50,154555,1,8,0:0:0:0:
119,140,154634,1,0,0:0:0:0:
112,88,154713,1,8,0:0:0:0:
55,92,154792,1,8,0:0:0:0:
122,43,154871,1,8,0:0:0:0:
147,74,154950,1,0,0:0:0:0:
133,146,155028,1,8,0:0:0:0:
187,105,155107,1,8,0:0:0:0:
199,53,155186,1,8,0:0:0:0:
209,98,155265,1,0,0:0:0:0:
94,93,155344,1,8,0:0:0:0:
94,122,155423,1,8,0:0:0:0:
119,140,155502,1,8,0:0:0:0:
164,108,155581,1,0,0:0:0:0:
145,47,155660,1,8,0:0:0:0:
146,40,155739,1,8,0:0:0:0:
133,64,155818,1,0,0:0:0:0:
283,215,155897,1,0,0:0:0:0:
167,92,155976,1,0,0:0:0:0:
128,203,156055,1,8,0:0:0:0:
197,109,156134,1,0,0:0:0:0:
190,124,156213,1,8,0:0:0:0:
109,63,156292,1,8,0:0:0:0:
160,55,156371,1,0,0:0:0:0:
46,77,156450,1,8,0:0:0:0:
202,145,156528,1,0,0:0:0:0:
232,163,156607,1,0,0:0:0:0:
206,124,156686,1,8,0:0:0:0:
117,129,156765,1,0,0:0:0:0:
142,135,156844,1,8,0:0:0:0:
149,89,156923,1,8,0:0:0:0:
98,151,157002,1,0,0:0:0:0:
191,63,157081,1,8,0:0:0:0:
151,136,157160,1,0,0:0:0:0:
236,86,157239,1,0,0:0:0:0:
169,75,157318,1,0,0:0:0:0:
191,88,157397,1,0,0:0:0:0:
88,221,157476,1,0,0:0:0:0:
204,57,157555,1,0,0:0:0:0:
159,119,157634,1,0,0:0:0:0:
106,77,157713,1,8,0:0:0:0:
137,75,157792,1,8,0:0:0:0:
113,62,157871,1,0,0:0:0:0:
124,68,157950,1,0,0:0:0:0:
148,38,158028,1,0,0:0:0:0:
159,233,158107,1,8,0:0:0:0:
205,107,158186,1,8,0:0:0:0:
151,137,158265,1,0,0:0:0:0:
93,102,158344,1,0,0:0:0:0:
187,156,158423,1,0,0:0:0:0:
121,82,158502,1,0,0:0:0:0:
197,191,158581,1,0,0:0:0:0:
211,122,158660,1,8,0:0:0:0:
257,212,158739,1,0,0:0:0:0:
136,149,158818,1,8,0:0:0:0:
224,155,158897,1,0,0:0:0:0:
189,80,158976,1,0,0:0:0:0:
186,96,159055,1,0,0:0:0:0:
189,86,159134,1,8,0:0:0:0:
169,96,159213,1,0,0:0:0:0:
115,120,159292,1,8,0:0:0:0:
126,206,159371,1,0,0:0:0:0:
26,74,159450,1,0,0:0:0:0:
116,61,159528,1,0,0:0:0:0:
120,91,159607,1,8,0:0:0:0:
193,131,159686,1,0,0:0:0:0:
229,106,159765,1,8,0:0:0:0:
92,156,159844,1,0,0:0:0:0:
210,111,159923,1,0,0:0:0:0:
161,39,160002,1,0,0:0:0:0:
163,101,160081,1,8,0:0:0:0:
132,50,160160,1,0,0:0:0:0:
218,24,160239,1,8,0:0:0:0:
158,84,160318,1,8,0:0:0:0:
130,59,160397,1,0,0:0:0:0:
137,173,160450,1,0,0:0:0:0:
116,74,160502,1,0,0:0:0:0:
148,40,160555,1,8,0:0:0:0:
152,157,160634,1,8,0:0:0:0:
170,121,160713,1,0,0:0:0:0:
237,181,160792,1,0,0:0:0:0:
66,132,160871,1,8,0:0:0:0:
85,56,160950,1,8,0:0:0:0:
36,87,161028,1,0,0:0:0:0:
144,85,161107,1,8,0:0:0:0:
140,89,161186,1,8,0:0:0:0:
161,75,161265,1,0,0:0:0:0:
149,48,161344,1,8,0:0:0:0:
189,181,161423,1,8,0:0:0:0:
119,120,161502,1,0,0:0:0:0:
141,169,161581,1,8,0:0:0:0:
135,112,161660,1,8,0:0:0:0:
232,41,161739,1,0,0:0:0:0:
184,86,161818,1,0,0:0:0:0:
197,91,161897,1,0,0:0:0:0:
138,72,161976,1,8,0:0:0:0:
43,172,162055,1,8,0:0:0:0:
95,73,162134,1,8,0:0:0:0:
181,30,162213,1,8,0:0:0:0:
160,65,162292,1,0,0:0:0:0:
218,230,162371,1,0,0:0:0:0:
180,173,162450,1,0,0:0:0:0:
98,111,162528,1,0,0:0:0:0:
219,73,162607,1,8,0:0:0:0:
144,107,162686,1,8,0:0:0:0:
136,194,162765,1,0,0:0:0:0:
80,134,162844,1,0,0:0:0:0:
333,46,162923,1,0,0:0:0:0:
69,10,163002,1,0,0:0:0:0:
73,89,163081,1,8,0:0:0:0:
144,121,163160,1,8,0:0:0:0:
128,104,163239,1,0,0:0:0:0:
265,225,163397,1,0,0:0:0:0:
