osu file format v14

[General]
AudioFilename: audio.mp3
AudioLeadIn: 0
PreviewTime: 82476
Countdown: 0
SampleSet: Soft
StackLeniency: 0.7
Mode: 1
LetterboxInBreaks: 0
WidescreenStoryboard: 0

[Editor]
Bookmarks: 3029,16270,29511,39442,51028,60959,70890,82476,95717,108958,122200,135441,148682,161924,175165,188407,201648,214889,228131,241372,241373,254614,267855
DistanceSpacing: 0.8
BeatDivisor: 8
GridSize: 32
TimelineZoom: 3.099999

[Metadata]
Title:A Mercurian Summer
TitleUnicode:A Mercurian Summer
Artist:Angel Vivaldi
ArtistUnicode:Angel Vivaldi
Creator:frukoyurdakul
Version:Hot
Source:
Tags:Progressive Metal Universal Language
BeatmapID:1726850
BeatmapSetID:824119

[Difficulty]
HPDrainRate:5
CircleSize:2
OverallDifficulty:6.5
ApproachRate:10
SliderMultiplier:1.4
SliderTickRate:1

[Events]
//Background and Video events
0,0,"BG.jpg",0,0
//Break Periods
//Storyboard Layer 0 (Background)
//Storyboard Layer 1 (Fail)
//Storyboard Layer 2 (Pass)
//Storyboard Layer 3 (Foreground)
//Storyboard Sound Samples

[TimingPoints]
1460,405.405405405405,4,1,0,60,1,0
1460,-68.0459770114943,4,1,0,60,0,0
3081,413.793103448276,4,1,0,95,1,0
3081,-66.6666666666666,4,1,0,95,0,0
29563,413.793103448276,3,1,0,75,1,0
29563,-66.6666666666666,3,1,0,75,0,0
49425,413.793103448276,4,1,0,75,1,0
49425,-66.6666666666666,4,1,0,75,0,0
51080,413.793103448276,3,1,0,95,1,0
51080,-66.6666666666666,3,1,0,95,0,0
65924,-66.6666666666666,3,1,0,75,0,0
70890,-66.6666666666666,3,1,0,95,0,0
80769,-66.6666666666666,3,1,0,65,0,0
80873,413.793103448276,4,1,0,65,1,0
80873,-66.6666666666666,4,1,0,65,0,0
82476,-66.6666666666666,4,1,0,95,0,0
82528,413.793103448276,4,1,0,95,1,0
82528,-66.6666666666666,4,1,0,95,0,0
109010,-66.6666666666667,4,1,0,75,0,0
109217,-68.0813517688556,4,1,0,75,0,0
109424,-69.5573785771621,4,1,0,75,0,0
109838,-72.7100867067784,4,1,0,75,0,0
109941,-73.5434715460309,4,1,0,75,0,0
110045,-74.3961266400626,4,1,0,75,0,0
110665,-79.9584855543002,4,1,0,75,0,0
110872,-82.002097613657,4,1,0,75,0,0
111079,-84.1529833915672,4,1,0,75,0,0
111493,-88.8119974351095,4,1,0,75,0,0
111596,-90.0584479327083,4,1,0,75,0,0
111700,-91.3404670238079,4,1,0,75,0,0
111907,-94.0171261597012,4,1,0,75,0,0
112114,-96.855302052945,4,1,0,75,0,0
112217,-98.3397303327915,4,1,0,75,0,0
112321,-99.870268521191,4,1,0,75,0,0
115631,-100,4,1,0,75,0,0
116045,-105.263157894737,4,1,0,75,0,0
116252,-108.108108108108,4,1,0,75,0,0
116665,-114.285714285714,4,1,0,75,0,0
116872,-117.647058823529,4,1,0,75,0,0
117286,-125,4,1,0,75,0,0
118321,-125,4,1,0,75,0,0
118631,-111.111111111111,4,1,0,75,0,0
118734,-107.142895408177,4,1,0,75,0,0
118838,-103.448240190262,4,1,0,75,0,0
118941,-100,4,1,0,75,0,0
132183,-100,4,1,0,75,0,0
132390,-96.969696969697,4,1,0,75,0,0
132493,-95.5223880597015,4,1,0,75,0,0
132596,-94.1176470588235,4,1,0,75,0,0
132803,-91.4285714285714,4,1,0,75,0,0
132907,-90.1408450704225,4,1,0,75,0,0
133010,-88.8888888888889,4,1,0,75,0,0
133114,-87.6712328767123,4,1,0,75,0,0
133217,-86.4864864864865,4,1,0,75,0,0
133424,-84.2105263157895,4,1,0,75,0,0
133528,-83.1168831168831,4,1,0,75,0,0
133631,-82.0512820512821,4,1,0,75,0,0
133734,-81.0126582278481,4,1,0,75,0,0
133838,-80,4,1,0,75,0,0
134045,-78.0487804878049,4,1,0,75,0,0
134252,-76.1904761904762,4,1,0,75,0,0
134459,-74.4186046511628,4,1,0,75,0,0
134562,-73.5632183908046,4,1,0,75,0,0
134665,-72.7272727272727,4,1,0,75,0,0
134769,-71.9101123595506,4,1,0,75,0,0
134872,-71.1111111111111,4,1,0,75,0,0
134976,-70.3296703296703,4,1,0,75,0,0
135079,-69.5652173913043,4,1,0,75,0,0
135183,-68.8172043010753,4,1,0,75,0,0
135286,-68.0851063829787,4,1,0,75,0,0
135390,-67.3684210526316,4,1,0,75,0,0
135493,-66.6666666666667,4,1,0,95,0,0
214941,416.666666666667,4,1,0,95,1,0
214941,-66.2068965517241,4,1,0,95,0,0
215045,-66.2068965517241,4,1,0,65,0,0
217024,400,4,1,0,65,1,8
217024,-68.9655172413793,4,1,0,65,0,8
217424,413.793103448276,4,1,0,65,1,8
217424,-66.6666666666666,4,1,0,65,0,8
217993,-66.6666666666666,4,1,0,95,0,0
218251,413.793103448276,4,1,0,95,1,0
218251,-66.6666666666666,4,1,0,95,0,0
219078,419.58041958042,4,1,0,95,1,8
219078,-65.7471264367815,4,1,0,95,0,8
219286,-65.7471264367815,4,1,0,75,0,0
220336,400,4,1,0,75,1,0
220336,-68.9655172413793,4,1,0,75,0,0
220736,413.793103448276,4,1,0,75,1,8
220736,-66.6666666666666,4,1,0,75,0,8
221096,-66.6666666666666,4,1,0,95,0,0
221563,413.793103448276,4,1,0,95,1,0
221563,-66.6666666666666,4,1,0,95,0,0
221907,-66.6666666666666,4,2,0,95,0,0
223217,-66.6666666666666,4,1,0,65,0,0
224459,-66.6666666666666,4,1,0,95,0,0
267700,-66.6666666666666,4,1,0,65,0,0

[HitObjects]
352,96,1460,5,8,0:0:0:0:
352,96,1561,1,8,0:0:0:0:
352,96,1662,1,8,0:0:0:0:
160,96,1764,1,0,0:0:0:0:
352,96,1865,1,8,0:0:0:0:
352,96,1966,1,8,0:0:0:0:
160,96,2068,1,0,0:0:0:0:
352,96,2169,1,8,0:0:0:0:
160,96,2270,1,0,0:0:0:0:
352,96,2372,1,8,0:0:0:0:
352,96,2473,1,8,0:0:0:0:
160,96,2574,1,0,0:0:0:0:
352,96,2676,1,8,0:0:0:0:
352,96,2777,1,8,0:0:0:0:
160,96,2878,1,0,0:0:0:0:
352,96,2980,1,8,0:0:0:0:
160,288,3081,1,4,0:0:0:0:
160,96,3287,1,0,0:0:0:0:
352,96,3494,1,8,0:0:0:0:
160,96,3598,1,0,0:0:0:0:
160,96,3805,1,0,0:0:0:0:
352,96,3908,1,8,0:0:0:0:
160,96,4115,1,0,0:0:0:0:
352,96,4218,1,8,0:0:0:0:
352,96,4270,1,8,0:0:0:0:
160,96,4322,1,0,0:0:0:0:
160,96,4425,1,0,0:0:0:0:
352,96,4529,1,8,0:0:0:0:
352,96,4632,1,8,0:0:0:0:
160,96,4736,1,0,0:0:0:0:
352,96,4839,1,8,0:0:0:0:
160,96,4943,1,0,0:0:0:0:
160,96,5046,1,0,0:0:0:0:
352,96,5149,1,8,0:0:0:0:
352,96,5563,1,8,0:0:0:0:
352,96,5667,1,8,0:0:0:0:
160,96,5770,1,0,0:0:0:0:
160,96,5874,1,0,0:0:0:0:
352,96,5977,1,8,0:0:0:0:
352,96,6081,1,8,0:0:0:0:
160,96,6184,1,0,0:0:0:0:
352,96,6287,1,8,0:0:0:0:
160,96,6391,1,0,0:0:0:0:
160,96,6494,1,0,0:0:0:0:
160,96,6598,1,0,0:0:0:0:
160,96,6805,1,0,0:0:0:0:
160,96,6908,1,0,0:0:0:0:
160,96,7115,1,0,0:0:0:0:
352,96,7218,1,8,0:0:0:0:
160,96,7425,1,0,0:0:0:0:
352,96,7529,1,8,0:0:0:0:
352,96,7581,1,8,0:0:0:0:
160,96,7632,1,0,0:0:0:0:
160,96,7736,1,0,0:0:0:0:
352,96,7839,1,8,0:0:0:0:
160,96,7943,1,0,0:0:0:0:
160,96,8046,1,0,0:0:0:0:
352,96,8149,1,8,0:0:0:0:
352,96,8253,1,8,0:0:0:0:
160,96,8356,1,0,0:0:0:0:
352,96,8460,1,8,0:0:0:0:
352,96,8874,1,8,0:0:0:0:
160,96,8977,1,0,0:0:0:0:
352,96,9081,1,8,0:0:0:0:
352,96,9132,1,8,0:0:0:0:
352,96,9184,1,8,0:0:0:0:
352,96,9236,1,8,0:0:0:0:
160,96,9287,1,0,0:0:0:0:
352,96,9391,1,8,0:0:0:0:
352,96,9494,1,8,0:0:0:0:
352,96,9598,1,8,0:0:0:0:
160,96,9701,1,0,0:0:0:0:
352,96,9805,1,8,0:0:0:0:
352,96,9908,1,8,0:0:0:0:
352,96,10115,1,8,0:0:0:0:
352,96,10218,1,8,0:0:0:0:
160,96,10425,1,0,0:0:0:0:
352,96,10529,1,8,0:0:0:0:
160,96,10736,1,0,0:0:0:0:
352,96,10839,1,8,0:0:0:0:
352,96,10891,1,8,0:0:0:0:
160,96,10943,1,0,0:0:0:0:
160,96,11046,1,0,0:0:0:0:
352,96,11149,1,8,0:0:0:0:
352,96,11253,1,8,0:0:0:0:
160,96,11356,1,0,0:0:0:0:
352,96,11460,1,8,0:0:0:0:
160,96,11563,1,0,0:0:0:0:
160,96,11667,1,0,0:0:0:0:
352,96,11770,1,8,0:0:0:0:
352,96,12184,1,8,0:0:0:0:
352,96,12287,1,8,0:0:0:0:
352,96,12391,1,8,0:0:0:0:
160,96,12494,1,0,0:0:0:0:
352,96,12598,1,8,0:0:0:0:
160,96,12701,1,0,0:0:0:0:
160,96,12805,1,0,0:0:0:0:
352,96,12908,1,8,0:0:0:0:
160,96,13012,1,0,0:0:0:0:
160,96,13115,1,0,0:0:0:0:
160,96,13218,1,0,0:0:0:0:
160,96,13425,1,0,0:0:0:0:
160,96,13529,1,0,0:0:0:0:
160,96,13736,1,0,0:0:0:0:
352,96,13839,1,8,0:0:0:0:
160,96,14046,1,0,0:0:0:0:
160,96,14098,1,0,0:0:0:0:
160,96,14149,1,0,0:0:0:0:
160,96,14201,1,0,0:0:0:0:
352,96,14253,1,8,0:0:0:0:
160,96,14356,1,0,0:0:0:0:
352,96,14460,1,8,0:0:0:0:
352,96,14563,1,8,0:0:0:0:
160,96,14667,1,0,0:0:0:0:
352,96,14770,1,8,0:0:0:0:
352,96,14874,1,8,0:0:0:0:
160,96,14977,1,0,0:0:0:0:
352,96,15081,1,8,0:0:0:0:
352,96,15132,1,8,0:0:0:0:
352,96,15184,1,8,0:0:0:0:
352,96,15236,1,8,0:0:0:0:
352,96,15287,1,8,0:0:0:0:
352,96,15391,1,8,0:0:0:0:
160,96,15494,1,0,0:0:0:0:
160,96,15546,1,0,0:0:0:0:
160,96,15598,1,0,0:0:0:0:
160,96,15649,1,0,0:0:0:0:
160,96,15701,1,0,0:0:0:0:
160,96,15805,1,0,0:0:0:0:
352,96,15908,1,8,0:0:0:0:
352,96,16012,1,8,0:0:0:0:
160,96,16115,1,0,0:0:0:0:
160,96,16218,1,0,0:0:0:0:
352,96,16322,1,8,0:0:0:0:
160,96,16425,1,0,0:0:0:0:
160,96,16529,1,0,0:0:0:0:
352,96,16632,1,8,0:0:0:0:
352,96,16839,1,8,0:0:0:0:
160,96,16943,1,0,0:0:0:0:
160,96,17046,1,0,0:0:0:0:
352,96,17149,1,8,0:0:0:0:
352,96,17356,1,8,0:0:0:0:
352,96,17460,1,8,0:0:0:0:
352,96,17563,1,8,0:0:0:0:
160,96,17667,1,0,0:0:0:0:
160,96,17770,1,0,0:0:0:0:
352,96,17874,1,8,0:0:0:0:
160,96,18081,1,0,0:0:0:0:
160,96,18184,1,0,0:0:0:0:
160,96,18287,1,0,0:0:0:0:
352,96,18391,1,8,0:0:0:0:
160,96,18598,1,0,0:0:0:0:
160,96,18701,1,0,0:0:0:0:
352,96,18805,1,8,0:0:0:0:
160,96,18908,1,0,0:0:0:0:
352,96,19115,1,8,0:0:0:0:
352,96,19322,1,8,0:0:0:0:
352,96,19529,1,8,0:0:0:0:
160,96,19736,1,0,0:0:0:0:
160,96,19943,1,0,0:0:0:0:
160,96,20253,1,0,0:0:0:0:
160,96,20356,1,0,0:0:0:0:
352,96,20460,1,8,0:0:0:0:
160,96,20563,1,0,0:0:0:0:
160,96,20770,1,0,0:0:0:0:
160,96,20874,1,0,0:0:0:0:
160,96,20977,1,0,0:0:0:0:
352,96,21081,1,8,0:0:0:0:
352,96,21184,1,8,0:0:0:0:
160,96,21287,1,0,0:0:0:0:
352,96,21701,1,8,0:0:0:0:
352,96,21770,1,8,0:0:0:0:
160,96,21839,1,0,0:0:0:0:
160,96,21908,1,0,0:0:0:0:
160,96,21977,1,0,0:0:0:0:
160,96,22046,1,0,0:0:0:0:
352,96,22115,1,8,0:0:0:0:
160,96,22184,1,0,0:0:0:0:
352,96,22943,1,8,0:0:0:0:
352,96,23046,1,8,0:0:0:0:
160,96,23150,1,0,0:0:0:0:
352,96,23253,1,8,0:0:0:0:
352,96,23460,1,8,0:0:0:0:
160,96,23564,1,0,0:0:0:0:
352,96,23667,1,8,0:0:0:0:
352,96,23770,1,8,0:0:0:0:
352,96,23977,1,8,0:0:0:0:
160,96,24081,1,0,0:0:0:0:
352,96,24184,1,8,0:0:0:0:
352,96,24288,1,8,0:0:0:0:
160,96,24391,1,0,0:0:0:0:
352,96,24495,1,8,0:0:0:0:
160,96,24702,1,0,0:0:0:0:
160,96,24805,1,0,0:0:0:0:
352,96,24908,1,8,0:0:0:0:
352,96,25012,1,8,0:0:0:0:
160,96,25219,1,0,0:0:0:0:
160,96,25322,1,0,0:0:0:0:
352,96,25426,1,8,0:0:0:0:
160,96,25529,1,0,0:0:0:0:
352,96,25736,1,8,0:0:0:0:
352,96,25943,1,8,0:0:0:0:
352,96,26150,1,8,0:0:0:0:
160,96,26357,1,0,0:0:0:0:
160,96,26564,1,0,0:0:0:0:
160,96,26874,1,0,0:0:0:0:
160,96,26977,1,0,0:0:0:0:
352,96,27081,1,8,0:0:0:0:
160,96,27184,1,0,0:0:0:0:
160,96,27391,1,0,0:0:0:0:
160,96,27495,1,0,0:0:0:0:
160,96,27598,1,0,0:0:0:0:
352,96,27702,1,8,0:0:0:0:
352,96,27805,1,8,0:0:0:0:
352,96,27908,1,8,0:0:0:0:
160,96,28012,1,0,0:0:0:0:
352,96,28115,1,8,0:0:0:0:
352,96,28218,1,8,0:0:0:0:
160,96,28322,1,0,0:0:0:0:
352,96,28425,1,8,0:0:0:0:
160,96,28529,1,0,0:0:0:0:
160,96,28632,1,0,0:0:0:0:
352,96,28736,1,8,0:0:0:0:
160,96,28839,1,0,0:0:0:0:
160,96,28943,1,0,0:0:0:0:
160,96,28994,1,0,0:0:0:0:
160,96,29046,1,0,0:0:0:0:
160,96,29098,1,0,0:0:0:0:
160,96,29149,1,0,0:0:0:0:
160,96,29253,1,0,0:0:0:0:
160,96,29356,1,0,0:0:0:0:
160,96,29460,1,0,0:0:0:0:
352,96,29563,1,8,0:0:0:0:
160,96,29769,1,0,0:0:0:0:
352,96,29873,1,8,0:0:0:0:
352,96,29976,1,8,0:0:0:0:
160,96,30080,1,0,0:0:0:0:
352,96,30183,1,8,0:0:0:0:
352,96,30287,1,8,0:0:0:0:
160,96,30390,1,0,0:0:0:0:
352,96,30494,1,8,0:0:0:0:
160,96,30597,1,0,0:0:0:0:
160,96,30700,1,0,0:0:0:0:
352,96,30804,1,8,0:0:0:0:
160,96,30907,1,0,0:0:0:0:
352,96,31011,1,8,0:0:0:0:
352,96,31063,1,8,0:0:0:0:
352,96,31114,1,8,0:0:0:0:
352,96,31166,1,8,0:0:0:0:
160,96,31218,1,0,0:0:0:0:
160,96,31321,1,0,0:0:0:0:
160,96,31425,1,0,0:0:0:0:
160,96,31476,1,0,0:0:0:0:
160,96,31528,1,0,0:0:0:0:
160,96,31580,1,0,0:0:0:0:
352,96,31631,1,8,0:0:0:0:
352,96,31735,1,8,0:0:0:0:
160,96,31838,1,0,0:0:0:0:
160,96,31942,1,0,0:0:0:0:
352,96,32045,1,8,0:0:0:0:
352,96,32149,1,8,0:0:0:0:
160,96,32252,1,0,0:0:0:0:
352,96,32356,1,8,0:0:0:0:
160,96,32459,1,0,0:0:0:0:
160,96,32563,1,0,0:0:0:0:
352,96,32666,1,8,0:0:0:0:
160,96,32769,1,0,0:0:0:0:
352,96,32873,1,8,0:0:0:0:
352,96,32976,1,8,0:0:0:0:
160,96,33080,1,0,0:0:0:0:
160,96,33183,1,0,0:0:0:0:
352,96,33287,1,8,0:0:0:0:
160,96,33494,1,0,0:0:0:0:
160,96,33597,1,0,0:0:0:0:
352,96,33700,1,8,0:0:0:0:
352,96,33804,1,8,0:0:0:0:
160,96,33907,1,0,0:0:0:0:
160,96,34011,1,0,0:0:0:0:
352,96,34114,1,8,0:0:0:0:
352,96,34218,1,8,0:0:0:0:
160,96,34321,1,0,0:0:0:0:
160,96,34425,1,0,0:0:0:0:
352,96,34528,1,8,0:0:0:0:
160,96,34735,1,0,0:0:0:0:
352,96,34838,1,8,0:0:0:0:
160,96,34942,1,0,0:0:0:0:
160,96,35045,1,0,0:0:0:0:
352,96,35149,1,8,0:0:0:0:
352,96,35252,1,8,0:0:0:0:
160,96,35356,1,0,0:0:0:0:
352,96,35459,1,8,0:0:0:0:
352,96,35563,1,8,0:0:0:0:
160,96,35666,1,0,0:0:0:0:
352,96,35769,1,8,0:0:0:0:
160,96,35873,1,0,0:0:0:0:
352,96,35976,1,8,0:0:0:0:
352,96,36028,1,8,0:0:0:0:
352,96,36080,1,8,0:0:0:0:
352,96,36131,1,8,0:0:0:0:
160,96,36183,1,0,0:0:0:0:
160,96,36287,1,0,0:0:0:0:
352,96,36390,1,8,0:0:0:0:
160,96,36442,1,0,0:0:0:0:
160,96,36494,1,0,0:0:0:0:
160,96,36545,1,0,0:0:0:0:
160,96,36597,1,0,0:0:0:0:
160,96,36700,1,0,0:0:0:0:
352,96,36804,1,8,0:0:0:0:
352,96,36907,1,8,0:0:0:0:
160,96,37011,1,0,0:0:0:0:
352,96,37114,1,8,0:0:0:0:
160,96,37218,1,0,0:0:0:0:
352,96,37321,1,8,0:0:0:0:
352,96,37425,1,8,0:0:0:0:
160,96,37528,1,0,0:0:0:0:
352,96,37631,1,8,0:0:0:0:
160,96,37735,1,0,0:0:0:0:
352,96,37838,1,8,0:0:0:0:
352,96,37942,1,8,0:0:0:0:
160,96,38045,1,0,0:0:0:0:
160,96,38149,1,0,0:0:0:0:
352,96,38252,1,8,0:0:0:0:
352,96,38321,1,8,0:0:0:0:
352,96,38390,1,8,0:0:0:0:
352,96,38459,1,8,0:0:0:0:
160,96,38528,1,0,0:0:0:0:
160,96,38597,1,0,0:0:0:0:
352,96,38666,1,8,0:0:0:0:
160,96,38735,1,0,0:0:0:0:
352,96,38804,1,8,0:0:0:0:
352,96,38873,1,8,0:0:0:0:
352,96,38942,1,8,0:0:0:0:
352,96,39011,1,8,0:0:0:0:
352,96,39080,1,8,0:0:0:0:
352,96,39149,1,8,0:0:0:0:
160,96,39218,1,0,0:0:0:0:
160,96,39287,1,0,0:0:0:0:
160,96,39356,1,0,0:0:0:0:
160,96,39425,1,0,0:0:0:0:
352,96,39494,1,8,0:0:0:0:
352,96,39597,1,8,0:0:0:0:
160,96,39804,1,0,0:0:0:0:
352,96,39907,1,8,0:0:0:0:
352,96,40114,1,8,0:0:0:0:
352,96,40218,1,8,0:0:0:0:
160,96,40321,1,0,0:0:0:0:
352,96,40425,1,8,0:0:0:0:
352,96,40476,1,8,0:0:0:0:
160,96,40528,1,0,0:0:0:0:
160,96,40631,1,0,0:0:0:0:
352,96,40735,1,8,0:0:0:0:
160,96,40838,1,0,0:0:0:0:
160,96,41045,1,0,0:0:0:0:
352,96,41149,1,8,0:0:0:0:
160,96,41356,1,0,0:0:0:0:
352,96,41563,1,8,0:0:0:0:
352,96,41666,1,8,0:0:0:0:
160,96,41769,1,0,0:0:0:0:
160,96,41873,1,0,0:0:0:0:
352,96,41976,1,8,0:0:0:0:
352,96,42080,1,8,0:0:0:0:
160,96,42287,1,0,0:0:0:0:
160,96,42390,1,0,0:0:0:0:
352,96,42597,1,8,0:0:0:0:
160,96,42804,1,0,0:0:0:0:
352,96,42907,1,8,0:0:0:0:
352,96,42959,1,8,0:0:0:0:
160,96,43011,1,0,0:0:0:0:
160,96,43114,1,0,0:0:0:0:
352,96,43218,1,8,0:0:0:0:
352,96,43321,1,8,0:0:0:0:
160,96,43425,1,0,0:0:0:0:
160,96,43528,1,0,0:0:0:0:
352,96,43631,1,8,0:0:0:0:
352,96,43735,1,8,0:0:0:0:
352,96,43838,1,8,0:0:0:0:
160,96,43942,1,0,0:0:0:0:
352,96,44045,1,8,0:0:0:0:
160,96,44149,1,0,0:0:0:0:
160,96,44252,1,0,0:0:0:0:
160,96,44356,1,0,0:0:0:0:
352,96,44459,1,8,0:0:0:0:
352,96,44563,1,8,0:0:0:0:
160,96,44666,1,0,0:0:0:0:
160,96,44769,1,0,0:0:0:0:
352,96,44873,1,8,0:0:0:0:
160,96,44976,1,0,0:0:0:0:
160,96,45080,1,0,0:0:0:0:
160,96,45183,1,0,0:0:0:0:
352,96,45287,1,8,0:0:0:0:
160,96,45390,1,0,0:0:0:0:
160,96,45494,1,0,0:0:0:0:
352,96,45597,1,8,0:0:0:0:
160,96,45700,1,0,0:0:0:0:
352,96,45804,1,8,0:0:0:0:
352,96,45907,1,8,0:0:0:0:
160,96,46011,1,0,0:0:0:0:
160,96,46114,1,0,0:0:0:0:
352,96,46218,1,8,0:0:0:0:
352,96,46321,1,8,0:0:0:0:
160,96,46425,1,0,0:0:0:0:
352,96,46528,1,8,0:0:0:0:
160,96,46631,1,0,0:0:0:0:
352,96,46735,1,8,0:0:0:0:
160,96,46838,1,0,0:0:0:0:
352,96,46942,1,8,0:0:0:0:
352,96,47045,1,8,0:0:0:0:
160,96,47149,1,0,0:0:0:0:
160,96,47252,1,0,0:0:0:0:
352,96,47356,1,8,0:0:0:0:
160,96,47459,1,0,0:0:0:0:
352,96,47563,1,8,0:0:0:0:
160,96,47666,1,0,0:0:0:0:
352,96,47769,1,8,0:0:0:0:
352,96,47873,1,8,0:0:0:0:
160,96,47976,1,0,0:0:0:0:
160,96,48080,1,0,0:0:0:0:
352,96,48183,1,8,0:0:0:0:
352,96,48287,1,8,0:0:0:0:
160,96,48390,1,0,0:0:0:0:
160,96,48494,1,0,0:0:0:0:
352,96,48597,1,8,0:0:0:0:
352,96,48666,1,8,0:0:0:0:
352,96,48735,1,8,0:0:0:0:
352,96,48804,1,8,0:0:0:0:
160,96,48873,1,0,0:0:0:0:
160,96,48942,1,0,0:0:0:0:
352,96,49011,1,8,0:0:0:0:
160,96,49080,1,0,0:0:0:0:
352,96,49149,1,8,0:0:0:0:
352,96,49218,1,8,0:0:0:0:
352,96,49287,1,8,0:0:0:0:
352,96,49356,1,8,0:0:0:0:
160,288,49425,1,4,0:0:0:0:
160,96,50666,1,0,0:0:0:0:
352,96,50735,1,8,0:0:0:0:
352,96,50804,1,8,0:0:0:0:
352,96,50873,1,8,0:0:0:0:
352,96,50942,1,8,0:0:0:0:
352,96,51011,1,8,0:0:0:0:
160,96,51080,1,0,0:0:0:0:
352,96,51286,1,8,0:0:0:0:
352,96,51390,1,8,0:0:0:0:
160,96,51597,1,0,0:0:0:0:
352,96,51700,1,8,0:0:0:0:
160,96,51804,1,0,0:0:0:0:
160,96,51907,1,0,0:0:0:0:
160,96,52011,1,0,0:0:0:0:
352,96,52114,1,8,0:0:0:0:
352,96,52217,1,8,0:0:0:0:
160,96,52321,1,0,0:0:0:0:
352,96,52528,1,8,0:0:0:0:
160,96,52631,1,0,0:0:0:0:
160,96,52838,1,0,0:0:0:0:
352,96,52942,1,8,0:0:0:0:
160,96,53045,1,0,0:0:0:0:
160,96,53148,1,0,0:0:0:0:
160,96,53252,1,0,0:0:0:0:
352,96,53355,1,8,0:0:0:0:
352,96,53424,1,8,0:0:0:0:
352,96,53493,1,8,0:0:0:0:
160,96,53562,1,0,0:0:0:0:
160,96,53666,1,0,0:0:0:0:
352,96,53769,1,8,0:0:0:0:
352,96,53873,1,8,0:0:0:0:
160,96,53976,1,0,0:0:0:0:
352,96,54080,1,8,0:0:0:0:
352,96,54183,1,8,0:0:0:0:
160,96,54286,1,0,0:0:0:0:
352,96,54390,1,8,0:0:0:0:
160,96,54493,1,0,0:0:0:0:
352,96,54597,1,8,0:0:0:0:
352,96,54700,1,8,0:0:0:0:
160,96,54804,1,0,0:0:0:0:
352,96,54907,1,8,0:0:0:0:
352,96,55011,1,8,0:0:0:0:
352,96,55114,1,8,0:0:0:0:
160,96,55217,1,0,0:0:0:0:
352,96,55321,1,8,0:0:0:0:
160,96,55424,1,0,0:0:0:0:
352,96,55528,1,8,0:0:0:0:
352,96,55631,1,8,0:0:0:0:
160,96,55735,1,0,0:0:0:0:
352,96,55838,1,8,0:0:0:0:
352,96,55942,1,8,0:0:0:0:
160,96,56045,1,0,0:0:0:0:
352,96,56252,1,8,0:0:0:0:
352,96,56355,1,8,0:0:0:0:
160,96,56562,1,0,0:0:0:0:
352,96,56666,1,8,0:0:0:0:
160,96,56769,1,0,0:0:0:0:
160,96,56873,1,0,0:0:0:0:
160,96,56976,1,0,0:0:0:0:
352,96,57080,1,8,0:0:0:0:
352,96,57183,1,8,0:0:0:0:
160,96,57286,1,0,0:0:0:0:
352,96,57493,1,8,0:0:0:0:
160,96,57597,1,0,0:0:0:0:
160,96,57804,1,0,0:0:0:0:
352,96,57907,1,8,0:0:0:0:
352,96,58011,1,8,0:0:0:0:
160,96,58114,1,0,0:0:0:0:
352,96,58217,1,8,0:0:0:0:
160,96,58321,1,0,0:0:0:0:
352,96,58424,1,8,0:0:0:0:
352,96,58528,1,8,0:0:0:0:
160,96,58631,1,0,0:0:0:0:
160,96,58735,1,0,0:0:0:0:
352,96,58838,1,8,0:0:0:0:
352,96,58942,1,8,0:0:0:0:
160,96,59045,1,0,0:0:0:0:
352,96,59148,1,8,0:0:0:0:
160,96,59252,1,0,0:0:0:0:
352,96,59355,1,8,0:0:0:0:
352,96,59459,1,8,0:0:0:0:
160,96,59562,1,0,0:0:0:0:
160,96,59666,1,0,0:0:0:0:
352,96,59769,1,8,0:0:0:0:
160,96,59873,1,0,0:0:0:0:
352,96,59976,1,8,0:0:0:0:
352,96,60028,1,8,0:0:0:0:
352,96,60080,1,8,0:0:0:0:
352,96,60131,1,8,0:0:0:0:
352,96,60183,1,8,0:0:0:0:
352,96,60286,1,8,0:0:0:0:
160,96,60390,1,0,0:0:0:0:
160,96,60493,1,0,0:0:0:0:
352,96,60597,1,8,0:0:0:0:
160,96,60700,1,0,0:0:0:0:
160,96,60804,1,0,0:0:0:0:
352,96,60907,1,8,0:0:0:0:
160,288,61011,1,4,0:0:0:0:
160,96,61217,1,0,0:0:0:0:
160,96,61321,1,0,0:0:0:0:
160,96,61528,1,0,0:0:0:0:
160,96,61735,1,0,0:0:0:0:
352,96,61838,1,8,0:0:0:0:
160,96,61942,1,0,0:0:0:0:
160,96,62045,1,0,0:0:0:0:
352,96,62148,1,8,0:0:0:0:
160,96,62252,1,0,0:0:0:0:
160,96,62459,1,0,0:0:0:0:
352,96,62562,1,8,0:0:0:0:
160,96,62769,1,0,0:0:0:0:
160,96,62976,1,0,0:0:0:0:
352,96,63080,1,8,0:0:0:0:
160,96,63183,1,0,0:0:0:0:
352,96,63286,1,8,0:0:0:0:
352,96,63390,1,8,0:0:0:0:
160,96,63493,1,0,0:0:0:0:
160,96,63700,1,0,0:0:0:0:
160,96,63804,1,0,0:0:0:0:
352,96,64011,1,8,0:0:0:0:
160,96,64217,1,0,0:0:0:0:
352,96,64321,1,8,0:0:0:0:
352,96,64424,1,8,0:0:0:0:
160,96,64528,1,0,0:0:0:0:
352,96,64631,1,8,0:0:0:0:
160,96,64735,1,0,0:0:0:0:
352,96,64942,1,8,0:0:0:0:
352,96,64993,1,8,0:0:0:0:
352,96,65045,1,8,0:0:0:0:
352,96,65097,1,8,0:0:0:0:
352,96,65148,1,8,0:0:0:0:
352,96,65252,1,8,0:0:0:0:
352,96,65355,1,8,0:0:0:0:
160,96,65459,1,0,0:0:0:0:
352,96,65562,1,8,0:0:0:0:
160,96,65666,1,0,0:0:0:0:
352,96,65769,1,8,0:0:0:0:
352,96,65873,1,8,0:0:0:0:
160,96,65976,1,0,0:0:0:0:
160,96,66045,1,0,0:0:0:0:
160,96,66114,1,0,0:0:0:0:
352,96,66183,1,8,0:0:0:0:
160,96,66252,1,0,0:0:0:0:
160,96,66321,1,0,0:0:0:0:
352,96,66390,1,8,0:0:0:0:
352,96,66459,1,8,0:0:0:0:
160,96,66528,1,0,0:0:0:0:
352,96,66597,1,8,0:0:0:0:
160,96,66666,1,0,0:0:0:0:
160,96,66735,1,0,0:0:0:0:
352,96,66804,1,8,0:0:0:0:
352,96,66873,1,8,0:0:0:0:
160,96,66942,1,0,0:0:0:0:
352,96,67011,1,8,0:0:0:0:
160,96,67080,1,0,0:0:0:0:
160,96,67148,1,0,0:0:0:0:
352,96,67217,1,8,0:0:0:0:
160,96,67286,1,0,0:0:0:0:
160,96,67355,1,0,0:0:0:0:
352,96,67424,1,8,0:0:0:0:
352,96,67493,1,8,0:0:0:0:
160,96,67562,1,0,0:0:0:0:
352,96,67631,1,8,0:0:0:0:
160,96,67700,1,0,0:0:0:0:
160,96,67769,1,0,0:0:0:0:
352,96,67838,1,8,0:0:0:0:
352,96,67907,1,8,0:0:0:0:
160,96,67976,1,0,0:0:0:0:
352,96,68045,1,8,0:0:0:0:
160,96,68114,1,0,0:0:0:0:
160,96,68183,1,0,0:0:0:0:
352,96,68252,1,8,0:0:0:0:
352,96,68321,1,8,0:0:0:0:
352,96,68390,1,8,0:0:0:0:
160,96,68459,1,0,0:0:0:0:
160,96,68528,1,0,0:0:0:0:
160,96,68597,1,0,0:0:0:0:
352,96,68666,1,8,0:0:0:0:
352,96,68735,1,8,0:0:0:0:
160,96,68804,1,0,0:0:0:0:
352,96,68873,1,8,0:0:0:0:
352,96,68942,1,8,0:0:0:0:
160,96,69011,1,0,0:0:0:0:
352,96,69080,1,8,0:0:0:0:
160,96,69148,1,0,0:0:0:0:
160,96,69217,1,0,0:0:0:0:
352,96,69286,1,8,0:0:0:0:
352,96,69355,1,8,0:0:0:0:
160,96,69424,1,0,0:0:0:0:
352,96,69493,1,8,0:0:0:0:
352,96,69562,1,8,0:0:0:0:
160,96,69631,1,0,0:0:0:0:
352,96,69700,1,8,0:0:0:0:
160,96,69804,1,0,0:0:0:0:
352,96,69907,1,8,0:0:0:0:
352,96,69976,1,8,0:0:0:0:
160,96,70045,1,0,0:0:0:0:
352,96,70114,1,8,0:0:0:0:
160,96,70217,1,0,0:0:0:0:
352,96,70321,1,8,0:0:0:0:
352,96,70390,1,8,0:0:0:0:
160,96,70459,1,0,0:0:0:0:
352,96,70528,1,8,0:0:0:0:
352,96,70631,1,8,0:0:0:0:
160,96,70735,1,0,0:0:0:0:
160,96,70838,1,0,0:0:0:0:
352,96,70942,1,8,0:0:0:0:
160,96,71148,1,0,0:0:0:0:
352,96,71252,1,8,0:0:0:0:
160,96,71459,1,0,0:0:0:0:
160,96,71666,1,0,0:0:0:0:
352,96,71769,1,8,0:0:0:0:
160,96,71873,1,0,0:0:0:0:
160,96,71976,1,0,0:0:0:0:
352,96,72080,1,8,0:0:0:0:
352,96,72183,1,8,0:0:0:0:
160,96,72390,1,0,0:0:0:0:
160,96,72493,1,0,0:0:0:0:
352,96,72700,1,8,0:0:0:0:
160,96,72907,1,0,0:0:0:0:
352,96,73011,1,8,0:0:0:0:
160,96,73114,1,0,0:0:0:0:
352,96,73217,1,8,0:0:0:0:
352,96,73269,1,8,0:0:0:0:
352,96,73321,1,8,0:0:0:0:
352,96,73373,1,8,0:0:0:0:
160,96,73424,1,0,0:0:0:0:
160,96,73631,1,0,0:0:0:0:
352,96,73735,1,8,0:0:0:0:
352,96,73942,1,8,0:0:0:0:
160,96,74148,1,0,0:0:0:0:
352,96,74252,1,8,0:0:0:0:
352,96,74355,1,8,0:0:0:0:
160,96,74459,1,0,0:0:0:0:
352,96,74562,1,8,0:0:0:0:
352,96,74666,1,8,0:0:0:0:
352,96,74769,1,8,0:0:0:0:
160,96,74873,1,0,0:0:0:0:
160,96,74976,1,0,0:0:0:0:
352,96,75080,1,8,0:0:0:0:
352,96,75183,1,8,0:0:0:0:
160,96,75286,1,0,0:0:0:0:
160,96,75390,1,0,0:0:0:0:
352,96,75493,1,8,0:0:0:0:
352,96,75562,1,8,0:0:0:0:
352,96,75631,1,8,0:0:0:0:
160,96,75700,1,0,0:0:0:0:
160,96,75769,1,0,0:0:0:0:
160,96,75838,1,0,0:0:0:0:
352,96,75907,1,8,0:0:0:0:
160,96,76114,1,0,0:0:0:0:
352,96,76217,1,8,0:0:0:0:
160,96,76321,1,0,0:0:0:0:
352,96,76424,1,8,0:0:0:0:
160,96,76528,1,0,0:0:0:0:
160,96,76631,1,0,0:0:0:0:
352,96,76735,1,8,0:0:0:0:
160,96,76838,1,0,0:0:0:0:
352,96,76942,1,8,0:0:0:0:
160,96,77045,1,0,0:0:0:0:
352,96,77148,1,8,0:0:0:0:
160,96,77252,1,0,0:0:0:0:
352,96,77355,1,8,0:0:0:0:
352,96,77459,1,8,0:0:0:0:
160,96,77562,1,0,0:0:0:0:
352,96,77666,1,8,0:0:0:0:
160,96,77769,1,0,0:0:0:0:
352,96,77873,1,8,0:0:0:0:
352,96,77976,1,8,0:0:0:0:
160,96,78080,1,0,0:0:0:0:
352,96,78183,1,8,0:0:0:0:
160,96,78286,1,0,0:0:0:0:
352,96,78390,1,8,0:0:0:0:
160,96,78493,1,0,0:0:0:0:
352,96,78597,1,8,0:0:0:0:
352,96,78700,1,8,0:0:0:0:
160,96,78804,1,0,0:0:0:0:
352,96,78907,1,8,0:0:0:0:
160,96,79011,1,0,0:0:0:0:
352,96,79114,1,8,0:0:0:0:
352,96,79217,1,8,0:0:0:0:
352,96,79321,1,8,0:0:0:0:
160,96,79424,1,0,0:0:0:0:
160,96,79528,1,0,0:0:0:0:
352,96,79631,1,8,0:0:0:0:
352,96,79700,1,8,0:0:0:0:
160,96,79769,1,0,0:0:0:0:
352,96,79838,1,8,0:0:0:0:
160,96,79907,1,0,0:0:0:0:
160,96,79976,1,0,0:0:0:0:
352,96,80045,1,8,0:0:0:0:
352,96,80114,1,8,0:0:0:0:
160,96,80183,1,0,0:0:0:0:
352,96,80252,1,8,0:0:0:0:
160,96,80321,1,0,0:0:0:0:
160,96,80390,1,0,0:0:0:0:
352,96,80459,1,8,0:0:0:0:
160,96,80562,1,0,0:0:0:0:
160,96,80666,1,0,0:0:0:0:
160,96,80873,1,0,0:0:0:0:
160,96,80976,1,0,0:0:0:0:
352,96,81079,1,8,0:0:0:0:
160,96,81183,1,0,0:0:0:0:
352,96,81286,1,8,0:0:0:0:
160,96,81390,1,0,0:0:0:0:
352,96,81493,1,8,0:0:0:0:
352,96,81597,1,8,0:0:0:0:
160,96,81700,1,0,0:0:0:0:
160,96,81726,1,0,0:0:0:0:
160,96,81804,1,0,0:0:0:0:
160,96,81829,1,0,0:0:0:0:
160,96,81907,1,0,0:0:0:0:
160,96,81933,1,0,0:0:0:0:
160,96,82010,1,0,0:0:0:0:
160,96,82036,1,0,0:0:0:0:
352,96,82114,1,8,0:0:0:0:
352,96,82140,1,8,0:0:0:0:
352,96,82217,1,8,0:0:0:0:
352,96,82243,1,8,0:0:0:0:
352,96,82321,1,8,0:0:0:0:
352,96,82347,1,8,0:0:0:0:
352,96,82424,1,8,0:0:0:0:
352,96,82450,1,8,0:0:0:0:
160,288,82528,1,4,0:0:0:0:
160,96,82838,1,0,0:0:0:0:
160,96,83148,1,0,0:0:0:0:
352,96,83355,1,8,0:0:0:0:
160,96,83459,1,0,0:0:0:0:
352,96,83665,1,8,0:0:0:0:
352,96,83717,1,8,0:0:0:0:
160,96,83769,1,0,0:0:0:0:
160,96,84079,1,0,0:0:0:0:
160,96,84390,1,0,0:0:0:0:
352,96,84596,1,8,0:0:0:0:
160,96,84700,1,0,0:0:0:0:
352,96,84907,1,8,0:0:0:0:
160,96,85010,1,0,0:0:0:0:
160,96,85114,1,0,0:0:0:0:
352,96,85217,1,8,0:0:0:0:
352,96,85321,1,8,0:0:0:0:
352,96,85424,1,8,0:0:0:0:
160,96,85528,1,0,0:0:0:0:
160,96,85734,1,0,0:0:0:0:
160,96,85838,1,0,0:0:0:0:
160,96,86148,1,0,0:0:0:0:
160,96,86459,1,0,0:0:0:0:
352,96,86665,1,8,0:0:0:0:
160,96,86769,1,0,0:0:0:0:
160,96,86976,1,0,0:0:0:0:
160,96,87028,1,0,0:0:0:0:
160,96,87079,1,0,0:0:0:0:
160,96,87390,1,0,0:0:0:0:
160,96,87700,1,0,0:0:0:0:
160,96,87803,1,0,0:0:0:0:
352,96,87907,1,8,0:0:0:0:
160,96,88010,1,0,0:0:0:0:
352,96,88217,1,8,0:0:0:0:
160,96,88321,1,0,0:0:0:0:
160,96,88424,1,0,0:0:0:0:
352,96,88528,1,8,0:0:0:0:
352,96,88579,1,8,0:0:0:0:
352,96,88631,1,8,0:0:0:0:
352,96,88683,1,8,0:0:0:0:
352,96,88734,1,8,0:0:0:0:
160,96,88838,1,0,0:0:0:0:
352,96,88941,1,8,0:0:0:0:
352,96,89045,1,8,0:0:0:0:
160,96,89148,1,0,0:0:0:0:
352,96,89252,1,8,0:0:0:0:
160,96,89355,1,0,0:0:0:0:
352,96,89459,1,8,0:0:0:0:
160,96,89562,1,0,0:0:0:0:
160,96,89665,1,0,0:0:0:0:
160,96,89769,1,0,0:0:0:0:
160,96,89872,1,0,0:0:0:0:
352,288,89976,1,12,0:0:0:0:
352,96,90286,1,8,0:0:0:0:
352,96,90338,1,8,0:0:0:0:
352,96,90390,1,8,0:0:0:0:
160,96,90700,1,0,0:0:0:0:
160,96,91010,1,0,0:0:0:0:
352,96,91217,1,8,0:0:0:0:
160,96,91321,1,0,0:0:0:0:
352,96,91528,1,8,0:0:0:0:
160,96,91631,1,0,0:0:0:0:
160,96,91734,1,0,0:0:0:0:
160,96,91838,1,0,0:0:0:0:
352,96,91941,1,8,0:0:0:0:
352,96,92045,1,8,0:0:0:0:
160,96,92148,1,0,0:0:0:0:
160,96,92459,1,0,0:0:0:0:
160,96,92769,1,0,0:0:0:0:
160,96,93079,1,0,0:0:0:0:
352,96,93286,1,8,0:0:0:0:
160,96,93493,1,0,0:0:0:0:
160,96,93562,1,0,0:0:0:0:
160,96,93631,1,0,0:0:0:0:
352,96,93700,1,8,0:0:0:0:
160,96,93907,1,0,0:0:0:0:
352,96,94114,1,8,0:0:0:0:
160,96,94183,1,0,0:0:0:0:
160,96,94252,1,0,0:0:0:0:
160,96,94321,1,0,0:0:0:0:
160,96,94390,1,0,0:0:0:0:
160,96,94459,1,0,0:0:0:0:
352,96,94528,1,8,0:0:0:0:
352,96,94596,1,8,0:0:0:0:
160,96,94665,1,0,0:0:0:0:
160,96,94734,1,0,0:0:0:0:
160,96,94803,1,0,0:0:0:0:
160,96,94872,1,0,0:0:0:0:
352,96,94941,1,8,0:0:0:0:
352,96,95010,1,8,0:0:0:0:
352,96,95079,1,8,0:0:0:0:
160,96,95148,1,0,0:0:0:0:
160,96,95217,1,0,0:0:0:0:
160,96,95286,1,0,0:0:0:0:
352,96,95355,1,8,0:0:0:0:
352,96,95424,1,8,0:0:0:0:
160,96,95493,1,0,0:0:0:0:
160,96,95562,1,0,0:0:0:0:
160,96,95631,1,0,0:0:0:0:
160,96,95700,1,0,0:0:0:0:
352,96,95769,1,8,0:0:0:0:
160,96,95872,1,0,0:0:0:0:
160,96,96079,1,0,0:0:0:0:
160,96,96389,1,0,0:0:0:0:
352,96,96596,1,8,0:0:0:0:
160,96,96700,1,0,0:0:0:0:
352,96,96906,1,8,0:0:0:0:
352,96,96958,1,8,0:0:0:0:
160,96,97010,1,0,0:0:0:0:
160,96,97217,1,0,0:0:0:0:
160,96,97320,1,0,0:0:0:0:
160,96,97631,1,0,0:0:0:0:
352,96,97837,1,8,0:0:0:0:
160,96,97941,1,0,0:0:0:0:
352,96,98148,1,8,0:0:0:0:
160,96,98251,1,0,0:0:0:0:
160,96,98355,1,0,0:0:0:0:
352,96,98458,1,8,0:0:0:0:
352,96,98562,1,8,0:0:0:0:
352,96,98665,1,8,0:0:0:0:
160,96,98769,1,0,0:0:0:0:
160,96,98975,1,0,0:0:0:0:
160,96,99079,1,0,0:0:0:0:
160,96,99183,1,0,0:0:0:0:
160,96,99389,1,0,0:0:0:0:
160,96,99700,1,0,0:0:0:0:
352,96,99906,1,8,0:0:0:0:
160,96,100010,1,0,0:0:0:0:
160,96,100217,1,0,0:0:0:0:
160,96,100269,1,0,0:0:0:0:
160,96,100320,1,0,0:0:0:0:
160,96,100528,1,0,0:0:0:0:
160,96,100631,1,0,0:0:0:0:
160,96,100941,1,0,0:0:0:0:
160,96,101044,1,0,0:0:0:0:
352,96,101148,1,8,0:0:0:0:
160,96,101251,1,0,0:0:0:0:
352,96,101458,1,8,0:0:0:0:
160,96,101562,1,0,0:0:0:0:
160,96,101665,1,0,0:0:0:0:
352,96,101769,1,8,0:0:0:0:
352,96,101820,1,8,0:0:0:0:
352,96,101872,1,8,0:0:0:0:
352,96,101924,1,8,0:0:0:0:
352,96,101975,1,8,0:0:0:0:
160,96,102079,1,0,0:0:0:0:
352,96,102182,1,8,0:0:0:0:
352,96,102286,1,8,0:0:0:0:
160,96,102389,1,0,0:0:0:0:
352,96,102493,1,8,0:0:0:0:
160,96,102596,1,0,0:0:0:0:
352,96,102700,1,8,0:0:0:0:
160,96,102803,1,0,0:0:0:0:
160,96,102906,1,0,0:0:0:0:
160,96,103010,1,0,0:0:0:0:
160,96,103113,1,0,0:0:0:0:
352,288,103217,1,12,0:0:0:0:
352,96,103527,1,8,0:0:0:0:
352,96,103579,1,8,0:0:0:0:
352,96,103631,1,8,0:0:0:0:
160,96,103838,1,0,0:0:0:0:
160,96,103941,1,0,0:0:0:0:
160,96,104251,1,0,0:0:0:0:
352,96,104458,1,8,0:0:0:0:
160,96,104562,1,0,0:0:0:0:
352,96,104769,1,8,0:0:0:0:
160,96,104872,1,0,0:0:0:0:
160,96,104975,1,0,0:0:0:0:
160,96,105079,1,0,0:0:0:0:
352,96,105182,1,8,0:0:0:0:
352,96,105286,1,8,0:0:0:0:
160,96,105389,1,0,0:0:0:0:
160,96,105596,1,0,0:0:0:0:
160,96,105700,1,0,0:0:0:0:
160,96,106010,1,0,0:0:0:0:
160,96,106114,1,0,0:0:0:0:
160,96,106320,1,0,0:0:0:0:
352,96,106527,1,8,0:0:0:0:
160,96,106734,1,0,0:0:0:0:
160,96,106803,1,0,0:0:0:0:
160,96,106872,1,0,0:0:0:0:
352,96,106941,1,8,0:0:0:0:
160,96,107148,1,0,0:0:0:0:
352,96,107355,1,8,0:0:0:0:
160,96,107424,1,0,0:0:0:0:
160,96,107493,1,0,0:0:0:0:
160,96,107562,1,0,0:0:0:0:
160,96,107631,1,0,0:0:0:0:
160,96,107700,1,0,0:0:0:0:
352,96,107769,1,8,0:0:0:0:
352,96,107837,1,8,0:0:0:0:
160,96,107906,1,0,0:0:0:0:
160,96,107975,1,0,0:0:0:0:
160,96,108044,1,0,0:0:0:0:
160,96,108113,1,0,0:0:0:0:
352,96,108182,1,8,0:0:0:0:
352,96,108251,1,8,0:0:0:0:
352,96,108320,1,8,0:0:0:0:
160,96,108389,1,0,0:0:0:0:
160,96,108458,1,0,0:0:0:0:
160,96,108527,1,0,0:0:0:0:
352,96,108596,1,8,0:0:0:0:
352,96,108665,1,8,0:0:0:0:
160,96,108734,1,0,0:0:0:0:
160,96,108803,1,0,0:0:0:0:
160,96,108872,1,0,0:0:0:0:
160,96,108941,1,0,0:0:0:0:
352,96,109010,1,8,0:0:0:0:
160,96,109217,1,0,0:0:0:0:
352,96,109424,1,8,0:0:0:0:
352,96,109838,1,8,0:0:0:0:
160,96,109941,1,0,0:0:0:0:
160,96,110045,1,0,0:0:0:0:
160,96,110665,1,0,0:0:0:0:
160,96,110872,1,0,0:0:0:0:
352,96,111079,1,8,0:0:0:0:
352,96,111493,1,8,0:0:0:0:
160,96,111596,1,0,0:0:0:0:
160,96,111700,1,0,0:0:0:0:
160,96,111907,1,0,0:0:0:0:
352,96,112114,1,8,0:0:0:0:
352,96,112217,1,8,0:0:0:0:
160,96,112321,1,0,0:0:0:0:
352,96,112734,1,8,0:0:0:0:
160,96,112941,1,0,0:0:0:0:
352,96,113148,1,8,0:0:0:0:
160,96,113252,1,0,0:0:0:0:
160,96,113355,1,0,0:0:0:0:
160,96,113976,1,0,0:0:0:0:
160,96,114183,1,0,0:0:0:0:
352,96,114390,1,8,0:0:0:0:
160,96,114596,1,0,0:0:0:0:
352,96,114803,1,8,0:0:0:0:
160,96,114907,1,0,0:0:0:0:
160,96,115010,1,0,0:0:0:0:
352,96,115217,1,8,0:0:0:0:
160,96,115321,1,0,0:0:0:0:
160,96,115424,1,0,0:0:0:0:
160,96,115528,1,0,0:0:0:0:
160,96,115631,1,0,0:0:0:0:
352,96,116045,1,8,0:0:0:0:
160,96,116252,1,0,0:0:0:0:
352,96,116665,1,8,0:0:0:0:
160,96,116872,1,0,0:0:0:0:
160,96,117286,1,0,0:0:0:0:
352,96,117700,1,8,0:0:0:0:
160,96,117907,1,0,0:0:0:0:
160,96,118114,1,0,0:0:0:0:
352,96,118321,1,8,0:0:0:0:
160,96,118631,1,0,0:0:0:0:
160,96,118734,1,0,0:0:0:0:
160,96,118838,1,0,0:0:0:0:
160,96,118941,1,0,0:0:0:0:
160,96,119148,1,0,0:0:0:0:
352,96,119355,1,8,0:0:0:0:
160,96,119562,1,0,0:0:0:0:
160,96,119665,1,0,0:0:0:0:
160,96,119769,1,0,0:0:0:0:
352,96,119976,1,8,0:0:0:0:
352,96,120079,1,8,0:0:0:0:
160,96,120183,1,0,0:0:0:0:
352,96,120390,1,8,0:0:0:0:
160,96,120596,1,0,0:0:0:0:
160,96,120803,1,0,0:0:0:0:
160,96,120907,1,0,0:0:0:0:
160,96,121010,1,0,0:0:0:0:
160,96,121217,1,0,0:0:0:0:
352,96,121424,1,8,0:0:0:0:
352,96,121528,1,8,0:0:0:0:
160,96,121631,1,0,0:0:0:0:
160,96,121734,1,0,0:0:0:0:
352,96,121838,1,8,0:0:0:0:
352,96,121941,1,8,0:0:0:0:
352,96,122045,1,8,0:0:0:0:
352,96,122148,1,8,0:0:0:0:
160,96,122252,1,0,0:0:0:0:
160,96,122459,1,0,0:0:0:0:
160,96,122562,1,0,0:0:0:0:
352,96,122665,1,8,0:0:0:0:
160,96,122872,1,0,0:0:0:0:
352,96,122976,1,8,0:0:0:0:
160,96,123079,1,0,0:0:0:0:
352,96,123286,1,8,0:0:0:0:
160,96,123493,1,0,0:0:0:0:
352,96,123562,1,8,0:0:0:0:
352,96,123631,1,8,0:0:0:0:
352,96,123700,1,8,0:0:0:0:
160,96,123907,1,0,0:0:0:0:
160,96,124114,1,0,0:0:0:0:
160,96,124217,1,0,0:0:0:0:
352,96,124321,1,8,0:0:0:0:
352,96,124424,1,8,0:0:0:0:
160,96,124528,1,0,0:0:0:0:
352,96,124734,1,8,0:0:0:0:
160,96,124838,1,0,0:0:0:0:
160,96,124941,1,0,0:0:0:0:
352,96,125148,1,8,0:0:0:0:
160,96,125252,1,0,0:0:0:0:
352,96,125355,1,8,0:0:0:0:
352,96,125459,1,8,0:0:0:0:
160,96,125562,1,0,0:0:0:0:
160,96,125769,1,0,0:0:0:0:
160,96,125872,1,0,0:0:0:0:
352,96,125976,1,8,0:0:0:0:
160,96,126183,1,0,0:0:0:0:
160,96,126286,1,0,0:0:0:0:
160,96,126390,1,0,0:0:0:0:
352,96,126493,1,8,0:0:0:0:
352,96,126596,1,8,0:0:0:0:
160,96,126803,1,0,0:0:0:0:
160,96,126907,1,0,0:0:0:0:
160,96,127010,1,0,0:0:0:0:
160,96,127217,1,0,0:0:0:0:
352,96,127321,1,8,0:0:0:0:
160,96,127424,1,0,0:0:0:0:
352,96,127631,1,8,0:0:0:0:
160,96,127734,1,0,0:0:0:0:
352,96,127838,1,8,0:0:0:0:
352,96,127941,1,8,0:0:0:0:
160,96,128045,1,0,0:0:0:0:
160,96,128148,1,0,0:0:0:0:
160,96,128252,1,0,0:0:0:0:
160,96,128355,1,0,0:0:0:0:
352,96,128459,1,8,0:0:0:0:
160,96,128562,1,0,0:0:0:0:
160,96,128665,1,0,0:0:0:0:
160,96,128769,1,0,0:0:0:0:
160,96,128872,1,0,0:0:0:0:
160,96,129079,1,0,0:0:0:0:
160,96,129183,1,0,0:0:0:0:
352,96,129286,1,8,0:0:0:0:
160,96,129493,1,0,0:0:0:0:
160,96,129596,1,0,0:0:0:0:
352,96,129700,1,8,0:0:0:0:
160,96,129803,1,0,0:0:0:0:
160,96,129907,1,0,0:0:0:0:
352,96,130114,1,8,0:0:0:0:
160,96,130321,1,0,0:0:0:0:
160,96,130528,1,0,0:0:0:0:
352,96,130631,1,8,0:0:0:0:
352,96,130734,1,8,0:0:0:0:
352,96,130786,1,8,0:0:0:0:
352,96,130838,1,8,0:0:0:0:
352,96,130890,1,8,0:0:0:0:
352,96,130941,1,8,0:0:0:0:
352,96,131045,1,8,0:0:0:0:
352,96,131148,1,8,0:0:0:0:
352,96,131252,1,8,0:0:0:0:
352,96,131355,1,8,0:0:0:0:
160,96,131459,1,0,0:0:0:0:
160,96,131562,1,0,0:0:0:0:
160,96,131769,1,0,0:0:0:0:
160,96,131872,1,0,0:0:0:0:
352,96,131976,1,8,0:0:0:0:
352,96,132079,1,8,0:0:0:0:
160,96,132183,1,0,0:0:0:0:
352,96,132390,1,8,0:0:0:0:
160,96,132493,1,0,0:0:0:0:
352,96,132596,1,8,0:0:0:0:
160,96,132803,1,0,0:0:0:0:
160,96,132907,1,0,0:0:0:0:
160,96,133010,1,0,0:0:0:0:
160,96,133114,1,0,0:0:0:0:
352,96,133217,1,8,0:0:0:0:
160,96,133424,1,0,0:0:0:0:
352,96,133528,1,8,0:0:0:0:
352,96,133631,1,8,0:0:0:0:
160,96,133734,1,0,0:0:0:0:
160,96,133838,1,0,0:0:0:0:
160,96,134045,1,0,0:0:0:0:
352,96,134252,1,8,0:0:0:0:
160,96,134459,1,0,0:0:0:0:
160,96,134562,1,0,0:0:0:0:
352,96,134665,1,8,0:0:0:0:
160,96,134769,1,0,0:0:0:0:
160,96,134872,1,0,0:0:0:0:
160,96,134976,1,0,0:0:0:0:
352,96,135079,1,8,0:0:0:0:
352,96,135183,1,8,0:0:0:0:
352,96,135286,1,8,0:0:0:0:
352,96,135390,1,8,0:0:0:0:
160,288,135493,1,4,0:0:0:0:
160,96,135700,1,0,0:0:0:0:
160,96,135803,1,0,0:0:0:0:
160,96,136010,1,0,0:0:0:0:
160,96,136114,1,0,0:0:0:0:
352,96,136321,1,8,0:0:0:0:
160,96,136528,1,0,0:0:0:0:
352,96,136734,1,8,0:0:0:0:
352,96,136838,1,8,0:0:0:0:
160,96,136941,1,0,0:0:0:0:
352,96,137148,1,8,0:0:0:0:
160,96,137252,1,0,0:0:0:0:
160,96,137459,1,0,0:0:0:0:
160,96,137665,1,0,0:0:0:0:
160,96,137872,1,0,0:0:0:0:
352,96,137976,1,8,0:0:0:0:
160,96,138183,1,0,0:0:0:0:
160,96,138390,1,0,0:0:0:0:
160,96,138493,1,0,0:0:0:0:
160,96,138596,1,0,0:0:0:0:
352,96,138803,1,8,0:0:0:0:
160,96,139010,1,0,0:0:0:0:
160,96,139113,1,0,0:0:0:0:
160,96,139321,1,0,0:0:0:0:
160,96,139424,1,0,0:0:0:0:
352,96,139631,1,8,0:0:0:0:
160,96,139838,1,0,0:0:0:0:
160,96,140044,1,0,0:0:0:0:
352,96,140148,1,8,0:0:0:0:
160,96,140251,1,0,0:0:0:0:
352,96,140458,1,8,0:0:0:0:
160,96,140562,1,0,0:0:0:0:
160,96,140769,1,0,0:0:0:0:
352,96,140975,1,8,0:0:0:0:
160,96,141182,1,0,0:0:0:0:
352,96,141286,1,8,0:0:0:0:
160,96,141493,1,0,0:0:0:0:
352,96,141700,1,8,0:0:0:0:
160,96,141803,1,0,0:0:0:0:
160,96,141906,1,0,0:0:0:0:
352,96,142010,1,8,0:0:0:0:
160,96,142114,1,0,0:0:0:0:
352,96,142321,1,8,0:0:0:0:
352,96,142424,1,8,0:0:0:0:
160,96,142631,1,0,0:0:0:0:
160,96,142734,1,0,0:0:0:0:
352,96,142941,1,8,0:0:0:0:
160,96,143045,1,0,0:0:0:0:
160,96,143148,1,0,0:0:0:0:
352,96,143355,1,8,0:0:0:0:
352,96,143459,1,8,0:0:0:0:
160,96,143562,1,0,0:0:0:0:
352,96,143769,1,8,0:0:0:0:
160,96,143872,1,0,0:0:0:0:
160,96,144079,1,0,0:0:0:0:
352,96,144286,1,8,0:0:0:0:
160,96,144390,1,0,0:0:0:0:
160,96,144493,1,0,0:0:0:0:
352,96,144596,1,8,0:0:0:0:
160,96,144803,1,0,0:0:0:0:
352,96,144907,1,8,0:0:0:0:
160,96,145010,1,0,0:0:0:0:
160,96,145114,1,0,0:0:0:0:
352,96,145217,1,8,0:0:0:0:
352,96,145321,1,8,0:0:0:0:
160,96,145424,1,0,0:0:0:0:
352,96,145528,1,8,0:0:0:0:
160,96,145631,1,0,0:0:0:0:
160,96,145734,1,0,0:0:0:0:
160,96,145941,1,0,0:0:0:0:
160,96,146045,1,0,0:0:0:0:
352,96,146252,1,8,0:0:0:0:
352,96,146459,1,8,0:0:0:0:
352,96,146562,1,8,0:0:0:0:
160,96,146665,1,0,0:0:0:0:
352,96,146769,1,8,0:0:0:0:
160,96,146872,1,0,0:0:0:0:
352,96,146976,1,8,0:0:0:0:
160,288,147079,1,4,0:0:0:0:
352,96,147286,1,8,0:0:0:0:
352,96,147338,1,8,0:0:0:0:
352,96,147390,1,8,0:0:0:0:
352,96,147441,1,8,0:0:0:0:
352,96,147493,1,8,0:0:0:0:
352,96,147596,1,8,0:0:0:0:
160,96,147700,1,0,0:0:0:0:
160,96,147769,1,0,0:0:0:0:
160,96,147838,1,0,0:0:0:0:
352,96,147907,1,8,0:0:0:0:
352,96,147976,1,8,0:0:0:0:
352,96,148045,1,8,0:0:0:0:
160,96,148114,1,0,0:0:0:0:
160,96,148183,1,0,0:0:0:0:
160,96,148252,1,0,0:0:0:0:
352,96,148321,1,8,0:0:0:0:
160,96,148424,1,0,0:0:0:0:
352,96,148528,1,8,0:0:0:0:
352,96,148631,1,8,0:0:0:0:
160,288,148734,1,4,0:0:0:0:
160,96,148941,1,0,0:0:0:0:
160,96,149045,1,0,0:0:0:0:
352,96,149252,1,8,0:0:0:0:
160,96,149355,1,0,0:0:0:0:
160,96,149459,1,0,0:0:0:0:
352,96,149562,1,8,0:0:0:0:
160,96,149769,1,0,0:0:0:0:
352,96,149872,1,8,0:0:0:0:
160,96,149976,1,0,0:0:0:0:
160,96,150079,1,0,0:0:0:0:
352,96,150183,1,8,0:0:0:0:
352,96,150286,1,8,0:0:0:0:
352,96,150493,1,8,0:0:0:0:
352,96,150596,1,8,0:0:0:0:
352,96,150700,1,8,0:0:0:0:
160,96,150803,1,0,0:0:0:0:
352,96,150907,1,8,0:0:0:0:
352,96,151010,1,8,0:0:0:0:
160,96,151114,1,0,0:0:0:0:
352,96,151217,1,8,0:0:0:0:
160,96,151321,1,0,0:0:0:0:
352,96,151424,1,8,0:0:0:0:
352,96,151476,1,8,0:0:0:0:
352,96,151528,1,8,0:0:0:0:
160,96,151631,1,0,0:0:0:0:
352,96,151734,1,8,0:0:0:0:
160,96,151838,1,0,0:0:0:0:
160,96,151941,1,0,0:0:0:0:
352,96,152045,1,8,0:0:0:0:
160,96,152252,1,0,0:0:0:0:
352,96,152355,1,8,0:0:0:0:
160,96,152459,1,0,0:0:0:0:
352,96,152562,1,8,0:0:0:0:
160,96,152665,1,0,0:0:0:0:
352,96,152872,1,8,0:0:0:0:
352,96,152976,1,8,0:0:0:0:
160,96,153079,1,0,0:0:0:0:
352,96,153286,1,8,0:0:0:0:
160,96,153390,1,0,0:0:0:0:
160,96,153493,1,0,0:0:0:0:
160,96,153596,1,0,0:0:0:0:
352,96,153700,1,8,0:0:0:0:
352,96,153752,1,8,0:0:0:0:
352,96,153803,1,8,0:0:0:0:
352,96,153855,1,8,0:0:0:0:
160,96,153907,1,0,0:0:0:0:
160,96,153959,1,0,0:0:0:0:
160,96,154010,1,0,0:0:0:0:
160,96,154062,1,0,0:0:0:0:
352,96,154114,1,8,0:0:0:0:
352,96,154165,1,8,0:0:0:0:
352,96,154217,1,8,0:0:0:0:
352,96,154269,1,8,0:0:0:0:
160,96,154321,1,0,0:0:0:0:
160,96,154372,1,0,0:0:0:0:
160,96,154424,1,0,0:0:0:0:
160,96,154476,1,0,0:0:0:0:
352,96,154528,1,8,0:0:0:0:
352,96,154579,1,8,0:0:0:0:
160,96,154631,1,0,0:0:0:0:
160,96,154683,1,0,0:0:0:0:
352,96,154734,1,8,0:0:0:0:
160,96,154786,1,0,0:0:0:0:
160,96,154838,1,0,0:0:0:0:
160,96,154890,1,0,0:0:0:0:
352,96,154941,1,8,0:0:0:0:
160,96,155148,1,0,0:0:0:0:
352,288,155355,1,12,0:0:0:0:
160,96,155562,1,0,0:0:0:0:
160,96,155665,1,0,0:0:0:0:
160,96,155872,1,0,0:0:0:0:
352,96,155976,1,8,0:0:0:0:
352,96,156183,1,8,0:0:0:0:
160,96,156286,1,0,0:0:0:0:
160,96,156390,1,0,0:0:0:0:
160,96,156596,1,0,0:0:0:0:
352,96,156700,1,8,0:0:0:0:
352,96,156803,1,8,0:0:0:0:
160,96,156907,1,0,0:0:0:0:
352,96,157010,1,8,0:0:0:0:
160,96,157114,1,0,0:0:0:0:
160,96,157321,1,0,0:0:0:0:
352,96,157424,1,8,0:0:0:0:
160,96,157528,1,0,0:0:0:0:
160,96,157734,1,0,0:0:0:0:
352,96,157838,1,8,0:0:0:0:
160,96,158045,1,0,0:0:0:0:
160,96,158252,1,0,0:0:0:0:
160,96,158355,1,0,0:0:0:0:
160,96,158459,1,0,0:0:0:0:
160,96,158562,1,0,0:0:0:0:
352,96,158665,1,8,0:0:0:0:
160,96,158872,1,0,0:0:0:0:
160,96,158976,1,0,0:0:0:0:
352,96,159183,1,8,0:0:0:0:
160,96,159286,1,0,0:0:0:0:
352,96,159493,1,8,0:0:0:0:
160,96,159700,1,0,0:0:0:0:
352,96,159907,1,8,0:0:0:0:
352,96,160010,1,8,0:0:0:0:
352,96,160114,1,8,0:0:0:0:
352,96,160217,1,8,0:0:0:0:
160,96,160321,1,0,0:0:0:0:
352,96,160390,1,8,0:0:0:0:
352,96,160459,1,8,0:0:0:0:
352,96,160528,1,8,0:0:0:0:
352,96,160596,1,8,0:0:0:0:
352,96,160665,1,8,0:0:0:0:
160,96,160734,1,0,0:0:0:0:
160,96,160803,1,0,0:0:0:0:
352,96,160872,1,8,0:0:0:0:
352,96,160941,1,8,0:0:0:0:
352,96,161010,1,8,0:0:0:0:
352,96,161079,1,8,0:0:0:0:
160,96,161148,1,0,0:0:0:0:
160,96,161217,1,0,0:0:0:0:
352,96,161286,1,8,0:0:0:0:
352,96,161355,1,8,0:0:0:0:
352,96,161424,1,8,0:0:0:0:
352,96,161493,1,8,0:0:0:0:
160,96,161562,1,0,0:0:0:0:
352,96,161631,1,8,0:0:0:0:
352,96,161700,1,8,0:0:0:0:
160,96,161769,1,0,0:0:0:0:
160,96,161838,1,0,0:0:0:0:
160,96,161907,1,0,0:0:0:0:
352,288,161976,1,12,0:0:0:0:
160,96,162183,1,0,0:0:0:0:
352,96,162286,1,8,0:0:0:0:
352,96,162493,1,8,0:0:0:0:
160,96,162700,1,0,0:0:0:0:
352,96,162803,1,8,0:0:0:0:
160,96,162907,1,0,0:0:0:0:
352,96,163010,1,8,0:0:0:0:
352,96,163217,1,8,0:0:0:0:
160,96,163424,1,0,0:0:0:0:
160,96,163528,1,0,0:0:0:0:
160,96,163631,1,0,0:0:0:0:
352,96,163734,1,8,0:0:0:0:
352,96,163941,1,8,0:0:0:0:
352,96,164148,1,8,0:0:0:0:
160,96,164252,1,0,0:0:0:0:
160,96,164355,1,0,0:0:0:0:
352,96,164459,1,8,0:0:0:0:
352,96,164665,1,8,0:0:0:0:
160,96,164872,1,0,0:0:0:0:
160,96,164941,1,0,0:0:0:0:
160,96,165010,1,0,0:0:0:0:
352,96,165079,1,8,0:0:0:0:
160,96,165286,1,0,0:0:0:0:
160,96,165390,1,0,0:0:0:0:
160,96,165493,1,0,0:0:0:0:
352,96,165596,1,8,0:0:0:0:
352,96,165803,1,8,0:0:0:0:
160,96,166010,1,0,0:0:0:0:
352,96,166114,1,8,0:0:0:0:
352,96,166217,1,8,0:0:0:0:
160,96,166321,1,0,0:0:0:0:
352,96,166528,1,8,0:0:0:0:
160,96,166734,1,0,0:0:0:0:
160,96,166838,1,0,0:0:0:0:
352,96,166941,1,8,0:0:0:0:
352,96,167045,1,8,0:0:0:0:
352,96,167252,1,8,0:0:0:0:
160,96,167459,1,0,0:0:0:0:
352,96,167562,1,8,0:0:0:0:
160,96,167665,1,0,0:0:0:0:
352,96,167769,1,8,0:0:0:0:
352,96,167976,1,8,0:0:0:0:
160,96,168079,1,0,0:0:0:0:
352,96,168183,1,8,0:0:0:0:
352,96,168286,1,8,0:0:0:0:
352,96,168390,1,8,0:0:0:0:
352,96,168493,1,8,0:0:0:0:
160,288,168596,1,4,0:0:0:0:
160,96,168803,1,0,0:0:0:0:
352,96,168907,1,8,0:0:0:0:
352,96,169114,1,8,0:0:0:0:
160,96,169321,1,0,0:0:0:0:
352,96,169424,1,8,0:0:0:0:
352,96,169528,1,8,0:0:0:0:
352,96,169631,1,8,0:0:0:0:
160,96,169838,1,0,0:0:0:0:
352,96,170045,1,8,0:0:0:0:
160,96,170148,1,0,0:0:0:0:
352,96,170252,1,8,0:0:0:0:
352,96,170355,1,8,0:0:0:0:
352,96,170562,1,8,0:0:0:0:
160,96,170769,1,0,0:0:0:0:
160,96,170872,1,0,0:0:0:0:
160,96,170976,1,0,0:0:0:0:
352,96,171079,1,8,0:0:0:0:
352,96,171286,1,8,0:0:0:0:
160,96,171493,1,0,0:0:0:0:
160,96,171562,1,0,0:0:0:0:
160,96,171631,1,0,0:0:0:0:
352,96,171700,1,8,0:0:0:0:
352,96,171907,1,8,0:0:0:0:
160,96,172010,1,0,0:0:0:0:
160,96,172114,1,0,0:0:0:0:
352,96,172217,1,8,0:0:0:0:
352,96,172424,1,8,0:0:0:0:
160,96,172631,1,0,0:0:0:0:
352,96,172734,1,8,0:0:0:0:
160,96,172838,1,0,0:0:0:0:
352,96,172941,1,8,0:0:0:0:
352,96,173148,1,8,0:0:0:0:
160,96,173355,1,0,0:0:0:0:
160,288,173562,1,4,0:0:0:0:
352,96,173769,1,8,0:0:0:0:
352,96,173821,1,8,0:0:0:0:
352,96,173872,1,8,0:0:0:0:
352,96,173924,1,8,0:0:0:0:
352,96,173976,1,8,0:0:0:0:
352,96,174079,1,8,0:0:0:0:
160,96,174183,1,0,0:0:0:0:
352,96,174286,1,8,0:0:0:0:
352,96,174390,1,8,0:0:0:0:
352,96,174493,1,8,0:0:0:0:
352,96,174596,1,8,0:0:0:0:
352,96,174700,1,8,0:0:0:0:
160,96,174803,1,0,0:0:0:0:
352,96,174907,1,8,0:0:0:0:
352,96,175010,1,8,0:0:0:0:
160,96,175114,1,0,0:0:0:0:
352,288,175217,1,12,0:0:0:0:
160,96,175424,1,0,0:0:0:0:
352,96,175528,1,8,0:0:0:0:
352,96,175734,1,8,0:0:0:0:
160,96,175941,1,0,0:0:0:0:
352,96,176045,1,8,0:0:0:0:
160,96,176148,1,0,0:0:0:0:
352,96,176252,1,8,0:0:0:0:
352,96,176459,1,8,0:0:0:0:
160,96,176665,1,0,0:0:0:0:
160,96,176769,1,0,0:0:0:0:
160,96,176872,1,0,0:0:0:0:
352,96,176976,1,8,0:0:0:0:
352,96,177183,1,8,0:0:0:0:
352,96,177390,1,8,0:0:0:0:
160,96,177493,1,0,0:0:0:0:
160,96,177596,1,0,0:0:0:0:
352,96,177700,1,8,0:0:0:0:
352,96,177803,1,8,0:0:0:0:
160,96,177907,1,0,0:0:0:0:
160,96,178010,1,0,0:0:0:0:
352,96,178114,1,8,0:0:0:0:
352,96,178217,1,8,0:0:0:0:
160,96,178321,1,0,0:0:0:0:
160,96,178424,1,0,0:0:0:0:
352,288,178528,1,12,0:0:0:0:
160,96,178734,1,0,0:0:0:0:
352,96,178838,1,8,0:0:0:0:
160,96,179045,1,0,0:0:0:0:
160,96,179252,1,0,0:0:0:0:
352,96,179355,1,8,0:0:0:0:
160,96,179459,1,0,0:0:0:0:
352,96,179562,1,8,0:0:0:0:
352,96,179769,1,8,0:0:0:0:
160,96,179976,1,0,0:0:0:0:
160,96,180079,1,0,0:0:0:0:
160,96,180183,1,0,0:0:0:0:
352,96,180286,1,8,0:0:0:0:
160,96,180493,1,0,0:0:0:0:
352,96,180700,1,8,0:0:0:0:
160,96,180803,1,0,0:0:0:0:
160,96,180872,1,0,0:0:0:0:
160,96,180941,1,0,0:0:0:0:
352,96,181010,1,8,0:0:0:0:
160,96,181114,1,0,0:0:0:0:
352,96,181217,1,8,0:0:0:0:
352,96,181269,1,8,0:0:0:0:
352,96,181321,1,8,0:0:0:0:
352,96,181372,1,8,0:0:0:0:
352,96,181424,1,8,0:0:0:0:
352,96,181528,1,8,0:0:0:0:
352,96,181631,1,8,0:0:0:0:
352,96,181734,1,8,0:0:0:0:
160,288,181838,1,4,0:0:0:0:
352,96,182045,1,8,0:0:0:0:
352,96,182148,1,8,0:0:0:0:
160,96,182355,1,0,0:0:0:0:
160,96,182459,1,0,0:0:0:0:
160,96,182562,1,0,0:0:0:0:
352,96,182665,1,8,0:0:0:0:
160,96,182769,1,0,0:0:0:0:
352,96,182872,1,8,0:0:0:0:
352,96,183079,1,8,0:0:0:0:
160,96,183286,1,0,0:0:0:0:
160,96,183390,1,0,0:0:0:0:
352,96,183493,1,8,0:0:0:0:
352,96,183596,1,8,0:0:0:0:
160,96,183700,1,0,0:0:0:0:
352,96,183803,1,8,0:0:0:0:
160,96,184010,1,0,0:0:0:0:
160,96,184114,1,0,0:0:0:0:
160,96,184217,1,0,0:0:0:0:
352,96,184321,1,8,0:0:0:0:
352,96,184424,1,8,0:0:0:0:
160,96,184528,1,0,0:0:0:0:
160,96,184631,1,0,0:0:0:0:
352,96,184734,1,8,0:0:0:0:
352,96,184838,1,8,0:0:0:0:
160,96,184941,1,0,0:0:0:0:
160,96,185045,1,0,0:0:0:0:
352,288,185148,1,12,0:0:0:0:
160,96,185355,1,0,0:0:0:0:
352,96,185459,1,8,0:0:0:0:
352,96,185665,1,8,0:0:0:0:
160,96,185872,1,0,0:0:0:0:
352,96,185976,1,8,0:0:0:0:
160,96,186079,1,0,0:0:0:0:
352,96,186183,1,8,0:0:0:0:
160,96,186390,1,0,0:0:0:0:
160,96,186596,1,0,0:0:0:0:
160,96,186803,1,0,0:0:0:0:
352,96,186872,1,8,0:0:0:0:
352,96,186941,1,8,0:0:0:0:
352,96,187010,1,8,0:0:0:0:
352,96,187079,1,8,0:0:0:0:
352,96,187148,1,8,0:0:0:0:
352,96,187217,1,8,0:0:0:0:
352,96,187286,1,8,0:0:0:0:
160,96,187355,1,0,0:0:0:0:
160,96,187424,1,0,0:0:0:0:
160,96,187493,1,0,0:0:0:0:
160,96,187562,1,0,0:0:0:0:
160,96,187631,1,0,0:0:0:0:
160,96,187700,1,0,0:0:0:0:
352,96,187769,1,8,0:0:0:0:
352,96,187838,1,8,0:0:0:0:
352,96,187907,1,8,0:0:0:0:
352,96,187976,1,8,0:0:0:0:
352,96,188045,1,8,0:0:0:0:
352,96,188114,1,8,0:0:0:0:
160,96,188183,1,0,0:0:0:0:
160,96,188252,1,0,0:0:0:0:
160,96,188321,1,0,0:0:0:0:
160,96,188390,1,0,0:0:0:0:
352,288,188459,1,12,0:0:0:0:
160,96,188769,1,0,0:0:0:0:
160,96,189079,1,0,0:0:0:0:
352,96,189286,1,8,0:0:0:0:
160,96,189390,1,0,0:0:0:0:
352,96,189596,1,8,0:0:0:0:
352,96,189648,1,8,0:0:0:0:
160,96,189700,1,0,0:0:0:0:
160,96,190010,1,0,0:0:0:0:
160,96,190321,1,0,0:0:0:0:
352,96,190527,1,8,0:0:0:0:
160,96,190631,1,0,0:0:0:0:
352,96,190838,1,8,0:0:0:0:
160,96,190941,1,0,0:0:0:0:
352,96,191045,1,8,0:0:0:0:
352,96,191148,1,8,0:0:0:0:
160,96,191252,1,0,0:0:0:0:
352,96,191355,1,8,0:0:0:0:
160,96,191459,1,0,0:0:0:0:
160,96,191665,1,0,0:0:0:0:
160,96,191769,1,0,0:0:0:0:
160,96,192079,1,0,0:0:0:0:
160,96,192390,1,0,0:0:0:0:
352,96,192596,1,8,0:0:0:0:
160,96,192700,1,0,0:0:0:0:
352,96,192907,1,8,0:0:0:0:
352,96,192959,1,8,0:0:0:0:
160,96,193010,1,0,0:0:0:0:
160,96,193321,1,0,0:0:0:0:
160,96,193631,1,0,0:0:0:0:
160,96,193734,1,0,0:0:0:0:
352,96,193838,1,8,0:0:0:0:
160,96,193941,1,0,0:0:0:0:
352,96,194148,1,8,0:0:0:0:
160,96,194252,1,0,0:0:0:0:
352,96,194355,1,8,0:0:0:0:
352,96,194459,1,8,0:0:0:0:
352,96,194510,1,8,0:0:0:0:
352,96,194562,1,8,0:0:0:0:
352,96,194614,1,8,0:0:0:0:
352,96,194665,1,8,0:0:0:0:
352,96,194769,1,8,0:0:0:0:
160,96,194872,1,0,0:0:0:0:
160,96,194976,1,0,0:0:0:0:
352,96,195079,1,8,0:0:0:0:
160,96,195183,1,0,0:0:0:0:
352,96,195286,1,8,0:0:0:0:
352,96,195390,1,8,0:0:0:0:
160,96,195493,1,0,0:0:0:0:
160,96,195596,1,0,0:0:0:0:
160,96,195700,1,0,0:0:0:0:
160,96,195803,1,0,0:0:0:0:
352,288,195907,1,12,0:0:0:0:
352,96,196217,1,8,0:0:0:0:
352,96,196269,1,8,0:0:0:0:
352,96,196321,1,8,0:0:0:0:
160,96,196631,1,0,0:0:0:0:
160,96,196941,1,0,0:0:0:0:
352,96,197148,1,8,0:0:0:0:
160,96,197252,1,0,0:0:0:0:
352,96,197459,1,8,0:0:0:0:
160,96,197562,1,0,0:0:0:0:
352,96,197665,1,8,0:0:0:0:
160,96,197769,1,0,0:0:0:0:
352,96,197872,1,8,0:0:0:0:
352,96,197976,1,8,0:0:0:0:
160,96,198079,1,0,0:0:0:0:
160,96,198390,1,0,0:0:0:0:
160,96,198700,1,0,0:0:0:0:
160,96,199010,1,0,0:0:0:0:
352,96,199217,1,8,0:0:0:0:
160,96,199424,1,0,0:0:0:0:
160,96,199493,1,0,0:0:0:0:
160,96,199562,1,0,0:0:0:0:
352,96,199631,1,8,0:0:0:0:
160,96,199838,1,0,0:0:0:0:
352,96,200045,1,8,0:0:0:0:
160,96,200114,1,0,0:0:0:0:
160,96,200183,1,0,0:0:0:0:
160,96,200252,1,0,0:0:0:0:
160,96,200321,1,0,0:0:0:0:
160,96,200390,1,0,0:0:0:0:
352,96,200459,1,8,0:0:0:0:
352,96,200527,1,8,0:0:0:0:
160,96,200596,1,0,0:0:0:0:
160,96,200665,1,0,0:0:0:0:
160,96,200734,1,0,0:0:0:0:
160,96,200803,1,0,0:0:0:0:
352,96,200872,1,8,0:0:0:0:
352,96,200941,1,8,0:0:0:0:
352,96,201010,1,8,0:0:0:0:
160,96,201079,1,0,0:0:0:0:
160,96,201148,1,0,0:0:0:0:
160,96,201217,1,0,0:0:0:0:
352,96,201286,1,8,0:0:0:0:
352,96,201355,1,8,0:0:0:0:
160,96,201424,1,0,0:0:0:0:
160,96,201493,1,0,0:0:0:0:
160,96,201562,1,0,0:0:0:0:
160,96,201631,1,0,0:0:0:0:
352,96,201700,1,8,0:0:0:0:
160,96,201803,1,0,0:0:0:0:
160,96,202010,1,0,0:0:0:0:
352,96,202114,1,8,0:0:0:0:
160,96,202320,1,0,0:0:0:0:
352,96,202424,1,8,0:0:0:0:
160,96,202527,1,0,0:0:0:0:
352,96,202631,1,8,0:0:0:0:
160,96,202734,1,0,0:0:0:0:
352,96,202941,1,8,0:0:0:0:
160,96,203045,1,0,0:0:0:0:
352,96,203251,1,8,0:0:0:0:
352,96,203303,1,8,0:0:0:0:
160,96,203355,1,0,0:0:0:0:
160,96,203665,1,0,0:0:0:0:
352,96,203768,1,8,0:0:0:0:
160,96,203976,1,0,0:0:0:0:
352,96,204079,1,8,0:0:0:0:
160,96,204182,1,0,0:0:0:0:
352,96,204286,1,8,0:0:0:0:
352,96,204389,1,8,0:0:0:0:
352,96,204596,1,8,0:0:0:0:
160,96,204700,1,0,0:0:0:0:
160,96,204907,1,0,0:0:0:0:
160,96,205010,1,0,0:0:0:0:
160,96,205320,1,0,0:0:0:0:
352,96,205424,1,8,0:0:0:0:
160,96,205631,1,0,0:0:0:0:
352,96,205734,1,8,0:0:0:0:
352,96,205786,1,8,0:0:0:0:
160,96,205838,1,0,0:0:0:0:
352,96,205941,1,8,0:0:0:0:
160,96,206045,1,0,0:0:0:0:
352,96,206251,1,8,0:0:0:0:
160,96,206355,1,0,0:0:0:0:
352,96,206562,1,8,0:0:0:0:
160,96,206665,1,0,0:0:0:0:
160,96,206769,1,0,0:0:0:0:
160,96,206872,1,0,0:0:0:0:
160,96,206975,1,0,0:0:0:0:
352,96,207079,1,8,0:0:0:0:
160,96,207182,1,0,0:0:0:0:
160,96,207286,1,0,0:0:0:0:
160,96,207389,1,0,0:0:0:0:
352,96,207493,1,8,0:0:0:0:
160,96,207596,1,0,0:0:0:0:
352,96,207700,1,8,0:0:0:0:
352,96,207803,1,8,0:0:0:0:
160,96,207907,1,0,0:0:0:0:
352,96,208010,1,8,0:0:0:0:
352,96,208113,1,8,0:0:0:0:
160,96,208217,1,0,0:0:0:0:
352,96,208320,1,8,0:0:0:0:
160,96,208424,1,0,0:0:0:0:
160,96,208527,1,0,0:0:0:0:
160,96,208631,1,0,0:0:0:0:
352,288,208734,1,12,0:0:0:0:
160,96,208941,1,0,0:0:0:0:
352,96,209045,1,8,0:0:0:0:
160,96,209148,1,0,0:0:0:0:
352,96,209252,1,8,0:0:0:0:
352,96,209303,1,8,0:0:0:0:
160,96,209355,1,0,0:0:0:0:
352,96,209562,1,8,0:0:0:0:
160,96,209665,1,0,0:0:0:0:
352,96,209872,1,8,0:0:0:0:
352,96,209924,1,8,0:0:0:0:
160,96,209976,1,0,0:0:0:0:
160,96,210286,1,0,0:0:0:0:
352,96,210389,1,8,0:0:0:0:
160,96,210596,1,0,0:0:0:0:
352,96,210700,1,8,0:0:0:0:
160,96,210803,1,0,0:0:0:0:
352,96,210906,1,8,0:0:0:0:
160,96,211010,1,0,0:0:0:0:
352,96,211217,1,8,0:0:0:0:
160,96,211320,1,0,0:0:0:0:
160,96,211527,1,0,0:0:0:0:
160,96,211631,1,0,0:0:0:0:
160,96,211941,1,0,0:0:0:0:
352,96,212045,1,8,0:0:0:0:
160,96,212251,1,0,0:0:0:0:
352,96,212355,1,8,0:0:0:0:
160,96,212459,1,0,0:0:0:0:
352,96,212562,1,8,0:0:0:0:
160,96,212665,1,0,0:0:0:0:
352,96,212872,1,8,0:0:0:0:
160,96,213079,1,0,0:0:0:0:
352,96,213286,1,8,0:0:0:0:
160,96,213390,1,0,0:0:0:0:
160,96,213493,1,0,0:0:0:0:
352,96,213596,1,8,0:0:0:0:
160,96,213700,1,0,0:0:0:0:
160,96,213803,1,0,0:0:0:0:
352,96,213907,1,8,0:0:0:0:
160,96,214010,1,0,0:0:0:0:
352,96,214114,1,8,0:0:0:0:
352,96,214217,1,8,0:0:0:0:
160,96,214321,1,0,0:0:0:0:
160,96,214424,1,0,0:0:0:0:
352,96,214528,1,8,0:0:0:0:
160,96,214631,1,0,0:0:0:0:
352,96,214734,1,8,0:0:0:0:
352,96,214838,1,8,0:0:0:0:
160,288,214941,1,4,0:0:0:0:
160,96,215149,1,0,0:0:0:0:
352,96,215253,1,8,0:0:0:0:
160,96,215357,1,0,0:0:0:0:
160,96,215461,1,0,0:0:0:0:
352,96,215566,1,8,0:0:0:0:
352,96,216191,1,8,0:0:0:0:
160,96,216295,1,0,0:0:0:0:
160,96,216399,1,0,0:0:0:0:
352,96,216503,1,8,0:0:0:0:
160,96,216607,1,0,0:0:0:0:
160,96,216711,1,0,0:0:0:0:
352,96,216816,1,8,0:0:0:0:
352,96,217424,1,8,0:0:0:0:
160,96,217528,1,0,0:0:0:0:
160,96,217631,1,0,0:0:0:0:
352,96,217734,1,8,0:0:0:0:
160,96,217838,1,0,0:0:0:0:
160,96,217941,1,0,0:0:0:0:
160,96,218045,1,0,0:0:0:0:
160,96,218096,1,0,0:0:0:0:
160,96,218148,1,0,0:0:0:0:
160,96,218200,1,0,0:0:0:0:
352,96,218252,1,8,0:0:0:0:
352,96,218354,1,8,0:0:0:0:
160,96,218457,1,0,0:0:0:0:
352,96,218561,1,8,0:0:0:0:
160,96,218664,1,0,0:0:0:0:
160,96,218768,1,0,0:0:0:0:
352,96,218871,1,8,0:0:0:0:
352,96,219497,1,8,0:0:0:0:
160,96,219602,1,0,0:0:0:0:
160,96,219707,1,0,0:0:0:0:
352,96,219812,1,8,0:0:0:0:
160,96,219917,1,0,0:0:0:0:
160,96,220022,1,0,0:0:0:0:
352,96,220126,1,8,0:0:0:0:
352,96,220736,1,8,0:0:0:0:
160,96,220839,1,0,0:0:0:0:
160,96,220942,1,0,0:0:0:0:
352,96,221046,1,8,0:0:0:0:
352,96,221149,1,8,0:0:0:0:
352,96,221218,1,8,0:0:0:0:
352,96,221287,1,8,0:0:0:0:
160,96,221356,1,0,0:0:0:0:
160,96,221408,1,0,0:0:0:0:
160,96,221460,1,0,0:0:0:0:
160,96,221511,1,0,0:0:0:0:
352,96,221563,1,8,0:0:0:0:
160,96,221701,1,0,0:0:0:0:
160,96,221839,1,0,0:0:0:0:
352,288,221977,1,12,0:0:0:0:
352,288,222804,1,12,0:0:0:0:
160,96,223632,1,0,0:0:0:0:
160,96,223770,1,0,0:0:0:0:
160,96,223839,1,0,0:0:0:0:
160,96,223908,1,0,0:0:0:0:
160,96,223977,1,0,0:0:0:0:
352,96,224046,1,8,0:0:0:0:
352,96,224873,1,8,0:0:0:0:
352,96,224977,1,8,0:0:0:0:
160,96,225080,1,0,0:0:0:0:
352,96,225184,1,8,0:0:0:0:
160,96,225287,1,0,0:0:0:0:
160,96,225391,1,0,0:0:0:0:
352,96,225494,1,8,0:0:0:0:
160,96,225598,1,0,0:0:0:0:
352,96,225701,1,8,0:0:0:0:
352,96,225804,1,8,0:0:0:0:
160,96,225907,1,0,0:0:0:0:
352,96,226010,1,8,0:0:0:0:
160,96,226114,1,0,0:0:0:0:
160,96,226217,1,0,0:0:0:0:
352,96,226321,1,8,0:0:0:0:
352,96,226529,1,8,0:0:0:0:
352,96,226598,1,8,0:0:0:0:
352,96,226667,1,8,0:0:0:0:
352,96,226736,1,8,0:0:0:0:
352,96,226804,1,8,0:0:0:0:
352,96,226873,1,8,0:0:0:0:
160,96,226942,1,0,0:0:0:0:
160,96,227011,1,0,0:0:0:0:
352,96,227080,1,8,0:0:0:0:
352,96,227149,1,8,0:0:0:0:
352,96,227218,1,8,0:0:0:0:
352,96,227287,1,8,0:0:0:0:
160,96,227356,1,0,0:0:0:0:
352,96,227425,1,8,0:0:0:0:
352,96,227494,1,8,0:0:0:0:
160,96,227563,1,0,0:0:0:0:
352,96,227632,1,8,0:0:0:0:
352,96,227701,1,8,0:0:0:0:
160,96,227770,1,0,0:0:0:0:
160,96,227839,1,0,0:0:0:0:
352,96,227908,1,8,0:0:0:0:
160,96,227977,1,0,0:0:0:0:
160,96,228046,1,0,0:0:0:0:
352,96,228115,1,8,0:0:0:0:
160,96,228184,1,0,0:0:0:0:
160,96,228391,1,0,0:0:0:0:
352,96,228494,1,8,0:0:0:0:
160,96,228597,1,0,0:0:0:0:
160,96,228701,1,0,0:0:0:0:
352,96,228804,1,8,0:0:0:0:
160,96,229011,1,0,0:0:0:0:
160,96,229080,1,0,0:0:0:0:
160,96,229149,1,0,0:0:0:0:
352,96,229218,1,8,0:0:0:0:
352,96,229425,1,8,0:0:0:0:
160,96,229529,1,0,0:0:0:0:
160,96,229632,1,0,0:0:0:0:
352,96,229735,1,8,0:0:0:0:
160,96,229839,1,0,0:0:0:0:
160,96,229942,1,0,0:0:0:0:
352,96,230046,1,8,0:0:0:0:
160,96,230253,1,0,0:0:0:0:
160,96,230322,1,0,0:0:0:0:
160,96,230391,1,0,0:0:0:0:
352,96,230460,1,8,0:0:0:0:
352,96,230666,1,8,0:0:0:0:
160,96,230770,1,0,0:0:0:0:
160,96,230873,1,0,0:0:0:0:
352,96,230977,1,8,0:0:0:0:
160,96,231080,1,0,0:0:0:0:
160,96,231184,1,0,0:0:0:0:
352,96,231287,1,8,0:0:0:0:
352,96,231494,1,8,0:0:0:0:
352,96,231597,1,8,0:0:0:0:
160,96,231701,1,0,0:0:0:0:
352,96,231804,1,8,0:0:0:0:
160,96,231907,1,0,0:0:0:0:
160,96,232011,1,0,0:0:0:0:
352,96,232114,1,8,0:0:0:0:
352,96,232321,1,8,0:0:0:0:
160,96,232390,1,0,0:0:0:0:
160,96,232459,1,0,0:0:0:0:
352,96,232528,1,8,0:0:0:0:
352,96,232735,1,8,0:0:0:0:
352,96,232839,1,8,0:0:0:0:
160,96,232942,1,0,0:0:0:0:
352,96,233045,1,8,0:0:0:0:
160,96,233149,1,0,0:0:0:0:
160,96,233252,1,0,0:0:0:0:
352,96,233356,1,8,0:0:0:0:
352,96,233563,1,8,0:0:0:0:
160,96,233632,1,0,0:0:0:0:
160,96,233701,1,0,0:0:0:0:
352,96,233770,1,8,0:0:0:0:
352,96,233976,1,8,0:0:0:0:
352,96,234080,1,8,0:0:0:0:
160,96,234183,1,0,0:0:0:0:
352,96,234287,1,8,0:0:0:0:
160,96,234390,1,0,0:0:0:0:
352,96,234494,1,8,0:0:0:0:
352,96,234597,1,8,0:0:0:0:
352,96,234804,1,8,0:0:0:0:
352,96,234908,1,8,0:0:0:0:
160,96,235011,1,0,0:0:0:0:
352,96,235115,1,8,0:0:0:0:
160,96,235218,1,0,0:0:0:0:
160,96,235322,1,0,0:0:0:0:
352,96,235425,1,8,0:0:0:0:
352,96,235529,1,8,0:0:0:0:
352,96,235632,1,8,0:0:0:0:
160,96,235735,1,0,0:0:0:0:
352,96,235839,1,8,0:0:0:0:
160,96,235942,1,0,0:0:0:0:
352,96,236046,1,8,0:0:0:0:
352,96,236149,1,8,0:0:0:0:
160,96,236253,1,0,0:0:0:0:
352,96,236356,1,8,0:0:0:0:
160,96,236460,1,0,0:0:0:0:
352,96,236563,1,8,0:0:0:0:
352,96,236666,1,8,0:0:0:0:
160,96,236770,1,0,0:0:0:0:
352,96,236873,1,8,0:0:0:0:
160,96,236977,1,0,0:0:0:0:
352,96,237080,1,8,0:0:0:0:
352,96,237184,1,8,0:0:0:0:
352,96,237287,1,8,0:0:0:0:
160,96,237391,1,0,0:0:0:0:
352,96,237494,1,8,0:0:0:0:
352,96,237597,1,8,0:0:0:0:
160,96,237701,1,0,0:0:0:0:
352,96,237804,1,8,0:0:0:0:
352,96,237908,1,8,0:0:0:0:
160,96,238011,1,0,0:0:0:0:
352,96,238115,1,8,0:0:0:0:
160,96,238218,1,0,0:0:0:0:
160,96,238322,1,0,0:0:0:0:
352,96,238425,1,8,0:0:0:0:
160,96,238529,1,0,0:0:0:0:
160,96,238632,1,0,0:0:0:0:
352,96,238735,1,8,0:0:0:0:
160,96,238839,1,0,0:0:0:0:
352,96,238942,1,8,0:0:0:0:
160,96,239046,1,0,0:0:0:0:
160,96,239149,1,0,0:0:0:0:
352,96,239253,1,8,0:0:0:0:
160,96,239356,1,0,0:0:0:0:
160,96,239460,1,0,0:0:0:0:
352,96,239563,1,8,0:0:0:0:
160,96,239666,1,0,0:0:0:0:
352,96,239770,1,8,0:0:0:0:
160,96,239873,1,0,0:0:0:0:
160,96,239977,1,0,0:0:0:0:
352,96,240080,1,8,0:0:0:0:
160,96,240184,1,0,0:0:0:0:
160,96,240287,1,0,0:0:0:0:
352,96,240391,1,8,0:0:0:0:
160,96,240494,1,0,0:0:0:0:
352,96,240597,1,8,0:0:0:0:
160,96,240666,1,0,0:0:0:0:
160,96,240735,1,0,0:0:0:0:
352,96,240804,1,8,0:0:0:0:
352,96,240873,1,8,0:0:0:0:
352,96,240942,1,8,0:0:0:0:
160,96,241011,1,0,0:0:0:0:
160,96,241080,1,0,0:0:0:0:
160,96,241149,1,0,0:0:0:0:
352,96,241218,1,8,0:0:0:0:
352,96,241287,1,8,0:0:0:0:
352,96,241356,1,8,0:0:0:0:
160,288,241425,1,4,0:0:0:0:
160,96,241631,1,0,0:0:0:0:
160,96,241735,1,0,0:0:0:0:
352,96,241838,1,8,0:0:0:0:
352,96,241942,1,8,0:0:0:0:
352,96,242045,1,8,0:0:0:0:
160,96,242149,1,0,0:0:0:0:
352,96,242252,1,8,0:0:0:0:
352,96,242356,1,8,0:0:0:0:
160,96,242459,1,0,0:0:0:0:
160,96,242563,1,0,0:0:0:0:
352,96,242666,1,8,0:0:0:0:
160,96,242769,1,0,0:0:0:0:
352,96,242873,1,8,0:0:0:0:
352,96,242976,1,8,0:0:0:0:
352,96,243080,1,8,0:0:0:0:
160,96,243183,1,0,0:0:0:0:
352,96,243287,1,8,0:0:0:0:
352,96,243390,1,8,0:0:0:0:
160,96,243494,1,0,0:0:0:0:
160,96,243597,1,0,0:0:0:0:
352,96,243700,1,8,0:0:0:0:
160,96,243804,1,0,0:0:0:0:
352,96,243907,1,8,0:0:0:0:
352,96,244011,1,8,0:0:0:0:
352,96,244114,1,8,0:0:0:0:
160,96,244218,1,0,0:0:0:0:
352,96,244321,1,8,0:0:0:0:
352,96,244425,1,8,0:0:0:0:
160,96,244528,1,0,0:0:0:0:
352,96,244631,1,8,0:0:0:0:
160,96,244735,1,0,0:0:0:0:
160,96,244838,1,0,0:0:0:0:
352,96,244942,1,8,0:0:0:0:
160,96,245045,1,0,0:0:0:0:
352,96,245149,1,8,0:0:0:0:
352,96,245252,1,8,0:0:0:0:
160,96,245356,1,0,0:0:0:0:
352,96,245459,1,8,0:0:0:0:
352,96,245563,1,8,0:0:0:0:
352,96,245666,1,8,0:0:0:0:
160,96,245769,1,0,0:0:0:0:
160,96,245873,1,0,0:0:0:0:
352,96,245976,1,8,0:0:0:0:
160,96,246080,1,0,0:0:0:0:
352,96,246183,1,8,0:0:0:0:
352,96,246287,1,8,0:0:0:0:
160,96,246390,1,0,0:0:0:0:
352,96,246494,1,8,0:0:0:0:
352,96,246597,1,8,0:0:0:0:
352,96,246700,1,8,0:0:0:0:
160,96,246804,1,0,0:0:0:0:
160,96,246907,1,0,0:0:0:0:
352,96,247011,1,8,0:0:0:0:
160,96,247114,1,0,0:0:0:0:
352,96,247218,1,8,0:0:0:0:
352,96,247321,1,8,0:0:0:0:
160,96,247425,1,0,0:0:0:0:
160,96,247528,1,0,0:0:0:0:
352,96,247631,1,8,0:0:0:0:
160,96,247735,1,0,0:0:0:0:
352,96,247838,1,8,0:0:0:0:
352,96,247890,1,8,0:0:0:0:
352,96,247942,1,8,0:0:0:0:
352,96,247994,1,8,0:0:0:0:
160,96,248045,1,0,0:0:0:0:
160,96,248149,1,0,0:0:0:0:
352,96,248252,1,8,0:0:0:0:
160,96,248356,1,0,0:0:0:0:
352,96,248459,1,8,0:0:0:0:
352,96,248563,1,8,0:0:0:0:
352,96,248666,1,8,0:0:0:0:
160,96,248769,1,0,0:0:0:0:
352,96,248873,1,8,0:0:0:0:
352,96,248976,1,8,0:0:0:0:
160,96,249080,1,0,0:0:0:0:
160,96,249183,1,0,0:0:0:0:
352,96,249287,1,8,0:0:0:0:
160,96,249390,1,0,0:0:0:0:
352,96,249494,1,8,0:0:0:0:
352,96,249597,1,8,0:0:0:0:
352,96,249700,1,8,0:0:0:0:
160,96,249804,1,0,0:0:0:0:
352,96,249907,1,8,0:0:0:0:
352,96,250011,1,8,0:0:0:0:
160,96,250114,1,0,0:0:0:0:
160,96,250218,1,0,0:0:0:0:
352,96,250321,1,8,0:0:0:0:
160,96,250425,1,0,0:0:0:0:
352,96,250528,1,8,0:0:0:0:
352,96,250631,1,8,0:0:0:0:
352,96,250735,1,8,0:0:0:0:
160,96,250838,1,0,0:0:0:0:
352,96,250942,1,8,0:0:0:0:
352,96,251045,1,8,0:0:0:0:
160,96,251149,1,0,0:0:0:0:
352,96,251252,1,8,0:0:0:0:
160,96,251356,1,0,0:0:0:0:
160,96,251459,1,0,0:0:0:0:
352,96,251563,1,8,0:0:0:0:
352,96,251614,1,8,0:0:0:0:
352,96,251666,1,8,0:0:0:0:
352,96,251718,1,8,0:0:0:0:
160,96,251769,1,0,0:0:0:0:
352,96,251873,1,8,0:0:0:0:
160,96,251976,1,0,0:0:0:0:
352,96,252080,1,8,0:0:0:0:
160,96,252183,1,0,0:0:0:0:
352,96,252287,1,8,0:0:0:0:
160,96,252390,1,0,0:0:0:0:
352,96,252494,1,8,0:0:0:0:
352,96,252597,1,8,0:0:0:0:
160,96,252700,1,0,0:0:0:0:
352,96,252804,1,8,0:0:0:0:
352,96,252907,1,8,0:0:0:0:
160,96,253011,1,0,0:0:0:0:
352,96,253114,1,8,0:0:0:0:
160,96,253218,1,0,0:0:0:0:
160,96,253321,1,0,0:0:0:0:
160,96,253425,1,0,0:0:0:0:
352,96,253528,1,8,0:0:0:0:
160,96,253631,1,0,0:0:0:0:
160,96,253735,1,0,0:0:0:0:
160,96,253838,1,0,0:0:0:0:
352,96,253942,1,8,0:0:0:0:
160,96,254045,1,0,0:0:0:0:
160,96,254149,1,0,0:0:0:0:
352,288,254252,1,12,0:0:0:0:
352,96,254459,1,8,0:0:0:0:
352,96,254563,1,8,0:0:0:0:
160,288,254666,1,4,0:0:0:0:
352,96,254873,1,8,0:0:0:0:
160,96,254976,1,0,0:0:0:0:
160,96,255080,1,0,0:0:0:0:
352,96,255183,1,8,0:0:0:0:
160,96,255287,1,0,0:0:0:0:
352,96,255390,1,8,0:0:0:0:
352,96,255494,1,8,0:0:0:0:
160,96,255597,1,0,0:0:0:0:
352,96,255700,1,8,0:0:0:0:
160,96,255804,1,0,0:0:0:0:
160,96,255907,1,0,0:0:0:0:
352,96,256011,1,8,0:0:0:0:
160,96,256114,1,0,0:0:0:0:
352,96,256218,1,8,0:0:0:0:
160,96,256321,1,0,0:0:0:0:
352,96,256425,1,8,0:0:0:0:
160,96,256528,1,0,0:0:0:0:
160,96,256631,1,0,0:0:0:0:
352,96,256735,1,8,0:0:0:0:
160,96,256838,1,0,0:0:0:0:
352,96,256942,1,8,0:0:0:0:
160,96,257045,1,0,0:0:0:0:
160,96,257149,1,0,0:0:0:0:
352,96,257252,1,8,0:0:0:0:
160,96,257356,1,0,0:0:0:0:
352,96,257459,1,8,0:0:0:0:
352,96,257563,1,8,0:0:0:0:
160,96,257666,1,0,0:0:0:0:
352,96,257769,1,8,0:0:0:0:
352,96,257873,1,8,0:0:0:0:
160,96,257976,1,0,0:0:0:0:
160,96,258045,1,0,0:0:0:0:
160,96,258114,1,0,0:0:0:0:
352,96,258183,1,8,0:0:0:0:
160,96,258287,1,0,0:0:0:0:
160,96,258390,1,0,0:0:0:0:
352,96,258494,1,8,0:0:0:0:
160,96,258597,1,0,0:0:0:0:
352,96,258700,1,8,0:0:0:0:
352,96,258804,1,8,0:0:0:0:
160,96,258907,1,0,0:0:0:0:
352,96,259011,1,8,0:0:0:0:
352,96,259080,1,8,0:0:0:0:
352,96,259149,1,8,0:0:0:0:
160,96,259218,1,0,0:0:0:0:
160,96,259321,1,0,0:0:0:0:
352,96,259425,1,8,0:0:0:0:
160,96,259528,1,0,0:0:0:0:
160,96,259631,1,0,0:0:0:0:
352,96,259735,1,8,0:0:0:0:
352,96,259838,1,8,0:0:0:0:
352,96,259942,1,8,0:0:0:0:
160,96,260045,1,0,0:0:0:0:
160,96,260114,1,0,0:0:0:0:
160,96,260183,1,0,0:0:0:0:
352,96,260252,1,8,0:0:0:0:
160,96,260356,1,0,0:0:0:0:
352,96,260459,1,8,0:0:0:0:
352,96,260563,1,8,0:0:0:0:
352,96,260666,1,8,0:0:0:0:
160,96,260769,1,0,0:0:0:0:
352,96,260873,1,8,0:0:0:0:
160,96,260976,1,0,0:0:0:0:
352,96,261080,1,8,0:0:0:0:
352,96,261149,1,8,0:0:0:0:
352,96,261218,1,8,0:0:0:0:
160,96,261287,1,0,0:0:0:0:
160,96,261390,1,0,0:0:0:0:
352,96,261494,1,8,0:0:0:0:
160,96,261597,1,0,0:0:0:0:
352,96,261700,1,8,0:0:0:0:
352,96,261804,1,8,0:0:0:0:
160,96,261907,1,0,0:0:0:0:
352,96,262011,1,8,0:0:0:0:
160,96,262114,1,0,0:0:0:0:
352,96,262218,1,8,0:0:0:0:
352,96,262321,1,8,0:0:0:0:
160,96,262425,1,0,0:0:0:0:
352,96,262528,1,8,0:0:0:0:
352,96,262631,1,8,0:0:0:0:
160,96,262735,1,0,0:0:0:0:
352,96,262838,1,8,0:0:0:0:
160,96,262942,1,0,0:0:0:0:
352,96,263045,1,8,0:0:0:0:
160,96,263149,1,0,0:0:0:0:
352,96,263252,1,8,0:0:0:0:
352,96,263356,1,8,0:0:0:0:
160,96,263459,1,0,0:0:0:0:
352,96,263563,1,8,0:0:0:0:
160,96,263666,1,0,0:0:0:0:
352,96,263769,1,8,0:0:0:0:
352,96,263873,1,8,0:0:0:0:
352,96,263976,1,8,0:0:0:0:
160,96,264080,1,0,0:0:0:0:
352,96,264183,1,8,0:0:0:0:
352,96,264287,1,8,0:0:0:0:
160,96,264390,1,0,0:0:0:0:
352,96,264494,1,8,0:0:0:0:
160,96,264597,1,0,0:0:0:0:
160,96,264666,1,0,0:0:0:0:
160,96,264735,1,0,0:0:0:0:
352,96,264804,1,8,0:0:0:0:
160,96,264907,1,0,0:0:0:0:
352,96,265011,1,8,0:0:0:0:
352,96,265114,1,8,0:0:0:0:
352,96,265218,1,8,0:0:0:0:
160,96,265321,1,0,0:0:0:0:
352,96,265425,1,8,0:0:0:0:
352,96,265528,1,8,0:0:0:0:
160,96,265631,1,0,0:0:0:0:
160,96,265700,1,0,0:0:0:0:
160,96,265769,1,0,0:0:0:0:
352,96,265838,1,8,0:0:0:0:
160,96,265942,1,0,0:0:0:0:
352,96,266045,1,8,0:0:0:0:
160,96,266149,1,0,0:0:0:0:
352,96,266252,1,8,0:0:0:0:
352,96,266321,1,8,0:0:0:0:
352,96,266390,1,8,0:0:0:0:
352,96,266459,1,8,0:0:0:0:
160,96,266528,1,0,0:0:0:0:
160,96,266597,1,0,0:0:0:0:
352,96,266666,1,8,0:0:0:0:
160,96,266735,1,0,0:0:0:0:
352,96,266804,1,8,0:0:0:0:
352,96,266873,1,8,0:0:0:0:
160,96,266942,1,0,0:0:0:0:
160,96,267011,1,0,0:0:0:0:
352,96,267080,1,8,0:0:0:0:
160,96,267149,1,0,0:0:0:0:
352,96,267218,1,8,0:0:0:0:
352,96,267287,1,8,0:0:0:0:
352,96,267356,1,8,0:0:0:0:
352,96,267425,1,8,0:0:0:0:
160,288,267494,1,4,0:0:0:0:
160,96,267907,1,0,0:0:0:0:
