osu file format v14

[General]
AudioFilename: audio.ogg
AudioLeadIn: 0
PreviewTime: 37850
Countdown: 0
SampleSet: Normal
StackLeniency: 0.7
Mode: 1
LetterboxInBreaks: 0
WidescreenStoryboard: 1

[Editor]
Bookmarks: 7900
DistanceSpacing: 1.2
BeatDivisor: 4
GridSize: 32
TimelineZoom: 1.64

[Metadata]
Title:Poison (TV Size)
TitleUnicode:Poison (TV Size)
Artist:Angel Dust (CV: Blake Roman)
ArtistUnicode:Angel Dust (CV: Blake Roman)
Creator:Molybdenum
Version:Skidooskei's Muzukashii
Source:Hazbin Hotel
Tags:jonarwhal jonawaga skidooskei english pop season one 1 s1 episode 4 four e4 masquerade valentino vivziepop vivienne medrano male vocals vocalist
BeatmapID:4505597
BeatmapSetID:2129699

[Difficulty]
HPDrainRate:6
CircleSize:2
OverallDifficulty:5
ApproachRate:5
SliderMultiplier:1.4
SliderTickRate:1

[Events]
//Background and Video events
0,0,"poison.jpg",0,20
//Break Periods
//Storyboard Layer 0 (Background)
//Storyboard Layer 1 (Fail)
//Storyboard Layer 2 (Pass)
//Storyboard Layer 3 (Foreground)
//Storyboard Layer 4 (Overlay)
//Storyboard Sound Samples

[TimingPoints]
96,400,4,1,0,55,1,0
96,-100,4,1,0,55,0,0
195,-100,4,1,0,55,0,0
295,-100,4,1,0,56,0,0
395,-100,4,1,0,56,0,0
495,-100,4,1,0,57,0,0
595,-100,4,1,0,57,0,0
695,-100,4,1,0,58,0,0
795,-100,4,1,0,58,0,0
895,-100,4,1,0,59,0,0
995,-100,4,1,0,59,0,0
1095,-100,4,1,0,60,0,0
1195,-100,4,1,0,60,0,0
1295,-100,4,1,0,61,0,0
1395,-100,4,1,0,61,0,0
1495,-100,4,1,0,62,0,0
1595,-100,4,1,0,62,0,0
1695,-100,4,1,0,63,0,0
1795,-100,4,1,0,63,0,0
1895,-100,4,1,0,63,0,0
1995,-100,4,1,0,64,0,0
2095,-100,4,1,0,64,0,0
2195,-100,4,1,0,65,0,0
2295,-100,4,1,0,65,0,0
2395,-100,4,1,0,66,0,0
2495,-100,4,1,0,66,0,0
2595,-100,4,1,0,67,0,0
2695,-100,4,1,0,67,0,0
2795,-100,4,1,0,68,0,0
2895,-100,4,1,0,68,0,0
2995,-100,4,1,0,69,0,0
3095,-100,4,1,0,69,0,0
3195,-100,4,1,0,70,0,0
38095,-100,4,1,0,72,0,0
38295,-100,4,1,0,73,0,0
38496,-100,4,1,0,75,0,1
64046,-100,4,1,0,70,0,1
64096,-100,4,1,0,70,0,0
82895,-100,4,1,0,72,0,0
83095,-100,4,1,0,73,0,0
83296,-100,4,1,0,75,0,1
108896,-100,4,1,0,75,0,0
109246,-100,4,1,0,60,0,0

[HitObjects]
256,192,96,8,0,3096,0:0:0:0:
256,192,3296,5,0,0:0:0:0:
256,192,3896,1,0,0:0:0:0:
256,192,4096,1,8,0:0:0:0:
256,192,4496,1,0,0:0:0:0:
256,192,5096,1,0,0:0:0:0:
256,192,5196,1,0,0:0:0:0:
256,192,5296,1,0,0:0:0:0:
256,192,5496,1,8,0:0:0:0:
256,192,5696,1,8,0:0:0:0:
256,192,6096,1,0,0:0:0:0:
256,192,6296,1,8,0:0:0:0:
256,192,6496,1,0,0:0:0:0:
256,192,6896,1,8,0:0:0:0:
256,192,7096,1,0,0:0:0:0:
256,192,7496,1,8,0:0:0:0:
256,192,7696,1,0,0:0:0:0:
256,192,7896,1,0,0:0:0:0:
256,192,8096,1,8,0:0:0:0:
256,192,8296,1,0,0:0:0:0:
256,192,8496,1,8,0:0:0:0:
256,192,8696,1,8,0:0:0:0:
256,192,8896,1,0,0:0:0:0:
256,192,9296,1,8,0:0:0:0:
256,192,9696,1,0,0:0:0:0:
256,192,9896,1,0,0:0:0:0:
256,192,10096,1,8,0:0:0:0:
256,192,10296,1,0,0:0:0:0:
256,192,10696,1,8,0:0:0:0:
256,192,10896,1,0,0:0:0:0:
256,192,11096,1,0,0:0:0:0:
256,192,11296,1,8,0:0:0:0:
256,192,11496,1,0,0:0:0:0:
256,192,11696,1,8,0:0:0:0:
256,192,11896,1,0,0:0:0:0:
256,192,12096,1,8,0:0:0:0:
256,192,12496,1,0,0:0:0:0:
256,192,12896,1,8,0:0:0:0:
256,192,13296,1,0,0:0:0:0:
256,192,13496,1,8,0:0:0:0:
256,192,14096,1,0,0:0:0:0:
256,192,14496,1,0,0:0:0:0:
256,192,14696,1,8,0:0:0:0:
256,192,14896,1,8,0:0:0:0:
256,192,15096,1,0,0:0:0:0:
256,192,15296,1,0,0:0:0:0:
256,192,15496,1,8,0:0:0:0:
256,192,15696,1,8,0:0:0:0:
256,192,16096,1,0,0:0:0:0:
256,192,16496,1,8,0:0:0:0:
256,192,16696,1,0,0:0:0:0:
256,192,17296,1,8,0:0:0:0:
256,192,17696,1,0,0:0:0:0:
256,192,17896,1,0,0:0:0:0:
256,192,18096,1,8,0:0:0:0:
256,192,18296,1,8,0:0:0:0:
256,192,18696,1,0,0:0:0:0:
256,192,18896,1,8,0:0:0:0:
256,192,19096,1,8,0:0:0:0:
256,192,19296,1,0,0:0:0:0:
256,192,19696,1,8,0:0:0:0:
256,192,19896,1,0,0:0:0:0:
256,192,20296,1,8,0:0:0:0:
256,192,20496,1,8,0:0:0:0:
256,192,20696,1,0,0:0:0:0:
256,192,20896,1,8,0:0:0:0:
256,192,21096,1,0,0:0:0:0:
256,192,21296,1,0,0:0:0:0:
256,192,21496,1,8,0:0:0:0:
256,192,21696,1,8,0:0:0:0:
256,192,22096,1,8,0:0:0:0:
256,192,22496,1,0,0:0:0:0:
256,192,22696,1,0,0:0:0:0:
256,192,22896,1,8,0:0:0:0:
256,192,23096,1,0,0:0:0:0:
256,192,23496,1,8,0:0:0:0:
256,192,23696,1,8,0:0:0:0:
256,192,23896,1,0,0:0:0:0:
256,192,24096,1,8,0:0:0:0:
256,192,24296,1,0,0:0:0:0:
256,192,24496,1,8,0:0:0:0:
256,192,24696,1,8,0:0:0:0:
256,192,24896,1,0,0:0:0:0:
256,192,25096,1,0,0:0:0:0:
256,192,25296,1,8,0:0:0:0:
256,192,25696,1,0,0:0:0:0:
256,192,26096,1,8,0:0:0:0:
256,192,26296,1,0,0:0:0:0:
256,192,26896,1,8,0:0:0:0:
256,192,27296,1,0,0:0:0:0:
256,192,27496,1,0,0:0:0:0:
256,192,27696,1,8,0:0:0:0:
256,192,27896,1,8,0:0:0:0:
256,192,28096,1,0,0:0:0:0:
256,192,28496,1,8,0:0:0:0:
256,192,28896,1,0,0:0:0:0:
256,192,29296,1,0,0:0:0:0:
256,192,29496,1,8,0:0:0:0:
256,192,30096,1,0,0:0:0:0:
256,192,30496,1,0,0:0:0:0:
256,192,30696,1,0,0:0:0:0:
256,192,30896,1,8,0:0:0:0:
256,192,31096,1,8,0:0:0:0:
256,192,31496,1,8,0:0:0:0:
256,192,31696,1,8,0:0:0:0:
256,192,31896,1,0,0:0:0:0:
256,192,32096,1,0,0:0:0:0:
256,192,32496,1,8,0:0:0:0:
256,192,32696,1,8,0:0:0:0:
256,192,32896,1,0,0:0:0:0:
256,192,33296,1,8,0:0:0:0:
256,192,33696,1,0,0:0:0:0:
256,192,33896,1,0,0:0:0:0:
256,192,34096,1,8,0:0:0:0:
256,192,34296,1,0,0:0:0:0:
256,192,34496,1,8,0:0:0:0:
256,192,34896,1,0,0:0:0:0:
256,192,35096,1,8,0:0:0:0:
256,192,35296,1,0,0:0:0:0:
256,192,35696,1,8,0:0:0:0:
256,192,35896,1,0,0:0:0:0:
256,192,36096,1,8,0:0:0:0:
256,192,36496,1,0,0:0:0:0:
256,192,36896,1,8,0:0:0:0:
256,192,37896,1,8,0:0:0:0:
256,192,38096,1,8,0:0:0:0:
256,192,38296,1,8,0:0:0:0:
256,192,38496,1,4,0:0:0:0:
256,192,38896,1,8,0:0:0:0:
256,192,39296,1,0,0:0:0:0:
256,192,39496,1,8,0:0:0:0:
256,192,39596,1,8,0:0:0:0:
256,192,39696,1,8,0:0:0:0:
256,192,39896,1,0,0:0:0:0:
256,192,40296,1,0,0:0:0:0:
256,192,40496,1,8,0:0:0:0:
256,192,40696,1,0,0:0:0:0:
256,192,40896,1,8,0:0:0:0:
256,192,41096,1,0,0:0:0:0:
256,192,41196,1,0,0:0:0:0:
256,192,41296,1,8,0:0:0:0:
256,192,41696,1,0,0:0:0:0:
256,192,42096,1,8,0:0:0:0:
256,192,42296,1,0,0:0:0:0:
256,192,42496,1,8,0:0:0:0:
256,192,42696,1,8,0:0:0:0:
256,192,42896,1,0,0:0:0:0:
256,192,43096,1,8,0:0:0:0:
256,192,43496,1,0,0:0:0:0:
256,192,43696,1,8,0:0:0:0:
256,192,43896,1,0,0:0:0:0:
256,192,44096,1,8,0:0:0:0:
256,192,44196,1,8,0:0:0:0:
256,192,44296,1,8,0:0:0:0:
256,192,44496,1,0,0:0:0:0:
256,192,44696,1,8,0:0:0:0:
256,192,44796,1,8,0:0:0:0:
256,192,44896,1,0,0:0:0:0:
256,192,45296,1,8,0:0:0:0:
256,192,45696,1,0,0:0:0:0:
256,192,45896,1,8,0:0:0:0:
256,192,45996,1,8,0:0:0:0:
256,192,46096,1,8,0:0:0:0:
256,192,46296,1,0,0:0:0:0:
256,192,46896,1,8,0:0:0:0:
256,192,47096,1,8,0:0:0:0:
256,192,47296,1,0,0:0:0:0:
256,192,47496,1,8,0:0:0:0:
256,192,47596,1,8,0:0:0:0:
256,192,47696,1,8,0:0:0:0:
256,192,47896,1,0,0:0:0:0:
256,192,48296,1,0,0:0:0:0:
256,192,48496,1,8,0:0:0:0:
256,192,48696,1,0,0:0:0:0:
256,192,48896,1,8,0:0:0:0:
256,192,49296,1,0,0:0:0:0:
256,192,49496,1,8,0:0:0:0:
256,192,49696,1,0,0:0:0:0:
256,192,49796,1,0,0:0:0:0:
256,192,49896,1,0,0:0:0:0:
256,192,50096,1,8,0:0:0:0:
256,192,50296,1,0,0:0:0:0:
256,192,50396,1,0,0:0:0:0:
256,192,50496,1,0,0:0:0:0:
256,192,50896,1,8,0:0:0:0:
256,192,51096,1,0,0:0:0:0:
256,192,51296,1,12,0:0:0:0:
256,192,51696,1,8,0:0:0:0:
256,192,52096,1,4,0:0:0:0:
256,192,52496,1,8,0:0:0:0:
256,192,52696,1,0,0:0:0:0:
256,192,52896,1,12,0:0:0:0:
256,192,53296,1,8,0:0:0:0:
256,192,53696,1,4,0:0:0:0:
256,192,54096,1,8,0:0:0:0:
256,192,54496,1,0,0:0:0:0:
256,192,54696,1,0,0:0:0:0:
256,192,54896,1,8,0:0:0:0:
256,192,55096,1,8,0:0:0:0:
256,192,55296,1,0,0:0:0:0:
256,192,55696,1,8,0:0:0:0:
256,192,55896,1,8,0:0:0:0:
256,192,56096,1,0,0:0:0:0:
256,192,56296,1,8,0:0:0:0:
256,192,56496,1,8,0:0:0:0:
256,192,56896,1,8,0:0:0:0:
256,192,56996,1,8,0:0:0:0:
256,192,57096,1,8,0:0:0:0:
256,192,57296,1,0,0:0:0:0:
256,192,57496,1,0,0:0:0:0:
256,192,57696,1,12,0:0:0:0:
256,192,58096,1,8,0:0:0:0:
256,192,58496,1,4,0:0:0:0:
256,192,58896,1,8,0:0:0:0:
256,192,59096,1,0,0:0:0:0:
256,192,59296,1,12,0:0:0:0:
256,192,59696,1,8,0:0:0:0:
256,192,60096,1,4,0:0:0:0:
256,192,60496,1,8,0:0:0:0:
256,192,60696,1,0,0:0:0:0:
256,192,60896,1,0,0:0:0:0:
256,192,61296,1,0,0:0:0:0:
256,192,61496,1,8,0:0:0:0:
256,192,61696,1,8,0:0:0:0:
256,192,61896,1,0,0:0:0:0:
256,192,62096,1,8,0:0:0:0:
256,192,62496,1,0,0:0:0:0:
256,192,62596,1,0,0:0:0:0:
256,192,62696,1,0,0:0:0:0:
256,192,62896,1,8,0:0:0:0:
256,192,63296,1,0,0:0:0:0:
256,192,63396,1,0,0:0:0:0:
256,192,63496,1,0,0:0:0:0:
256,192,63696,1,8,0:0:0:0:
256,192,63896,1,0,0:0:0:0:
256,192,64096,1,8,0:0:0:0:
256,192,64896,1,8,0:0:0:0:
256,192,65296,1,0,0:0:0:0:
256,192,66096,1,0,0:0:0:0:
256,192,66496,1,8,0:0:0:0:
256,192,67096,1,8,0:0:0:0:
256,192,67296,1,0,0:0:0:0:
256,192,67496,1,0,0:0:0:0:
256,192,67696,1,8,0:0:0:0:
256,192,67896,1,0,0:0:0:0:
256,192,68296,1,8,0:0:0:0:
256,192,68496,1,0,0:0:0:0:
256,192,68696,1,0,0:0:0:0:
256,192,68896,1,8,0:0:0:0:
256,192,69096,1,8,0:0:0:0:
256,192,69296,1,0,0:0:0:0:
256,192,69496,1,0,0:0:0:0:
256,192,69696,1,8,0:0:0:0:
256,192,70096,1,0,0:0:0:0:
256,192,70496,1,8,0:0:0:0:
256,192,70896,1,0,0:0:0:0:
256,192,71096,1,0,0:0:0:0:
256,192,71696,1,8,0:0:0:0:
256,192,72096,1,0,0:0:0:0:
256,192,72296,1,8,0:0:0:0:
256,192,72496,1,0,0:0:0:0:
256,192,72696,1,0,0:0:0:0:
256,192,72896,1,8,0:0:0:0:
256,192,73096,1,0,0:0:0:0:
256,192,73296,1,8,0:0:0:0:
256,192,73696,1,0,0:0:0:0:
256,192,74096,1,8,0:0:0:0:
256,192,74296,1,8,0:0:0:0:
256,192,74896,1,0,0:0:0:0:
256,192,75296,1,0,0:0:0:0:
256,192,75496,1,0,0:0:0:0:
256,192,75696,1,8,0:0:0:0:
256,192,75896,1,8,0:0:0:0:
256,192,76296,1,0,0:0:0:0:
256,192,76496,1,8,0:0:0:0:
256,192,76696,1,8,0:0:0:0:
256,192,76896,1,0,0:0:0:0:
256,192,77296,1,8,0:0:0:0:
256,192,77496,1,0,0:0:0:0:
256,192,77696,1,0,0:0:0:0:
256,192,78096,1,8,0:0:0:0:
256,192,78496,1,0,0:0:0:0:
256,192,78696,1,0,0:0:0:0:
256,192,78896,1,8,0:0:0:0:
256,192,79096,1,0,0:0:0:0:
256,192,79296,1,8,0:0:0:0:
256,192,79696,1,0,0:0:0:0:
256,192,79896,1,8,0:0:0:0:
256,192,80096,1,8,0:0:0:0:
256,192,80496,1,8,0:0:0:0:
256,192,80696,1,8,0:0:0:0:
256,192,80896,1,0,0:0:0:0:
256,192,81296,1,8,0:0:0:0:
256,192,81696,1,0,0:0:0:0:
256,192,82696,1,8,0:0:0:0:
256,192,82896,1,8,0:0:0:0:
256,192,83096,1,8,0:0:0:0:
256,192,83296,1,4,0:0:0:0:
256,192,83696,1,8,0:0:0:0:
256,192,84096,1,0,0:0:0:0:
256,192,84296,1,8,0:0:0:0:
256,192,84396,1,8,0:0:0:0:
256,192,84496,1,8,0:0:0:0:
256,192,84696,1,0,0:0:0:0:
256,192,85096,1,0,0:0:0:0:
256,192,85296,1,8,0:0:0:0:
256,192,85496,1,0,0:0:0:0:
256,192,85696,1,8,0:0:0:0:
256,192,85896,1,0,0:0:0:0:
256,192,85996,1,0,0:0:0:0:
256,192,86096,1,8,0:0:0:0:
256,192,86496,1,0,0:0:0:0:
256,192,86896,1,8,0:0:0:0:
256,192,87096,1,8,0:0:0:0:
256,192,87296,1,0,0:0:0:0:
256,192,87496,1,0,0:0:0:0:
256,192,87696,1,8,0:0:0:0:
256,192,87896,1,0,0:0:0:0:
256,192,88296,1,8,0:0:0:0:
256,192,88496,1,8,0:0:0:0:
256,192,88696,1,0,0:0:0:0:
256,192,88896,1,8,0:0:0:0:
256,192,88996,1,8,0:0:0:0:
256,192,89096,1,8,0:0:0:0:
256,192,89296,1,0,0:0:0:0:
256,192,89496,1,8,0:0:0:0:
256,192,89596,1,8,0:0:0:0:
256,192,89696,1,0,0:0:0:0:
256,192,90096,1,8,0:0:0:0:
256,192,90496,1,0,0:0:0:0:
256,192,90696,1,8,0:0:0:0:
256,192,90796,1,8,0:0:0:0:
256,192,90896,1,8,0:0:0:0:
256,192,91096,1,0,0:0:0:0:
256,192,91696,1,8,0:0:0:0:
256,192,91896,1,8,0:0:0:0:
256,192,92096,1,0,0:0:0:0:
256,192,92296,1,8,0:0:0:0:
256,192,92396,1,8,0:0:0:0:
256,192,92496,1,8,0:0:0:0:
256,192,92696,1,0,0:0:0:0:
256,192,93096,1,0,0:0:0:0:
256,192,93296,1,8,0:0:0:0:
256,192,93496,1,0,0:0:0:0:
256,192,93696,1,8,0:0:0:0:
256,192,94096,1,0,0:0:0:0:
256,192,94296,1,8,0:0:0:0:
256,192,94496,1,0,0:0:0:0:
256,192,94596,1,0,0:0:0:0:
256,192,94696,1,0,0:0:0:0:
256,192,94896,1,8,0:0:0:0:
256,192,95096,1,0,0:0:0:0:
256,192,95196,1,0,0:0:0:0:
256,192,95296,1,0,0:0:0:0:
256,192,95696,1,8,0:0:0:0:
256,192,95896,1,0,0:0:0:0:
256,192,96096,1,12,0:0:0:0:
256,192,96496,1,8,0:0:0:0:
256,192,96896,1,4,0:0:0:0:
256,192,97296,1,8,0:0:0:0:
256,192,97496,1,0,0:0:0:0:
256,192,97696,1,12,0:0:0:0:
256,192,98096,1,8,0:0:0:0:
256,192,98496,1,4,0:0:0:0:
256,192,98896,1,8,0:0:0:0:
256,192,99296,1,8,0:0:0:0:
256,192,99496,1,0,0:0:0:0:
256,192,99696,1,8,0:0:0:0:
256,192,99896,1,8,0:0:0:0:
256,192,100096,1,0,0:0:0:0:
256,192,100496,1,8,0:0:0:0:
256,192,100696,1,8,0:0:0:0:
256,192,100896,1,0,0:0:0:0:
256,192,101096,1,0,0:0:0:0:
256,192,101296,1,8,0:0:0:0:
256,192,101696,1,8,0:0:0:0:
256,192,101796,1,8,0:0:0:0:
256,192,101896,1,8,0:0:0:0:
256,192,102096,1,0,0:0:0:0:
256,192,102296,1,0,0:0:0:0:
256,192,102496,1,12,0:0:0:0:
256,192,102896,1,8,0:0:0:0:
256,192,103296,1,4,0:0:0:0:
256,192,103696,1,8,0:0:0:0:
256,192,103896,1,0,0:0:0:0:
256,192,104096,1,12,0:0:0:0:
256,192,104496,1,8,0:0:0:0:
256,192,104896,1,4,0:0:0:0:
256,192,105296,1,8,0:0:0:0:
256,192,105496,1,0,0:0:0:0:
256,192,105696,1,0,0:0:0:0:
256,192,106096,1,0,0:0:0:0:
256,192,106296,1,0,0:0:0:0:
256,192,106496,1,8,0:0:0:0:
256,192,106696,1,0,0:0:0:0:
256,192,106896,1,8,0:0:0:0:
256,192,107296,1,0,0:0:0:0:
256,192,107396,1,0,0:0:0:0:
256,192,107496,1,0,0:0:0:0:
256,192,107696,1,8,0:0:0:0:
256,192,108096,1,0,0:0:0:0:
256,192,108196,1,0,0:0:0:0:
256,192,108296,1,0,0:0:0:0:
256,192,108496,1,8,0:0:0:0:
256,192,108696,1,0,0:0:0:0:
256,192,108896,1,0,0:0:0:0:
256,192,109296,1,8,0:0:0:0:
256,192,109696,1,0,0:0:0:0:
256,192,110296,1,0,0:0:0:0:
256,192,110896,1,8,0:0:0:0:
256,192,111296,1,0,0:0:0:0:
256,192,112096,1,0,0:0:0:0:
256,192,112896,1,0,0:0:0:0:
256,192,113496,1,8,0:0:0:0:
256,192,113896,1,8,0:0:0:0:
256,192,114496,1,0,0:0:0:0:
256,192,115096,1,0,0:0:0:0:
256,192,115696,1,8,0:0:0:0:
256,192,116096,1,0,0:0:0:0:
256,192,116696,1,0,0:0:0:0:
256,192,117296,1,8,0:0:0:0:
256,192,117696,1,0,0:0:0:0:
256,192,118296,1,8,0:0:0:0:
256,192,118696,1,8,0:0:0:0:
256,192,118896,1,8,0:0:0:0:
256,192,119296,1,0,0:0:0:0:
256,192,119496,1,0,0:0:0:0:
256,192,119696,1,8,0:0:0:0:
256,192,119896,1,8,0:0:0:0:
256,192,120296,1,0,0:0:0:0:
256,192,120696,1,8,0:0:0:0:
256,192,120896,1,0,0:0:0:0:
256,192,121096,1,0,0:0:0:0:
256,192,121496,1,0,0:0:0:0:
