osu file format v14

[General]
AudioFilename: audio.ogg
AudioLeadIn: 0
PreviewTime: 37850
Countdown: 0
SampleSet: Normal
StackLeniency: 0.7
Mode: 1
LetterboxInBreaks: 0
WidescreenStoryboard: 0

[Editor]
DistanceSpacing: 1.2
BeatDivisor: 4
GridSize: 4
TimelineZoom: 1.94

[Metadata]
Title:Poison (TV Size)
TitleUnicode:Poison (TV Size)
Artist:Angel Dust (CV: Blake Roman)
ArtistUnicode:Angel Dust (CV: Blake Roman)
Creator:Molybdenum
Version:Redemption
Source:Hazbin Hotel
Tags:jonarwhal jonawaga skidooskei english pop season one 1 s1 episode 4 four e4 masquerade valentino vivziepop vivienne medrano male vocals vocalist
BeatmapID:4478334
BeatmapSetID:2129699

[Difficulty]
HPDrainRate:5.5
CircleSize:5
OverallDifficulty:5.5
ApproachRate:5
SliderMultiplier:1.4
SliderTickRate:1

[Events]
//Background and Video events
0,0,"poison.jpg",0,20
//Break Periods
//Storyboard Layer 0 (Background)
//Storyboard Layer 1 (Fail)
//Storyboard Layer 2 (Pass)
//Storyboard Layer 3 (Foreground)
//Storyboard Layer 4 (Overlay)
//Storyboard Sound Samples

[TimingPoints]
96,400,4,1,0,55,1,0
96,-133.33333,4,1,0,55,0,0
195,-133.05612,4,1,0,55,0,0
295,-132.78008,4,1,0,56,0,0
395,-132.50517,4,1,0,56,0,0
495,-132.2314,4,1,0,57,0,0
595,-131.95876,4,1,0,57,0,0
695,-131.68724,4,1,0,58,0,0
795,-131.41682,4,1,0,58,0,0
895,-131.14754,4,1,0,59,0,0
995,-130.87935,4,1,0,59,0,0
1095,-130.61223,4,1,0,60,0,0
1195,-130.34622,4,1,0,60,0,0
1295,-130.08128,4,1,0,61,0,0
1395,-129.81743,4,1,0,61,0,0
1495,-129.55466,4,1,0,62,0,0
1595,-129.29292,4,1,0,62,0,0
1695,-129.03226,4,1,0,63,0,0
1795,-128.77263,4,1,0,63,0,0
1895,-128.51405,4,1,0,63,0,0
1995,-128.25652,4,1,0,64,0,0
2095,-128,4,1,0,64,0,0
2195,-127.744514,4,1,0,65,0,0
2295,-127.490036,4,1,0,65,0,0
2395,-127.23658,4,1,0,66,0,0
2495,-126.98412,4,1,0,66,0,0
2595,-126.73267,4,1,0,67,0,0
2695,-126.482216,4,1,0,67,0,0
2795,-126.23274,4,1,0,68,0,0
2895,-125.98425,4,1,0,68,0,0
2995,-125.73673,4,1,0,69,0,0
3095,-125.4902,4,1,0,69,0,0
3195,-125.24462,4,1,0,70,0,0
3295,-125,4,1,0,70,0,0
6496,-117.647058823529,4,1,0,70,0,0
17695,-117.64706,4,1,0,70,0,0
17895,-115.10792,4,1,0,70,0,0
18095,-112.676056,4,1,0,70,0,0
18295,-110.344826,4,1,0,70,0,0
18495,-108.10811,4,1,0,70,0,0
18695,-105.96026,4,1,0,70,0,0
18895,-103.8961,4,1,0,70,0,0
19095,-101.91083,4,1,0,70,0,0
19295,-100,4,1,0,70,0,0
19696,-117.647058823529,4,1,0,70,0,0
30695,-117.64706,4,1,0,70,0,0
30895,-114.754105,4,1,0,70,0,0
31095,-112,4,1,0,70,0,0
31295,-109.37501,4,1,0,70,0,0
31495,-106.870224,4,1,0,70,0,0
31695,-104.477615,4,1,0,70,0,0
31895,-102.18977,4,1,0,70,0,0
32095,-100,4,1,0,70,0,0
32496,-117.647058823529,4,1,0,70,0,0
37895,-117.64706,4,1,0,70,0,0
38095,-111.111115,4,1,0,72,0,0
38295,-105.26316,4,1,0,73,0,0
38496,-100,4,1,0,75,0,1
51295,-86.95652,4,1,0,75,0,1
51495,-87.671234,4,1,0,75,0,1
51595,-88.03301,4,1,0,75,0,1
51695,-88.39779,4,1,0,75,0,1
51795,-88.7656,4,1,0,75,0,1
51895,-89.13649,4,1,0,75,0,1
52095,-89.88764,4,1,0,75,0,1
52295,-90.65156,4,1,0,75,0,1
52395,-91.03841,4,1,0,75,0,1
52495,-91.42857,4,1,0,75,0,1
52595,-91.8221,4,1,0,75,0,1
52695,-92.21902,4,1,0,75,0,1
52895,-93.023254,4,1,0,75,0,1
53095,-93.841644,4,1,0,75,0,1
53195,-94.256256,4,1,0,75,0,1
53295,-94.67456,4,1,0,75,0,1
53395,-95.09658,4,1,0,75,0,1
53495,-95.522385,4,1,0,75,0,1
53695,-96.38554,4,1,0,75,0,1
53895,-97.264435,4,1,0,75,0,1
53995,-97.70992,4,1,0,75,0,1
54095,-98.159515,4,1,0,75,0,1
54495,-100,4,1,0,75,0,1
57695,-86.95652,4,1,0,75,0,1
57895,-87.671234,4,1,0,75,0,1
57995,-88.03301,4,1,0,75,0,1
58095,-88.39779,4,1,0,75,0,1
58195,-88.7656,4,1,0,75,0,1
58295,-89.13649,4,1,0,75,0,1
58495,-89.88764,4,1,0,75,0,1
58695,-90.65156,4,1,0,75,0,1
58795,-91.03841,4,1,0,75,0,1
58895,-91.42857,4,1,0,75,0,1
58995,-91.8221,4,1,0,75,0,1
59095,-92.21902,4,1,0,75,0,1
59295,-93.023254,4,1,0,75,0,1
59495,-93.841644,4,1,0,75,0,1
59595,-94.256256,4,1,0,75,0,1
59695,-94.67456,4,1,0,75,0,1
59795,-95.09658,4,1,0,75,0,1
59895,-95.522385,4,1,0,75,0,1
60095,-96.38554,4,1,0,75,0,1
60295,-97.264435,4,1,0,75,0,1
60395,-97.70992,4,1,0,75,0,1
60495,-98.159515,4,1,0,75,0,1
60695,-99.07121,4,1,0,75,0,1
60895,-100,4,1,0,75,0,1
62496,-99.99063,4,1,0,75,0,1
62596,-99.062584,4,1,0,75,0,1
62696,-98.15161,4,1,0,74,0,1
62896,-96.37902,4,1,0,74,0,1
63096,-94.669304,4,1,0,73,0,1
63196,-93.837006,4,1,0,73,0,1
63296,-93.01921,4,1,0,72,0,1
63396,-92.21553,4,1,0,72,0,1
63496,-91.425644,4,1,0,72,0,1
63696,-89.88575,4,1,0,71,0,1
64096,-86.95652,4,1,0,70,0,0
64896,-125,4,1,0,70,0,0
67296,-117.647058823529,4,1,0,70,0,0
75495,-117.64706,4,1,0,70,0,0
75695,-114.754105,4,1,0,70,0,0
75895,-112,4,1,0,70,0,0
76095,-109.37501,4,1,0,70,0,0
76295,-106.870224,4,1,0,70,0,0
76495,-104.477615,4,1,0,70,0,0
76695,-102.18977,4,1,0,70,0,0
76895,-100,4,1,0,70,0,0
77296,-117.647058823529,4,1,0,70,0,0
82695,-117.612526,4,1,0,70,0,0
82895,-111.09057,4,1,0,72,0,0
83095,-105.25394,4,1,0,73,0,0
83296,-100,4,1,0,75,0,1
96095,-86.95652,4,1,0,75,0,1
96295,-87.671234,4,1,0,75,0,1
96395,-88.03301,4,1,0,75,0,1
96495,-88.39779,4,1,0,75,0,1
96595,-88.7656,4,1,0,75,0,1
96695,-89.13649,4,1,0,75,0,1
96895,-89.88764,4,1,0,75,0,1
97095,-90.65156,4,1,0,75,0,1
97195,-91.03841,4,1,0,75,0,1
97295,-91.42857,4,1,0,75,0,1
97395,-91.8221,4,1,0,75,0,1
97495,-92.21902,4,1,0,75,0,1
97695,-93.023254,4,1,0,75,0,1
97895,-93.841644,4,1,0,75,0,1
97995,-94.256256,4,1,0,75,0,1
98095,-94.67456,4,1,0,75,0,1
98195,-95.09658,4,1,0,75,0,1
98295,-95.522385,4,1,0,75,0,1
98495,-96.38554,4,1,0,75,0,1
98695,-97.264435,4,1,0,75,0,1
98795,-97.70992,4,1,0,75,0,1
98895,-98.159515,4,1,0,75,0,1
99295,-100,4,1,0,75,0,1
102495,-86.95652,4,1,0,75,0,1
102695,-87.671234,4,1,0,75,0,1
102795,-88.03301,4,1,0,75,0,1
102895,-88.39779,4,1,0,75,0,1
102995,-88.7656,4,1,0,75,0,1
103095,-89.13649,4,1,0,75,0,1
103295,-89.88764,4,1,0,75,0,1
103495,-90.65156,4,1,0,75,0,1
103595,-91.03841,4,1,0,75,0,1
103695,-91.42857,4,1,0,75,0,1
103795,-91.8221,4,1,0,75,0,1
103895,-92.21902,4,1,0,75,0,1
104095,-93.023254,4,1,0,75,0,1
104295,-93.841644,4,1,0,75,0,1
104395,-94.256256,4,1,0,75,0,1
104495,-94.67456,4,1,0,75,0,1
104595,-95.09658,4,1,0,75,0,1
104695,-95.522385,4,1,0,75,0,1
104895,-96.38554,4,1,0,75,0,1
105095,-97.264435,4,1,0,75,0,1
105195,-97.70992,4,1,0,75,0,1
105295,-98.159515,4,1,0,75,0,1
105495,-99.07121,4,1,0,75,0,1
105695,-100,4,1,0,75,0,1
107296,-99.99063,4,1,0,75,0,1
107396,-99.062584,4,1,0,75,0,1
107496,-98.15161,4,1,0,74,0,1
107696,-96.37902,4,1,0,74,0,1
107896,-94.669304,4,1,0,73,0,1
107996,-93.837006,4,1,0,73,0,1
108096,-93.01921,4,1,0,73,0,1
108196,-92.21553,4,1,0,72,0,1
108296,-91.425644,4,1,0,72,0,1
108496,-89.88575,4,1,0,71,0,1
108896,-86.95652,4,1,0,70,0,0
109246,-125,4,1,0,60,0,0
109295,-125,4,1,0,60,0,0
109695,-126.556015,4,1,0,60,0,0
110095,-128.15126,4,1,0,60,0,0
110295,-128.96405,4,1,0,60,0,0
110495,-129.78723,4,1,0,60,0,0
110695,-130.62099,4,1,0,60,0,0
110895,-131.46553,4,1,0,60,0,0
111295,-133.18777,4,1,0,60,0,0
111895,-135.85747,4,1,0,60,0,0
112095,-136.77129,4,1,0,60,0,0
112295,-137.69753,4,1,0,60,0,0
112495,-138.63635,4,1,0,60,0,0
112695,-139.5881,4,1,0,60,0,0
112895,-140.553,4,1,0,60,0,0
113295,-142.52336,4,1,0,60,0,0
113495,-143.53447,4,1,0,60,0,0
113695,-144.5549,4,1,0,60,0,0
113895,-145.58994,4,1,0,60,0,0
114295,-147.69977,4,1,0,60,0,0
114495,-148.78049,4,1,0,60,0,0
114695,-149.87714,4,1,0,60,0,0
115095,-152.12537,4,1,0,60,0,0
115295,-153.2721,4,1,0,60,0,0
115495,-154.43623,4,1,0,60,0,0
115695,-155.61223,4,1,0,60,0,0
116095,-158.0311,4,1,0,60,0,0
116495,-160.5263,4,1,0,60,0,0
116695,-161.80371,4,1,0,60,0,0
116895,-163.1016,4,1,0,60,0,0
117095,-164.42049,4,1,0,60,0,0
117295,-165.76086,4,1,0,60,0,0
117695,-168.50829,4,1,0,60,0,0
118295,-172.81186,4,1,0,60,0,0
118495,-174.29318,4,1,0,60,0,0
118695,-175.80011,4,1,0,60,0,0
118895,-177.32558,4,1,0,60,0,0
119295,-180.47337,4,1,0,60,0,0
119495,-182.08957,4,1,0,60,0,0
119695,-183.73494,4,1,0,60,0,0
119895,-185.41881,4,1,0,60,0,0
120095,-187.12517,4,1,0,60,0,0
120295,-188.86325,4,1,0,60,0,0
120695,-192.42902,4,1,0,60,0,0
120895,-194.2675,4,1,0,60,0,0
121095,-196.14148,4,1,0,60,0,0
121495,-200,4,1,0,60,0,0

[HitObjects]
256,192,96,12,0,3096,0:0:0:0:
146,140,3296,5,0,0:0:0:0:
146,140,3896,1,0,0:0:0:0:
146,140,4096,1,8,0:0:0:0:
146,140,4429,1,8,0:0:0:0:
146,140,4496,1,8,0:0:0:0:
146,140,5029,1,0,0:0:0:0:
146,140,5096,1,0,0:0:0:0:
146,140,5496,1,0,0:0:0:0:
146,140,5696,1,8,0:0:0:0:
146,140,5796,1,8,0:0:0:0:
146,140,5896,1,8,0:0:0:0:
146,140,6096,1,0,0:0:0:0:
146,140,6496,1,0,0:0:0:0:
146,140,6896,1,8,0:0:0:0:
146,140,7096,1,0,0:0:0:0:
146,140,7496,1,0,0:0:0:0:
146,140,7696,1,8,0:0:0:0:
146,140,7896,1,8,0:0:0:0:
146,140,8096,1,0,0:0:0:0:
146,140,8196,1,0,0:0:0:0:
146,140,8296,1,0,0:0:0:0:
146,140,8496,1,8,0:0:0:0:
146,140,8696,1,8,0:0:0:0:
146,140,8896,1,0,0:0:0:0:
146,140,9296,1,8,0:0:0:0:
146,140,9696,1,0,0:0:0:0:
146,140,10096,1,8,0:0:0:0:
146,140,10296,1,0,0:0:0:0:
146,140,10696,1,0,0:0:0:0:
146,140,10896,1,8,0:0:0:0:
146,140,11096,1,0,0:0:0:0:
146,140,11296,1,8,0:0:0:0:
146,140,11396,1,0,0:0:0:0:
146,140,11496,1,0,0:0:0:0:
146,140,11696,1,8,0:0:0:0:
146,140,11896,1,0,0:0:0:0:
146,140,12096,1,0,0:0:0:0:
146,140,12496,1,8,0:0:0:0:
146,140,12896,1,0,0:0:0:0:
146,140,13296,1,8,0:0:0:0:
146,140,13496,1,0,0:0:0:0:
146,140,14096,1,8,0:0:0:0:
146,140,14696,1,0,0:0:0:0:
146,140,14896,1,8,0:0:0:0:
146,140,14996,1,8,0:0:0:0:
146,140,15096,1,0,0:0:0:0:
146,140,15296,1,0,0:0:0:0:
146,140,15496,1,8,0:0:0:0:
146,140,15696,1,8,0:0:0:0:
146,140,16096,1,0,0:0:0:0:
146,140,16496,1,8,0:0:0:0:
146,140,16696,1,0,0:0:0:0:
146,140,17296,1,8,0:0:0:0:
146,140,17696,1,0,0:0:0:0:
146,140,17896,1,0,0:0:0:0:
146,140,18096,1,8,0:0:0:0:
146,140,18296,1,8,0:0:0:0:
146,140,18496,1,0,0:0:0:0:
146,140,18696,1,8,0:0:0:0:
146,140,18896,1,8,0:0:0:0:
146,140,19096,1,0,0:0:0:0:
146,140,19296,1,0,0:0:0:0:
146,140,19696,1,8,0:0:0:0:
146,140,19896,1,0,0:0:0:0:
146,140,20296,1,0,0:0:0:0:
146,140,20496,1,8,0:0:0:0:
146,140,20696,1,8,0:0:0:0:
146,140,20896,1,0,0:0:0:0:
146,140,20996,1,8,0:0:0:0:
146,140,21096,1,0,0:0:0:0:
146,140,21296,1,8,0:0:0:0:
146,140,21496,1,0,0:0:0:0:
146,140,21696,1,0,0:0:0:0:
146,140,22096,1,8,0:0:0:0:
146,140,22496,1,0,0:0:0:0:
146,140,22896,1,8,0:0:0:0:
146,140,23096,1,0,0:0:0:0:
146,140,23496,1,0,0:0:0:0:
146,140,23696,1,8,0:0:0:0:
146,140,23896,1,0,0:0:0:0:
146,140,24096,1,8,0:0:0:0:
146,140,24196,1,0,0:0:0:0:
146,140,24296,1,0,0:0:0:0:
146,140,24496,1,8,0:0:0:0:
146,140,24696,1,0,0:0:0:0:
146,140,24896,1,0,0:0:0:0:
146,140,25096,1,8,0:0:0:0:
146,140,25296,1,8,0:0:0:0:
146,140,25696,1,0,0:0:0:0:
146,140,26096,1,8,0:0:0:0:
146,140,26296,1,0,0:0:0:0:
146,140,26896,1,8,0:0:0:0:
146,140,27496,1,0,0:0:0:0:
146,140,27696,1,8,0:0:0:0:
146,140,27796,1,8,0:0:0:0:
146,140,27896,1,0,0:0:0:0:
146,140,28096,1,0,0:0:0:0:
146,140,28296,1,8,0:0:0:0:
146,140,28496,1,8,0:0:0:0:
146,140,28896,1,0,0:0:0:0:
146,140,29296,1,8,0:0:0:0:
146,140,29496,1,0,0:0:0:0:
146,140,30096,1,8,0:0:0:0:
146,140,30696,1,0,0:0:0:0:
146,140,30896,1,8,0:0:0:0:
146,140,31096,1,8,0:0:0:0:
146,140,31296,1,0,0:0:0:0:
146,140,31496,1,8,0:0:0:0:
146,140,31696,1,8,0:0:0:0:
146,140,31896,1,0,0:0:0:0:
146,140,32096,1,0,0:0:0:0:
146,140,32496,1,8,0:0:0:0:
146,140,32696,1,0,0:0:0:0:
146,140,32896,1,0,0:0:0:0:
146,140,33296,1,8,0:0:0:0:
146,140,33696,1,0,0:0:0:0:
146,140,33896,1,0,0:0:0:0:
146,140,34096,1,8,0:0:0:0:
146,140,34296,1,0,0:0:0:0:
146,140,34496,1,0,0:0:0:0:
146,140,34896,1,8,0:0:0:0:
146,140,35096,1,8,0:0:0:0:
146,140,35296,1,0,0:0:0:0:
146,140,35696,1,8,0:0:0:0:
146,140,35896,1,0,0:0:0:0:
146,140,36096,1,0,0:0:0:0:
146,140,36496,1,8,0:0:0:0:
146,140,36896,1,0,0:0:0:0:
146,140,37896,1,8,0:0:0:0:
146,140,38096,1,8,0:0:0:0:
146,140,38296,1,8,0:0:0:0:
146,140,38496,1,4,0:0:0:0:
146,140,38696,1,8,0:0:0:0:
146,140,38896,1,8,0:0:0:0:
146,140,39096,1,0,0:0:0:0:
146,140,39196,1,8,0:0:0:0:
146,140,39296,1,0,0:0:0:0:
146,140,39496,1,0,0:0:0:0:
146,140,39696,1,8,0:0:0:0:
146,140,39896,1,8,0:0:0:0:
146,140,39996,1,8,0:0:0:0:
146,140,40096,1,0,0:0:0:0:
146,140,40296,1,0,0:0:0:0:
146,140,40496,1,8,0:0:0:0:
146,140,40696,1,0,0:0:0:0:
146,140,40796,1,0,0:0:0:0:
146,140,40896,1,8,0:0:0:0:
146,140,41296,1,8,0:0:0:0:
146,140,41496,1,0,0:0:0:0:
146,140,41696,1,8,0:0:0:0:
146,140,41796,1,0,0:0:0:0:
146,140,41896,1,8,0:0:0:0:
146,140,42096,1,0,0:0:0:0:
146,140,42296,1,0,0:0:0:0:
146,140,42496,1,8,0:0:0:0:
146,140,42696,1,8,0:0:0:0:
146,140,42896,1,0,0:0:0:0:
146,140,43096,1,8,0:0:0:0:
146,140,43196,1,0,0:0:0:0:
146,140,43296,1,0,0:0:0:0:
146,140,43496,1,8,0:0:0:0:
146,140,43696,1,8,0:0:0:0:
146,140,43896,1,0,0:0:0:0:
146,140,43996,1,0,0:0:0:0:
146,140,44096,1,0,0:0:0:0:
416,80,44196,1,0,0:0:0:0:
146,140,44296,1,8,0:0:0:0:
146,140,44496,1,8,0:0:0:0:
146,140,44696,1,0,0:0:0:0:
146,140,45096,1,0,0:0:0:0:
146,140,45296,1,8,0:0:0:0:
146,140,45496,1,0,0:0:0:0:
146,140,45596,1,0,0:0:0:0:
146,140,45696,1,8,0:0:0:0:
146,140,45896,1,0,0:0:0:0:
146,140,46096,1,8,0:0:0:0:
146,140,46296,1,0,0:0:0:0:
146,140,46396,1,8,0:0:0:0:
146,140,46496,1,0,0:0:0:0:
146,140,46696,1,0,0:0:0:0:
146,140,46896,1,8,0:0:0:0:
146,140,47096,1,8,0:0:0:0:
146,140,47196,1,8,0:0:0:0:
146,140,47296,1,0,0:0:0:0:
416,80,47396,1,8,0:0:0:0:
146,140,47496,1,0,0:0:0:0:
146,140,47696,1,8,0:0:0:0:
146,140,47896,1,0,0:0:0:0:
146,140,48296,1,0,0:0:0:0:
146,140,48496,1,8,0:0:0:0:
146,140,48596,1,8,0:0:0:0:
146,140,48696,1,0,0:0:0:0:
146,140,48896,1,8,0:0:0:0:
146,140,49096,1,0,0:0:0:0:
146,140,49296,1,8,0:0:0:0:
146,140,49496,1,8,0:0:0:0:
146,140,49596,1,8,0:0:0:0:
146,140,49696,1,0,0:0:0:0:
146,140,49896,1,0,0:0:0:0:
146,140,49996,1,0,0:0:0:0:
146,140,50096,1,8,0:0:0:0:
146,140,50296,1,0,0:0:0:0:
146,140,50396,1,8,0:0:0:0:
146,140,50496,1,0,0:0:0:0:
146,140,50596,1,8,0:0:0:0:
146,140,50696,1,0,0:0:0:0:
146,140,50896,1,8,0:0:0:0:
146,140,51296,1,12,0:0:0:0:
146,140,51496,1,0,0:0:0:0:
146,140,51596,1,0,0:0:0:0:
146,140,51696,1,8,0:0:0:0:
146,140,51796,1,0,0:0:0:0:
146,140,51896,1,0,0:0:0:0:
146,140,52096,1,8,0:0:0:0:
146,140,52296,1,0,0:0:0:0:
146,140,52396,1,0,0:0:0:0:
146,140,52496,1,8,0:0:0:0:
146,140,52596,1,8,0:0:0:0:
146,140,52696,1,0,0:0:0:0:
146,140,52896,1,8,0:0:0:0:
146,140,53096,1,0,0:0:0:0:
146,140,53196,1,8,0:0:0:0:
146,140,53296,1,8,0:0:0:0:
146,140,53396,1,8,0:0:0:0:
146,140,53496,1,0,0:0:0:0:
146,140,53696,1,8,0:0:0:0:
146,140,53896,1,0,0:0:0:0:
146,140,53996,1,0,0:0:0:0:
146,140,54096,1,8,0:0:0:0:
146,140,54496,1,0,0:0:0:0:
146,140,54696,1,8,0:0:0:0:
146,140,54896,1,8,0:0:0:0:
146,140,54996,1,8,0:0:0:0:
146,140,55096,1,0,0:0:0:0:
146,140,55296,1,8,0:0:0:0:
146,140,55496,1,0,0:0:0:0:
146,140,55696,1,8,0:0:0:0:
146,140,55796,1,0,0:0:0:0:
146,140,55896,1,0,0:0:0:0:
146,140,56096,1,8,0:0:0:0:
146,140,56296,1,0,0:0:0:0:
146,140,56496,1,8,0:0:0:0:
146,140,56596,1,0,0:0:0:0:
146,140,56696,1,8,0:0:0:0:
146,140,56896,1,0,0:0:0:0:
146,140,57096,1,8,0:0:0:0:
146,140,57296,1,8,0:0:0:0:
146,140,57496,1,8,0:0:0:0:
146,140,57696,1,0,0:0:0:0:
146,140,57896,1,0,0:0:0:0:
146,140,57996,1,8,0:0:0:0:
146,140,58096,1,8,0:0:0:0:
146,140,58196,1,8,0:0:0:0:
146,140,58296,1,0,0:0:0:0:
146,140,58496,1,8,0:0:0:0:
146,140,58696,1,0,0:0:0:0:
146,140,58796,1,0,0:0:0:0:
146,140,58896,1,8,0:0:0:0:
146,140,58996,1,8,0:0:0:0:
146,140,59096,1,0,0:0:0:0:
146,140,59296,1,8,0:0:0:0:
146,140,59496,1,0,0:0:0:0:
146,140,59596,1,0,0:0:0:0:
146,140,59696,1,8,0:0:0:0:
146,140,59796,1,0,0:0:0:0:
146,140,59896,1,0,0:0:0:0:
146,140,60096,1,8,0:0:0:0:
146,140,60296,1,0,0:0:0:0:
146,140,60396,1,0,0:0:0:0:
146,140,60496,1,8,0:0:0:0:
146,140,60696,1,0,0:0:0:0:
146,140,60896,1,0,0:0:0:0:
146,140,61096,1,0,0:0:0:0:
146,140,61296,1,8,0:0:0:0:
146,140,61396,1,0,0:0:0:0:
146,140,61496,1,0,0:0:0:0:
146,140,61696,1,8,0:0:0:0:
146,140,61896,1,0,0:0:0:0:
146,140,62096,1,8,0:0:0:0:
146,140,62296,1,0,0:0:0:0:
146,140,62496,1,8,0:0:0:0:
146,140,62596,1,8,0:0:0:0:
146,140,62696,1,0,0:0:0:0:
146,140,62896,1,8,0:0:0:0:
146,140,63096,1,0,0:0:0:0:
146,140,63196,1,0,0:0:0:0:
146,140,63296,1,8,0:0:0:0:
146,140,63396,1,8,0:0:0:0:
146,140,63496,1,0,0:0:0:0:
146,140,63696,1,8,0:0:0:0:
146,140,64096,1,4,0:0:0:0:
146,140,64896,1,8,0:0:0:0:
146,140,65096,1,0,0:0:0:0:
146,140,65296,1,0,0:0:0:0:
146,140,65496,1,0,0:0:0:0:
146,140,65696,1,8,0:0:0:0:
146,140,65896,1,8,0:0:0:0:
146,140,66096,1,0,0:0:0:0:
146,140,66296,1,0,0:0:0:0:
146,140,66496,1,8,0:0:0:0:
146,140,66896,1,8,0:0:0:0:
146,140,67296,1,0,0:0:0:0:
146,140,67696,1,8,0:0:0:0:
146,140,67896,1,0,0:0:0:0:
146,140,68296,1,0,0:0:0:0:
146,140,68496,1,8,0:0:0:0:
146,140,68696,1,8,0:0:0:0:
146,140,68896,1,0,0:0:0:0:
146,140,68996,1,0,0:0:0:0:
146,140,69096,1,0,0:0:0:0:
146,140,69296,1,8,0:0:0:0:
146,140,69496,1,0,0:0:0:0:
146,140,69696,1,0,0:0:0:0:
146,140,69896,1,8,0:0:0:0:
146,140,70096,1,8,0:0:0:0:
146,140,70496,1,0,0:0:0:0:
146,140,70896,1,8,0:0:0:0:
146,140,71096,1,0,0:0:0:0:
146,140,71496,1,0,0:0:0:0:
146,140,71696,1,8,0:0:0:0:
146,140,72296,1,0,0:0:0:0:
146,140,72496,1,8,0:0:0:0:
146,140,72596,1,0,0:0:0:0:
146,140,72696,1,8,0:0:0:0:
146,140,72896,1,0,0:0:0:0:
146,140,73096,1,0,0:0:0:0:
146,140,73296,1,8,0:0:0:0:
146,140,73696,1,0,0:0:0:0:
146,140,74096,1,8,0:0:0:0:
146,140,74296,1,0,0:0:0:0:
146,140,74696,1,0,0:0:0:0:
146,140,74896,1,8,0:0:0:0:
146,140,75496,1,0,0:0:0:0:
146,140,75696,1,8,0:0:0:0:
146,140,75896,1,8,0:0:0:0:
146,140,76096,1,0,0:0:0:0:
146,140,76296,1,8,0:0:0:0:
146,140,76496,1,8,0:0:0:0:
146,140,76696,1,0,0:0:0:0:
146,140,76896,1,0,0:0:0:0:
146,140,77296,1,8,0:0:0:0:
146,140,77496,1,0,0:0:0:0:
146,140,77696,1,0,0:0:0:0:
146,140,78096,1,8,0:0:0:0:
146,140,78496,1,0,0:0:0:0:
146,140,78696,1,0,0:0:0:0:
146,140,78896,1,8,0:0:0:0:
146,140,79096,1,0,0:0:0:0:
146,140,79296,1,0,0:0:0:0:
146,140,79696,1,8,0:0:0:0:
146,140,79896,1,8,0:0:0:0:
146,140,80096,1,0,0:0:0:0:
146,140,80496,1,8,0:0:0:0:
146,140,80696,1,0,0:0:0:0:
146,140,80896,1,0,0:0:0:0:
146,140,81296,1,8,0:0:0:0:
146,140,81696,1,0,0:0:0:0:
146,140,82696,1,8,0:0:0:0:
146,140,82896,1,8,0:0:0:0:
146,140,83096,1,8,0:0:0:0:
146,140,83296,1,4,0:0:0:0:
146,140,83496,1,8,0:0:0:0:
146,140,83696,1,8,0:0:0:0:
146,140,83896,1,0,0:0:0:0:
146,140,83996,1,0,0:0:0:0:
146,140,84096,1,0,0:0:0:0:
146,140,84296,1,8,0:0:0:0:
146,140,84496,1,8,0:0:0:0:
146,140,84696,1,0,0:0:0:0:
146,140,84796,1,8,0:0:0:0:
146,140,84896,1,0,0:0:0:0:
146,140,85096,1,0,0:0:0:0:
146,140,85296,1,8,0:0:0:0:
146,140,85496,1,8,0:0:0:0:
146,140,85596,1,8,0:0:0:0:
146,140,85696,1,0,0:0:0:0:
146,140,86096,1,8,0:0:0:0:
146,140,86296,1,8,0:0:0:0:
146,140,86496,1,0,0:0:0:0:
146,140,86596,1,0,0:0:0:0:
146,140,86696,1,8,0:0:0:0:
146,140,86896,1,0,0:0:0:0:
146,140,87096,1,0,0:0:0:0:
146,140,87296,1,8,0:0:0:0:
146,140,87496,1,8,0:0:0:0:
146,140,87696,1,0,0:0:0:0:
146,140,87896,1,8,0:0:0:0:
146,140,87996,1,0,0:0:0:0:
146,140,88096,1,0,0:0:0:0:
146,140,88296,1,8,0:0:0:0:
146,140,88496,1,8,0:0:0:0:
146,140,88696,1,0,0:0:0:0:
146,140,88796,1,8,0:0:0:0:
146,140,88896,1,0,0:0:0:0:
416,80,88996,1,0,0:0:0:0:
146,140,89096,1,8,0:0:0:0:
146,140,89296,1,8,0:0:0:0:
146,140,89496,1,0,0:0:0:0:
146,140,89896,1,0,0:0:0:0:
146,140,90096,1,8,0:0:0:0:
146,140,90296,1,0,0:0:0:0:
146,140,90396,1,0,0:0:0:0:
146,140,90496,1,0,0:0:0:0:
146,140,90696,1,8,0:0:0:0:
146,140,90896,1,8,0:0:0:0:
146,140,91096,1,0,0:0:0:0:
146,140,91196,1,0,0:0:0:0:
146,140,91296,1,8,0:0:0:0:
146,140,91496,1,0,0:0:0:0:
146,140,91696,1,8,0:0:0:0:
146,140,91896,1,8,0:0:0:0:
146,140,91996,1,8,0:0:0:0:
146,140,92096,1,0,0:0:0:0:
416,80,92196,1,8,0:0:0:0:
146,140,92296,1,0,0:0:0:0:
146,140,92496,1,8,0:0:0:0:
146,140,92696,1,0,0:0:0:0:
146,140,93096,1,0,0:0:0:0:
146,140,93296,1,8,0:0:0:0:
146,140,93396,1,8,0:0:0:0:
146,140,93496,1,0,0:0:0:0:
146,140,93696,1,8,0:0:0:0:
146,140,93896,1,0,0:0:0:0:
146,140,94096,1,8,0:0:0:0:
146,140,94296,1,8,0:0:0:0:
146,140,94396,1,8,0:0:0:0:
146,140,94496,1,0,0:0:0:0:
146,140,94696,1,0,0:0:0:0:
146,140,94896,1,8,0:0:0:0:
146,140,95096,1,0,0:0:0:0:
146,140,95196,1,0,0:0:0:0:
146,140,95296,1,8,0:0:0:0:
146,140,95396,1,0,0:0:0:0:
146,140,95496,1,0,0:0:0:0:
146,140,95696,1,8,0:0:0:0:
146,140,96096,1,12,0:0:0:0:
146,140,96296,1,0,0:0:0:0:
146,140,96396,1,8,0:0:0:0:
146,140,96496,1,8,0:0:0:0:
146,140,96596,1,8,0:0:0:0:
146,140,96696,1,0,0:0:0:0:
146,140,96896,1,8,0:0:0:0:
146,140,97096,1,0,0:0:0:0:
146,140,97196,1,0,0:0:0:0:
146,140,97296,1,8,0:0:0:0:
146,140,97396,1,8,0:0:0:0:
146,140,97496,1,0,0:0:0:0:
146,140,97696,1,8,0:0:0:0:
146,140,97896,1,0,0:0:0:0:
146,140,97996,1,0,0:0:0:0:
146,140,98096,1,8,0:0:0:0:
146,140,98196,1,0,0:0:0:0:
146,140,98296,1,0,0:0:0:0:
146,140,98496,1,8,0:0:0:0:
146,140,98696,1,0,0:0:0:0:
146,140,98796,1,0,0:0:0:0:
146,140,98896,1,8,0:0:0:0:
146,140,99296,1,0,0:0:0:0:
146,140,99496,1,8,0:0:0:0:
146,140,99696,1,8,0:0:0:0:
146,140,99796,1,8,0:0:0:0:
146,140,99896,1,0,0:0:0:0:
146,140,100096,1,8,0:0:0:0:
146,140,100296,1,0,0:0:0:0:
146,140,100496,1,8,0:0:0:0:
146,140,100596,1,0,0:0:0:0:
146,140,100696,1,0,0:0:0:0:
146,140,100896,1,0,0:0:0:0:
146,140,101096,1,8,0:0:0:0:
146,140,101296,1,8,0:0:0:0:
146,140,101396,1,8,0:0:0:0:
146,140,101496,1,8,0:0:0:0:
146,140,101696,1,0,0:0:0:0:
146,140,101896,1,8,0:0:0:0:
146,140,102096,1,8,0:0:0:0:
146,140,102296,1,8,0:0:0:0:
146,140,102496,1,0,0:0:0:0:
146,140,102696,1,0,0:0:0:0:
146,140,102796,1,0,0:0:0:0:
146,140,102896,1,8,0:0:0:0:
146,140,102996,1,0,0:0:0:0:
146,140,103096,1,0,0:0:0:0:
146,140,103296,1,8,0:0:0:0:
146,140,103496,1,0,0:0:0:0:
146,140,103596,1,0,0:0:0:0:
146,140,103696,1,8,0:0:0:0:
146,140,103796,1,8,0:0:0:0:
146,140,103896,1,0,0:0:0:0:
146,140,104096,1,8,0:0:0:0:
146,140,104296,1,0,0:0:0:0:
146,140,104396,1,8,0:0:0:0:
146,140,104496,1,8,0:0:0:0:
146,140,104596,1,8,0:0:0:0:
146,140,104696,1,0,0:0:0:0:
146,140,104896,1,8,0:0:0:0:
146,140,105096,1,0,0:0:0:0:
146,140,105196,1,0,0:0:0:0:
146,140,105296,1,8,0:0:0:0:
146,140,105496,1,0,0:0:0:0:
146,140,105696,1,0,0:0:0:0:
146,140,105896,1,0,0:0:0:0:
146,140,106096,1,8,0:0:0:0:
146,140,106296,1,0,0:0:0:0:
146,140,106496,1,8,0:0:0:0:
146,140,106596,1,0,0:0:0:0:
146,140,106696,1,0,0:0:0:0:
146,140,106896,1,8,0:0:0:0:
146,140,107096,1,0,0:0:0:0:
146,140,107296,1,8,0:0:0:0:
146,140,107396,1,8,0:0:0:0:
146,140,107496,1,0,0:0:0:0:
146,140,107696,1,8,0:0:0:0:
146,140,107896,1,0,0:0:0:0:
146,140,107996,1,0,0:0:0:0:
146,140,108096,1,8,0:0:0:0:
146,140,108196,1,8,0:0:0:0:
146,140,108296,1,0,0:0:0:0:
146,140,108496,1,8,0:0:0:0:
146,140,108896,1,4,0:0:0:0:
146,140,109296,1,8,0:0:0:0:
146,140,109696,1,8,0:0:0:0:
146,140,110096,1,0,0:0:0:0:
146,140,110296,1,8,0:0:0:0:
146,140,110496,1,0,0:0:0:0:
146,140,110696,1,0,0:0:0:0:
146,140,110896,1,8,0:0:0:0:
146,140,111296,1,8,0:0:0:0:
146,140,111896,1,8,0:0:0:0:
146,140,112096,1,8,0:0:0:0:
146,140,112296,1,0,0:0:0:0:
146,140,112496,1,0,0:0:0:0:
146,140,112696,1,0,0:0:0:0:
146,140,112896,1,8,0:0:0:0:
146,140,113296,1,0,0:0:0:0:
146,140,113496,1,8,0:0:0:0:
146,140,113896,1,8,0:0:0:0:
146,140,114296,1,0,0:0:0:0:
146,140,114496,1,0,0:0:0:0:
146,140,114696,1,8,0:0:0:0:
146,140,115096,1,0,0:0:0:0:
146,140,115496,1,0,0:0:0:0:
146,140,115696,1,8,0:0:0:0:
146,140,116096,1,8,0:0:0:0:
146,140,116496,1,0,0:0:0:0:
146,140,116696,1,8,0:0:0:0:
146,140,116896,1,0,0:0:0:0:
146,140,117096,1,0,0:0:0:0:
146,140,117296,1,8,0:0:0:0:
146,140,117696,1,8,0:0:0:0:
146,140,118296,1,8,0:0:0:0:
146,140,118696,1,0,0:0:0:0:
146,140,118896,1,8,0:0:0:0:
146,140,119296,1,8,0:0:0:0:
146,140,119496,1,0,0:0:0:0:
146,140,119696,1,0,0:0:0:0:
146,140,119896,1,8,0:0:0:0:
146,140,120296,1,8,0:0:0:0:
146,140,120696,1,0,0:0:0:0:
146,140,120896,1,0,0:0:0:0:
146,140,121096,1,8,0:0:0:0:
146,140,121496,1,0,0:0:0:0:
