osu file format v14

[General]
AudioFilename: ange.mp3
AudioLeadIn: 0
PreviewTime: 37389
Countdown: 0
SampleSet: Soft
StackLeniency: 0.2
Mode: 0
LetterboxInBreaks: 0
WidescreenStoryboard: 1

[Editor]
Bookmarks: 11263,32362,37636
DistanceSpacing: 0.4
BeatDivisor: 4
GridSize: 4
TimelineZoom: 2.2

[Metadata]
Title:Telecaster B-boy
TitleUnicode:テレキャスタービーボーイ
Artist:Ange Katrina
ArtistUnicode:アンジュ・カトリーナ
Creator:wiken
Version:newton's Insane
Source:
Tags:three すりぃ surii 3 パラドックス paradox pandemic パンデミック nijisanji vtuber amateurre maid nightlys newton- cami virtual youtuber にじさんじ 2434 YAB vocaloid cover japanese pop
BeatmapID:2603862
BeatmapSetID:1252909

[Difficulty]
HPDrainRate:5
CircleSize:3.5
OverallDifficulty:8
ApproachRate:9
SliderMultiplier:1.5
SliderTickRate:1

[Events]
//Background and Video events
0,0,"BG.jpg",0,0
Video,0,"ange.mp4"
//Break Periods
//Storyboard Layer 0 (Background)
//Storyboard Layer 1 (Fail)
//Storyboard Layer 2 (Pass)
//Storyboard Layer 3 (Foreground)
//Storyboard Layer 4 (Overlay)
//Storyboard Sound Samples

[TimingPoints]
-605,329.67032967033,4,2,1,60,1,0
384,-166.666666666667,4,2,7,50,0,0
631,-166.666666666667,4,2,7,5,0,0
713,-100,4,2,7,60,0,0
10603,-100,4,2,7,60,0,0
11263,-100,4,2,7,60,0,0
16537,-125,4,2,7,60,0,0
21153,-100,4,2,1,60,0,0
21318,-100,4,2,1,60,0,0
21812,-100,4,2,7,60,0,0
22307,-100,4,2,7,60,0,0
23131,-100,4,2,7,60,0,0
23955,-100,4,2,7,60,0,0
28405,-100,4,2,7,60,0,0
29230,-100,4,2,7,60,0,0
32362,-333.333333333333,4,2,7,40,0,0
37636,-71.4285714285714,4,2,7,60,0,0
43241,-71.4285714285714,4,2,7,60,0,0
43570,-71.4285714285714,4,2,7,60,0,0
46867,-71.4285714285714,4,2,7,60,0,0
47856,-71.4285714285714,4,2,2,60,0,0
47938,-71.4285714285714,4,2,7,60,0,0
48186,-100,4,2,7,60,0,0
49504,-62.5,4,2,7,60,0,0
49999,-71.4285714285714,4,2,7,60,0,0
53460,-71.4285714285714,4,2,7,60,0,0

[Colours]
Combo1 : 255,179,179
Combo2 : 255,245,193
Combo3 : 255,198,255
Combo4 : 244,217,208

[HitObjects]
166,245,384,38,0,P|138:239|147:266,1,67.4999979400635,12|0,3:0|0:0,0:0:0:0:
165,244,713,6,0,P|166:206|165:169,1,75,4|0,1:2|0:0,0:0:0:0:
156,156,960,1,0,0:0:0:0:
145,144,1043,1,8,0:0:0:0:
245,65,1208,2,0,L|95:51,1,150,2|2,0:0|0:0,0:0:0:0:
252,155,1702,1,8,0:0:0:0:
329,102,1867,1,2,0:0:0:0:
396,245,2032,6,0,P|394:207|395:170,1,75,2|0,3:2|0:0,0:0:0:0:
493,248,2279,1,2,3:2:0:0:
495,263,2362,2,0,P|496:300|495:337,1,75,8|2,0:0|0:0,0:0:0:0:
327,360,2691,1,0,3:0:0:0:
308,266,2856,1,2,0:3:0:0:
304,270,2938,1,0,3:0:0:0:
300,274,3021,1,10,0:0:0:0:
214,301,3186,1,2,0:0:0:0:
154,165,3351,22,0,B|147:234|147:234|126:245|109:231,1,112.5,2|0,3:2|0:0,0:0:0:0:
18,200,3680,2,0,L|24:274,1,75,8|2,0:0|0:0,0:0:0:0:
73,126,4010,1,0,3:0:0:0:
244,178,4175,1,2,0:0:0:0:
211,97,4340,1,8,0:0:0:0:
382,45,4504,1,2,0:2:0:0:
337,196,4669,6,0,P|335:158|336:121,1,75,2|0,3:2|0:0,0:0:0:0:
427,217,4916,1,0,0:0:0:0:
427,232,4999,2,0,P|428:269|427:306,2,75,8|2|0,0:0|0:0|3:0,0:0:0:0:
235,267,5493,1,2,0:3:0:0:
254,265,5576,1,0,3:0:0:0:
272,264,5658,1,8,0:0:0:0:
464,131,5823,1,8,0:0:0:0:
445,129,5905,1,8,0:0:0:0:
427,128,5988,1,4,1:2:0:0:
261,351,6318,21,8,0:0:0:0:
235,267,6482,1,2,0:0:0:0:
63,259,6647,5,0,3:0:0:0:
89,175,6812,1,2,0:0:0:0:
173,201,6977,1,8,0:0:0:0:
147,285,7142,1,2,0:0:0:0:
17,94,7307,22,0,L|129:84,1,112.5,2|2,3:2|3:2,0:0:0:0:
220,30,7636,2,0,P|218:67|220:104,1,75,8|2,0:0|0:0,0:0:0:0:
415,208,7966,1,0,3:0:0:0:
396,114,8131,1,2,0:3:0:0:
392,118,8213,1,0,3:0:0:0:
388,122,8296,1,8,0:0:0:0:
302,149,8460,1,2,0:0:0:0:
484,93,8625,6,0,P|486:56|485:19,2,75,2|0|8,3:2|0:0|0:0,0:0:0:0:
444,291,9120,2,0,P|399:234|327:237,1,150,2|2,0:0|0:0,0:0:0:0:
183,285,9614,1,8,0:0:0:0:
269,310,9779,1,2,0:0:0:0:
286,141,9944,22,0,B|268:126|247:137|247:137|241:207,1,112.5,2|0,3:2|0:0,0:0:0:0:
158,139,10274,2,0,L|151:64,1,75,8|2,0:0|0:0,0:0:0:0:
67,232,10603,21,2,0:3:0:0:
84,224,10686,1,0,3:0:0:0:
102,221,10768,1,8,0:0:0:0:
121,223,10851,1,0,3:0:0:0:
139,228,10933,1,8,0:0:0:0:
155,238,11015,1,0,3:0:0:0:
168,251,11098,1,0,3:0:0:0:
177,267,11180,1,0,3:0:0:0:
183,285,11263,1,4,3:2:0:0:
117,351,11427,5,2,0:0:0:0:
183,285,11592,1,8,0:0:0:0:
268,310,11757,1,2,0:0:0:0:
289,99,12087,5,0,0:0:0:0:
311,182,12252,1,8,0:0:0:0:
227,159,12416,1,2,0:0:0:0:
472,96,12581,5,2,3:0:0:0:
472,96,12746,1,2,0:0:0:0:
472,96,13076,1,2,0:3:0:0:
227,159,13405,5,0,3:0:0:0:
311,182,13570,1,8,0:0:0:0:
289,99,13735,1,2,0:0:0:0:
113,57,13900,5,2,3:2:0:0:
142,138,14065,1,2,0:0:0:0:
61,167,14230,1,8,0:0:0:0:
3,329,14395,1,2,0:0:0:0:
3,329,14724,21,2,0:0:0:0:
85,300,14889,1,8,0:0:0:0:
151,356,15054,1,2,0:0:0:0:
246,248,15219,21,2,3:2:0:0:
246,248,15384,1,0,3:0:0:0:
246,248,15713,1,2,0:0:0:0:
466,322,16043,5,2,3:0:0:0:
464,341,16125,1,2,3:0:0:0:
463,359,16208,1,8,0:0:0:0:
381,329,16373,1,2,0:3:0:0:
472,196,16537,6,0,P|433:239|374:238,1,120,0|8,3:0|0:0,0:0:0:0:
402,218,17032,2,0,P|348:194|331:138,1,120,2|2,0:0|0:0,0:0:0:0:
498,7,17526,1,8,0:0:0:0:
419,120,17691,1,2,0:0:0:0:
296,56,17856,22,0,P|237:55|198:98,1,120,2|8,3:0|0:0,0:0:0:0:
175,74,18351,2,0,P|156:129|185:179,1,120,2|0,0:3|3:0,0:0:0:0:
259,227,18845,1,8,0:0:0:0:
72,111,19010,1,2,0:0:0:0:
0,236,19175,6,0,L|123:246,1,120,2|8,3:2|0:0,0:0:0:0:
82,278,19669,2,0,L|205:288,1,120
135,369,20164,1,8,0:0:0:0:
286,320,20329,1,2,0:0:0:0:
437,271,20493,5,0,3:0:0:0:
437,271,20658,1,2,0:3:0:0:
437,271,20988,1,2,0:0:0:0:
135,369,21318,5,6,1:2:0:0:
437,271,21482,1,6,1:2:0:0:
286,320,21647,1,2,0:0:0:0:
351,177,21812,6,0,P|352:214|350:251,2,75,4|0|8,3:2|0:0|0:0,0:0:0:0:
260,214,22307,2,0,P|215:157|143:160,1,150,2|2,0:0|0:0,0:0:0:0:
296,102,22801,1,8,0:0:0:0:
441,185,22966,1,2,0:0:0:0:
305,15,23131,5,12,0:1:0:0:
296,102,23296,1,12,0:1:0:0:
226,51,23460,1,2,3:2:0:0:
375,66,23625,1,12,0:1:0:0:
180,280,23955,5,0,3:0:0:0:
179,262,24037,1,0,3:0:0:0:
178,243,24120,1,8,0:0:0:0:
108,327,24285,1,2,0:0:0:0:
51,181,24449,6,0,P|50:218|52:255,1,75,2|2,3:2|0:0,0:0:0:0:
180,280,24779,1,8,0:0:0:0:
108,327,24944,2,0,L|258:313,1,150,2|2,0:0|0:0,0:0:0:0:
396,359,25438,1,8,0:0:0:0:
344,286,25603,1,2,0:0:0:0:
426,131,25768,5,2,3:0:0:0:
426,131,25933,1,2,0:0:0:0:
426,131,26263,1,2,0:2:0:0:
171,98,26592,5,2,0:0:0:0:
257,125,26757,1,10,0:2:0:0:
284,39,26922,1,2,0:0:0:0:
81,61,27087,6,0,P|80:98|82:135,1,75,0|2,3:0|0:0,0:0:0:0:
188,188,27416,1,8,0:0:0:0:
346,105,27581,2,0,P|345:179|343:254,1,150,2|2,0:0|0:0,0:0:0:0:
433,133,28076,1,8,0:0:0:0:
477,207,28241,1,2,0:0:0:0:
328,340,28405,5,12,0:1:0:0:
259,283,28570,1,12,0:1:0:0:
245,369,28735,1,2,3:2:0:0:
342,254,28900,1,12,0:1:0:0:
62,228,29230,5,2,3:0:0:0:
80,227,29312,1,0,3:0:0:0:
99,226,29395,1,8,0:0:0:0:
150,300,29559,1,2,0:0:0:0:
191,147,29724,6,0,P|190:184|192:221,1,75,0|0,3:0|0:0,0:0:0:0:
106,60,30054,2,0,P|107:97|105:134,1,75,8|0,0:0|0:0,0:0:0:0:
258,16,30384,2,0,P|257:53|259:90,1,75,0|0,3:0|0:0,0:0:0:0:
292,251,30713,1,8,0:0:0:0:
465,132,30878,1,2,0:0:0:0:
318,165,31043,5,2,3:0:0:0:
318,165,31208,1,2,0:0:0:0:
318,165,31537,1,2,0:0:0:0:
465,132,31867,5,12,0:0:0:0:
318,165,32032,1,12,0:0:0:0:
465,132,32362,5,6,3:2:0:0:
318,165,32526,2,0,L|322:212,1,44.999998626709,2|2,0:0|0:0,0:0:0:0:
239,245,33021,21,2,3:2:0:0:
386,278,33186,2,0,L|381:325,1,44.999998626709,2|2,0:0|0:0,0:0:0:0:
183,357,33680,6,0,L|179:312,1,44.999998626709,2|2,3:2|0:3,0:0:0:0:
91,321,34340,2,0,L|94:365,1,44.999998626709,2|2,0:0|3:0,0:0:0:0:
122,172,34834,21,2,0:0:0:0:
122,172,35164,1,0,0:0:0:0:
204,192,35329,1,2,0:3:0:0:
286,212,35493,1,2,0:0:0:0:
371,154,35658,5,2,3:2:0:0:
330,164,35823,1,2,0:0:0:0:
289,174,35988,1,2,0:3:0:0:
248,184,36153,1,2,0:0:0:0:
357,357,36318,5,2,0:0:0:0:
357,357,36482,1,2,0:0:0:0:
357,357,36812,1,2,0:0:0:0:
273,16,37471,5,2,0:3:0:0:
369,207,37636,22,0,L|383:51,1,157.499995193482,4|0,3:2|0:0,0:0:0:0:
369,49,37966,2,0,L|355:205,1,157.499995193482,8|0,0:0|0:0,0:0:0:0:
352,290,38296,1,2,3:2:0:0:
268,120,38460,5,2,0:0:0:0:
249,121,38543,1,2,3:0:0:0:
231,122,38625,1,8,0:0:0:0:
260,211,38790,1,2,0:0:0:0:
83,205,38955,5,4,3:0:0:0:
83,205,39120,1,2,0:0:0:0:
167,231,39285,1,8,0:0:0:0:
141,315,39449,1,2,0:0:0:0:
259,210,39614,22,0,P|303:183|353:196,1,104.999996795654,2|0,3:1|0:0,0:0:0:0:
277,301,39862,1,2,3:1:0:0:
277,301,39944,2,0,P|327:313|371:287,1,104.999996795654,8|2,0:0|0:1,0:0:0:0:
294,132,40274,5,0,3:0:0:0:
336,365,40438,1,2,0:0:0:0:
435,226,40603,1,8,0:0:0:0:
195,271,40768,1,2,0:3:0:0:
195,271,40851,2,0,B|82:262|82:262|99:247|99:247|127:256,1,157.499995193482,2|2,0:3|0:0,0:0:0:0:
132,354,41263,1,8,0:0:0:0:
28,180,41427,1,2,0:0:0:0:
128,57,41592,6,0,L|117:172,1,104.999996795654,0|0,3:0|0:0,0:0:0:0:
151,164,41840,1,2,3:0:0:0:
151,164,41922,2,0,L|160:59,1,104.999996795654,8|2,0:0|0:0,0:0:0:0:
295,240,42252,2,0,B|386:224|332:172|428:157,1,157.499995193482,2|2,0:0|3:0,0:0:0:0:
466,264,42581,1,8,0:0:0:0:
510,182,42746,5,8,0:0:0:0:
511,163,42829,1,8,0:0:0:0:
512,145,42911,1,12,3:0:0:0:
149,257,43241,6,0,P|224:244|283:293,1,157.499995193482,12|0,1:0|0:0,0:0:0:0:
290,326,43570,1,2,3:2:0:0:
177,380,43735,1,2,0:0:0:0:
178,361,43818,1,2,3:0:0:0:
179,343,43900,1,8,0:0:0:0:
190,146,44065,1,2,0:0:0:0:
64,292,44230,21,8,0:0:0:0:
34,204,44395,1,0,0:0:0:0:
146,9,44559,5,12,0:0:0:0:
101,141,44724,1,2,0:0:0:0:
261,86,44889,5,2,3:1:0:0:
334,146,45054,1,2,0:0:0:0:
333,165,45136,1,2,3:1:0:0:
332,183,45219,1,8,0:0:0:0:
417,73,45384,5,10,0:0:0:0:
418,92,45466,1,8,0:0:0:0:
419,110,45548,1,12,0:0:0:0:
428,276,45713,1,2,0:0:0:0:
262,285,45878,1,12,0:0:0:0:
262,285,46043,1,0,3:0:0:0:
187,65,46208,5,12,0:0:0:0:
178,231,46373,1,0,3:0:0:0:
344,240,46537,1,12,0:0:0:0:
344,240,46702,1,0,3:0:0:0:
93,315,46867,6,0,L|79:158,1,157.499995193482,12|0,0:0|0:0,0:0:0:0:
43,128,47197,2,0,L|47:180,1,52.4999983978272,8|8,0:0|0:0,0:0:0:0:
57,298,47362,2,0,L|61:350,1,52.4999983978272,10|8,0:2|0:0,0:0:0:0:
178,231,47526,5,10,0:0:0:0:
179,211,47609,1,8,0:0:0:0:
181,191,47691,1,8,0:0:0:0:
183,172,47774,1,8,0:0:0:0:
184,152,47856,1,10,0:0:0:0:
186,132,47938,1,8,0:0:0:0:
188,113,48021,1,8,0:0:0:0:
190,93,48103,1,8,0:0:0:0:
191,74,48186,5,6,3:2:0:0:
279,181,48351,1,2,0:0:0:0:
356,84,48515,2,0,L|281:90,1,75,8|2,0:0|0:0,0:0:0:0:
404,188,48845,21,2,3:2:0:0:
316,295,49010,1,2,0:0:0:0:
239,198,49175,2,0,L|313:204,1,75,8|2,0:0|0:0,0:0:0:0:
389,334,49504,6,0,P|329:334|281:368,2,120,2|2|8,3:0|3:2|0:0,0:0:0:0:
175,283,49999,1,2,0:0:0:0:
194,284,50081,1,0,3:0:0:0:
212,285,50164,1,2,3:0:0:0:
58,340,50329,1,2,3:0:0:0:
3,186,50493,1,8,0:0:0:0:
157,131,50658,1,2,0:0:0:0:
141,166,50823,5,0,3:0:0:0:
283,200,50988,1,2,0:0:0:0:
317,58,51153,1,8,0:0:0:0:
175,24,51318,1,2,0:0:0:0:
172,36,51482,5,0,3:0:0:0:
314,70,51647,1,2,3:2:0:0:
453,49,51812,5,8,0:0:0:0:
311,83,51977,1,2,0:0:0:0:
369,249,52142,2,0,L|380:140,2,104.999996795654,2|0|8,3:2|0:0|0:0,0:0:0:0:
502,216,52636,1,2,0:0:0:0:
484,215,52719,1,0,0:0:0:0:
465,214,52801,1,2,3:0:0:0:
338,335,52966,1,2,0:0:0:0:
356,334,53048,1,0,0:0:0:0:
375,333,53131,1,8,0:0:0:0:
464,305,53296,1,10,0:0:0:0:
234,210,53460,6,0,L|248:366,1,157.499995193482,4|0,1:0|0:0,0:0:0:0:
234,368,53790,2,0,L|220:212,1,157.499995193482,8|0,0:0|0:0,0:0:0:0:
219,125,54120,1,2,3:2:0:0:
134,297,54285,1,0,0:0:0:0:
116,296,54367,1,2,3:0:0:0:
97,295,54449,1,8,0:0:0:0:
123,205,54614,1,2,0:0:0:0:
102,51,54779,5,0,3:0:0:0:
102,51,54944,1,2,3:2:0:0:
18,77,55109,1,8,0:0:0:0:
44,161,55274,1,2,0:0:0:0:
195,30,55438,2,0,L|299:40,1,104.999996795654,2|0,3:1|0:0,0:0:0:0:
403,64,55686,1,2,3:1:0:0:
403,64,55768,2,0,L|298:53,1,104.999996795654,8|2,0:0|0:1,0:0:0:0:
339,151,56098,5,0,3:0:0:0:
471,130,56263,1,2,3:2:0:0:
352,183,56427,5,8,0:0:0:0:
220,162,56592,1,8,0:0:0:0:
78,210,56757,5,2,3:2:0:0:
210,189,56922,1,2,3:2:0:0:
231,321,57087,1,8,0:0:0:0:
99,342,57252,1,10,3:2:0:0:
132,129,57416,21,12,0:0:0:0:
154,268,57581,1,2,3:2:0:0:
154,268,57746,1,8,0:0:0:0:
317,348,57911,5,2,3:2:0:0:
318,330,57993,1,2,3:2:0:0:
319,311,58076,1,8,0:0:0:0:
324,222,58241,1,12,0:0:0:0:
324,222,58405,1,12,0:0:0:0:
324,222,58570,1,8,0:0:0:0:
154,268,58735,21,6,3:2:0:0:
113,245,58900,1,12,0:0:0:0:
131,153,59065,1,12,0:0:0:0:
270,135,59230,1,12,0:0:0:0:
358,320,59395,1,8,0:0:0:0:
