osu file format v14

[General]
AudioFilename: ange.mp3
AudioLeadIn: 0
PreviewTime: 37389
Countdown: 0
SampleSet: Soft
StackLeniency: 0.7
Mode: 0
LetterboxInBreaks: 0
WidescreenStoryboard: 1

[Editor]
DistanceSpacing: 0.4
BeatDivisor: 4
GridSize: 32
TimelineZoom: 3.299999

[Metadata]
Title:Telecaster B-boy
TitleUnicode:テレキャスタービーボーイ
Artist:Ange Katrina
ArtistUnicode:アンジュ・カトリーナ
Creator:wiken
Version:Expert
Source:
Tags:three すりぃ surii 3 パラドックス paradox pandemic パンデミック nijisanji vtuber amateurre maid nightlys newton- cami virtual youtuber にじさんじ 2434 YAB vocaloid cover japanese pop
BeatmapID:2603860
BeatmapSetID:1252909

[Difficulty]
HPDrainRate:6
CircleSize:4
OverallDifficulty:8.5
ApproachRate:9
SliderMultiplier:1.6
SliderTickRate:1

[Events]
//Background and Video events
0,0,"BG.jpg",0,0
Video,0,"ange.mp4"
//Break Periods
//Storyboard Layer 0 (Background)
//Storyboard Layer 1 (Fail)
//Storyboard Layer 2 (Pass)
//Storyboard Layer 3 (Foreground)
//Storyboard Layer 4 (Overlay)
//Storyboard Sound Samples

[TimingPoints]
-605,329.67032967033,4,2,7,60,1,0
384,-166.666666666667,4,2,7,70,0,0
631,-166.666666666667,4,2,7,5,0,0
713,-83.3333333333333,4,2,7,70,0,0
10603,-66.6666666666667,4,2,7,60,0,0
11263,-100,4,2,7,60,0,0
21318,-50,4,2,1,60,0,0
21812,-83.3333333333333,4,2,7,60,0,0
23131,-66.6666666666667,4,2,7,60,0,0
23955,-83.3333333333333,4,2,7,60,0,0
28405,-66.6666666666667,4,2,7,60,0,0
29230,-83.3333333333333,4,2,7,60,0,0
32032,-111.111111111111,4,2,7,60,0,0
32362,-125,4,2,7,40,0,0
37636,-76.9230769230769,4,2,7,75,0,0
42911,-50,4,2,7,75,0,0
42993,-50,4,2,7,5,0,0
43241,-62.5,4,2,7,75,0,0
43570,-76.9230769230769,4,2,7,75,0,0
46867,-66.6666666666667,4,2,7,75,0,0
47856,-66.6666666666667,4,2,2,75,0,1
47938,-71.4285714285714,4,2,7,75,0,0
49340,-76.9230769230769,4,2,7,60,0,0

[Colours]
Combo1 : 255,179,179
Combo2 : 255,245,193
Combo3 : 255,198,255
Combo4 : 244,217,208

[HitObjects]
200,101,384,6,0,P|164:103|141:130,1,71.9999978027344,12|0,3:0|0:0,0:0:0:0:
109,28,713,6,0,B|136:169,1,143.999995605469,4|0,1:2|0:0,0:0:0:0:
86,235,1043,1,8,0:0:0:0:
338,384,1208,2,0,P|302:354|256:342,1,95.9999970703126,2|0,0:0|3:0,0:0:0:0:
339,286,1537,1,2,0:0:0:0:
168,384,1702,1,8,0:0:0:0:
240,240,1867,1,2,0:0:0:0:
459,185,2032,6,0,P|491:220|509:265,1,95.9999970703126,2|0,3:2|0:0,0:0:0:0:
482,364,2279,1,2,3:2:0:0:
466,355,2362,1,8,0:0:0:0:
406,111,2526,2,0,P|364:89|316:84,1,95.9999970703126,2|0,0:0|3:0,0:0:0:0:
186,202,2856,1,2,0:3:0:0:
342,165,3021,1,10,0:0:0:0:
227,23,3186,1,2,0:0:0:0:
0,100,3351,6,0,B|105:102|69:144|178:169,1,191.999994140625,2|8,3:2|0:0,0:0:0:0:
95,365,3845,2,0,P|49:368|19:332,1,95.9999970703126,2|0,0:0|3:0,0:0:0:0:
171,332,4175,1,2,0:0:0:0:
17,256,4340,1,8,0:0:0:0:
276,384,4504,5,2,0:2:0:0:
291,365,4587,1,2,0:0:0:0:
307,348,4669,2,0,P|357:323|439:284,1,143.999995605469,2|0,3:2|0:0,0:0:0:0:
512,124,4999,2,0,P|497:170|489:217,1,95.9999970703126,8|2,0:0|0:0,0:0:0:0:
229,313,5329,2,0,P|221:266|206:220,1,95.9999970703126,0|2,3:0|0:3,0:0:0:0:
375,74,5658,1,8,0:0:0:0:
95,0,5823,5,8,0:0:0:0:
54,25,5905,1,8,0:0:0:0:
12,51,5988,2,0,P|1:121|11:193,1,143.999995605469,4|0,1:2|0:0,0:0:0:0:
75,245,6318,1,8,0:0:0:0:
234,36,6482,2,0,P|219:81|209:128,1,95.9999970703126,2|0,0:0|3:0,0:0:0:0:
262,186,6812,1,2,0:0:0:0:
142,59,6977,1,8,0:0:0:0:
323,5,7142,1,2,0:0:0:0:
512,181,7307,6,0,P|467:164|421:153,1,95.9999970703126,2|0,3:2|0:0,0:0:0:0:
367,88,7554,1,2,3:2:0:0:
383,79,7636,1,8,0:0:0:0:
483,339,7801,2,0,P|475:291|461:245,1,95.9999970703126,2|0,0:0|3:0,0:0:0:0:
348,384,8131,1,2,0:3:0:0:
312,178,8296,1,8,0:0:0:0:
283,331,8460,1,2,0:0:0:0:
0,282,8625,6,0,P|87:315|171:275,1,191.999994140625,2|8,3:2|0:0,0:0:0:0:
387,212,9120,2,0,P|341:214|312:179,1,95.9999970703126,2|0,0:0|3:0,0:0:0:0:
440,158,9449,1,2,0:0:0:0:
263,246,9614,1,8,0:0:0:0:
281,0,9779,5,2,0:0:0:0:
266,19,9862,1,2,0:0:0:0:
249,35,9944,2,0,P|179:34|105:59,1,143.999995605469,2|0,3:2|0:0,0:0:0:0:
181,216,10274,2,0,P|210:178|218:131,1,95.9999970703126,8|2,0:0|0:0,0:0:0:0:
3,0,10603,6,0,P|15:28|21:57,1,60.0000022888184,2|0,0:3|3:0,0:0:0:0:
101,183,10768,1,8,0:0:0:0:
91,203,10851,1,0,3:0:0:0:
65,229,10933,5,8,0:0:0:0:
68,242,11015,1,0,3:0:0:0:
70,257,11098,1,0,3:0:0:0:
72,272,11180,1,0,3:0:0:0:
58,304,11263,5,4,3:2:0:0:
104,364,11427,1,2,0:0:0:0:
219,279,11592,1,8,0:0:0:0:
268,384,11757,2,0,P|258:329|238:203,1,160,2|0,0:0|0:0,0:0:0:0:
325,73,12252,5,8,0:0:0:0:
341,56,12416,1,2,0:0:0:0:
455,172,12581,1,2,3:0:0:0:
432,160,12746,2,0,P|423:96|416:53,1,80,2|8,0:0|0:0,0:0:0:0:
315,255,13076,2,0,P|290:205|235:114,1,160,2|0,0:3|3:0,0:0:0:0:
236,115,13488,1,0,3:0:0:0:
236,115,13570,1,8,0:0:0:0:
178,0,13735,5,2,0:0:0:0:
66,43,13900,1,2,3:2:0:0:
178,0,14065,1,2,0:0:0:0:
105,121,14230,1,8,0:0:0:0:
0,177,14395,2,0,P|77:196|153:222,1,160,2|2,0:0|0:0,0:0:0:0:
269,228,14889,1,8,0:0:0:0:
250,206,15054,1,2,0:0:0:0:
168,362,15219,6,0,P|205:350|245:344,1,80,2|0,3:2|3:0,0:0:0:0:
245,344,15466,1,0,3:0:0:0:
245,344,15548,1,8,0:0:0:0:
435,253,15713,2,0,P|474:259|512:272,1,80,2|0,0:0|3:0,0:0:0:0:
371,384,16043,1,2,3:0:0:0:
338,364,16125,1,2,3:0:0:0:
344,327,16208,1,8,0:0:0:0:
279,241,16373,1,2,0:3:0:0:
465,160,16537,5,0,3:0:0:0:
442,172,16702,2,0,P|401:157|363:158,1,80,2|8,0:0|0:0,0:0:0:0:
283,28,17032,2,0,P|205:46|125:48,1,160,2|2,0:0|0:0,0:0:0:0:
11,133,17526,5,8,0:0:0:0:
0,105,17691,1,2,0:0:0:0:
101,210,17856,1,2,3:0:0:0:
78,227,18021,2,0,P|40:216|0:213,1,80,2|8,0:0|0:0,0:0:0:0:
171,123,18351,2,0,P|220:185|260:254,1,160,2|0,0:3|3:0,0:0:0:0:
260,254,18763,1,0,3:0:0:0:
260,254,18845,1,8,0:0:0:0:
162,378,19010,1,2,0:0:0:0:
80,329,19175,6,0,P|70:270|55:212,1,120,2|0,3:2|0:0,0:0:0:0:
0,148,19504,2,0,P|25:119|64:111,1,80,8|0,0:0|0:0,0:0:0:0:
137,11,19834,2,0,P|162:40|201:48,1,80,0|0,3:0|0:0,0:0:0:0:
454,15,20164,1,8,0:0:0:0:
428,0,20329,1,2,0:0:0:0:
227,132,20493,5,0,3:0:0:0:
336,247,20658,1,2,0:3:0:0:
325,145,20823,2,0,L|346:223,1,80,8|2,0:0|0:0,0:0:0:0:
336,247,21318,6,2,B|354:285|354:285|399:296,1,80,6|0,1:2|0:0,0:1:0:0:
210,384,21482,2,2,B|205:343|205:343|220:304,1,80,6|0,1:2|0:0,0:1:0:0:
253,193,21647,5,2,0:0:0:0:
250,177,21730,1,2,0:0:0:0:
247,162,21812,2,0,P|185:178|130:200,1,95.9999970703126,4|0,3:2|0:0,0:0:0:0:
72,271,22142,1,8,0:0:0:0:
0,86,22307,2,0,P|75:75|207:75,1,191.999994140625,2|2,0:0|0:0,0:0:0:0:
359,135,22801,1,8,0:0:0:0:
314,56,22966,1,2,0:0:0:0:
463,45,23131,6,0,L|447:124,1,60.0000022888184,12|0,0:1|0:0,0:0:0:0:
334,268,23296,2,0,B|280:232|280:232|334:242,1,120.000004577637,12|2,0:1|3:2,0:0:0:0:
441,361,23625,2,0,B|495:325|495:325|440:335,1,120.000004577637,12|0,0:1|3:0,0:0:0:0:
415,188,23955,1,0,3:0:0:0:
432,205,24037,1,0,3:0:0:0:
449,222,24120,1,8,0:0:0:0:
301,363,24285,5,2,0:0:0:0:
239,260,24449,1,2,3:2:0:0:
103,348,24614,2,0,P|165:332|216:329,1,95.9999970703126,2|8,0:0|0:0,0:0:0:0:
0,224,24944,6,0,P|61:156|152:172,1,191.999994140625,2|2,0:0|0:0,0:0:0:0:
297,282,25438,1,8,0:0:0:0:
243,359,25603,1,2,0:0:0:0:
164,183,25768,6,0,P|171:231|176:279,1,95.9999970703126,2|2,3:0|0:0,0:0:0:0:
243,359,26015,2,0,P|245:335|249:311,1,47.9999985351563,0|8,3:0|0:0,0:0:0:0:
390,208,26263,2,0,P|437:215|483:229,1,95.9999970703126,2|0,0:2|3:0,0:0:0:0:
353,294,26592,1,2,0:0:0:0:
388,74,26757,5,10,0:2:0:0:
389,66,26812,1,2,0:2:0:0:
391,57,26867,1,2,0:2:0:0:
392,50,26922,1,2,0:0:0:0:
435,187,27087,6,0,P|474:159|493:110,1,95.9999970703126,0|2,3:0|0:0,0:0:0:0:
355,233,27416,1,8,0:0:0:0:
233,31,27581,2,0,P|272:115|235:201,1,191.999994140625,2|2,0:0|0:0,0:0:0:0:
133,350,28076,1,8,0:0:0:0:
42,327,28241,1,2,0:0:0:0:
144,206,28405,6,0,L|166:261,1,60.0000022888184,12|0,0:1|0:0,0:0:0:0:
289,384,28570,2,0,B|235:348|235:348|289:358,1,120.000004577637,12|2,0:1|3:2,0:0:0:0:
444,249,28900,2,0,B|408:195|408:195|418:249,1,120.000004577637,12|0,0:1|3:0,0:0:0:0:
392,384,29230,1,2,3:0:0:0:
386,361,29312,1,0,3:0:0:0:
380,338,29395,1,8,0:0:0:0:
264,216,29559,5,2,0:0:0:0:
322,143,29724,2,0,P|388:117|459:107,1,143.999995605469,0|0,3:0|0:0,0:0:0:0:
425,2,30054,2,0,P|377:32|372:78,1,95.9999970703126,8|0,0:0|0:0,0:0:0:0:
512,225,30384,2,0,P|466:211|418:206,1,95.9999970703126,0|0,3:0|0:0,0:0:0:0:
305,331,30713,1,8,0:0:0:0:
284,306,30878,1,2,0:0:0:0:
106,375,31043,6,0,P|97:328|83:282,1,95.9999970703126,2|2,3:0|0:0,0:0:0:0:
160,240,31290,1,0,3:0:0:0:
166,217,31373,1,8,0:0:0:0:
0,94,31537,2,0,P|54:47|118:13,1,143.999995605469,2|0,0:0|0:0,0:0:0:0:
192,30,31867,2,0,P|178:67|168:96,1,47.9999985351563,12|0,0:0|0:0,0:0:0:0:
323,255,32032,6,0,P|275:242|253:287,1,107.999996704102,12|2,0:0|0:0,0:0:0:0:
315,350,32362,5,6,3:2:0:0:
315,350,32526,2,0,P|331:304|356:226,1,128,2|2,0:0|0:0,0:0:0:0:
65,264,33021,5,2,3:2:0:0:
37,247,33186,2,0,P|33:198|29:116,1,128,2|2,0:0|0:0,0:0:0:0:
127,0,33680,6,0,B|263:14|189:69,2,128,2|2|2,3:2|0:3|0:0,0:0:0:0:
422,0,34834,5,2,0:0:0:0:
422,0,34916,1,2,0:0:0:0:
423,0,34999,2,0,P|432:30|439:61,1,64,2|0,3:2|0:0,0:0:0:0:
379,136,35329,2,0,P|389:166|396:197,1,64,2|2,0:3|0:0,0:0:0:0:
495,309,35658,5,2,3:2:0:0:
372,358,35823,1,2,0:0:0:0:
251,243,35988,1,2,0:3:0:0:
184,299,36153,1,2,0:0:0:0:
144,152,36318,5,2,0:0:0:0:
144,152,36482,2,0,L|169:26,1,128,2|2,0:0|0:0,0:0:0:0:
63,167,37471,6,0,L|69:198,1,32,2|0,0:3|0:0,0:0:0:0:
248,108,37636,6,0,P|323:89|411:81,1,155.999992858887,4|0,3:2|0:0,0:0:0:0:
456,191,37966,2,0,P|481:145|512:104,1,103.999995239258,8|0,0:0|0:0,0:0:0:0:
219,0,38296,6,0,P|173:25|132:56,1,103.999995239258,2|2,3:2|0:0,0:0:0:0:
38,47,38543,1,2,3:0:0:0:
20,78,38625,1,8,0:0:0:0:
0,257,38790,6,0,P|67:297|132:340,1,155.999992858887,2|0,0:0|0:0,0:0:0:0:
190,285,39120,1,2,0:0:0:0:
399,317,39285,1,8,0:0:0:0:
317,384,39449,1,2,0:0:0:0:
291,216,39614,1,2,3:1:0:0:
291,216,39697,1,8,0:0:0:0:
459,190,39862,1,2,3:1:0:0:
459,190,39944,1,8,0:0:0:0:
512,384,40109,2,0,P|505:332|499:280,1,103.999995239258,2|0,0:1|3:0,0:0:0:0:
340,115,40438,5,2,0:0:0:0:
470,1,40603,1,8,0:0:0:0:
350,133,40768,1,2,0:3:0:0:
375,87,40851,1,2,0:3:0:0:
400,44,40933,1,2,3:0:0:0:
233,0,41098,1,2,0:0:0:0:
135,129,41263,1,8,0:0:0:0:
102,26,41427,1,2,0:0:0:0:
61,223,41592,6,0,P|110:209|163:203,1,103.999995239258,0|0,3:0|0:0,0:0:0:0:
80,362,41840,1,2,3:0:0:0:
91,357,41922,2,0,P|135:367|176:375,1,51.999997619629,8|0,0:0|0:0,0:0:0:0:
365,384,42087,2,0,P|324:288|283:192,1,207.999990478516,2|2,0:0|0:0,0:0:0:0:
366,128,42499,1,2,3:0:0:0:
378,95,42581,1,8,0:0:0:0:
183,0,42746,5,8,0:0:0:0:
147,36,42829,1,8,0:0:0:0:
111,74,42911,2,0,B|144:77|144:77|167:29,1,80,12|0,3:0|0:0,0:0:0:0:
512,0,43241,6,0,P|484:85|460:216,1,192,12|0,1:0|0:0,0:0:0:0:
511,283,43570,2,0,P|483:323|434:317,1,103.999995239258,2|2,3:2|0:0,0:0:0:0:
358,358,43818,1,2,3:0:0:0:
340,325,43900,1,8,0:0:0:0:
155,295,44065,5,2,0:0:0:0:
155,295,44147,1,2,0:0:0:0:
154,294,44230,2,0,P|103:288|52:278,1,103.999995239258,8|0,0:0|0:0,0:0:0:0:
149,384,44559,1,12,0:0:0:0:
215,211,44724,1,2,0:0:0:0:
275,271,44889,5,2,3:1:0:0:
285,279,44971,1,8,0:0:0:0:
441,232,45136,1,2,3:1:0:0:
458,231,45219,1,8,0:0:0:0:
491,69,45384,1,10,0:0:0:0:
491,69,45466,1,8,0:0:0:0:
491,69,45548,1,12,0:0:0:0:
315,57,45713,5,2,0:0:0:0:
275,271,45878,1,12,0:0:0:0:
215,112,46043,1,0,3:0:0:0:
194,196,46208,1,12,0:0:0:0:
116,39,46373,1,0,3:0:0:0:
76,253,46537,1,12,0:0:0:0:
0,127,46702,1,0,3:0:0:0:
123,383,46867,6,0,P|196:344|310:322,1,180.000006866455,12|0,0:0|0:0,0:0:0:0:
390,276,47197,5,8,0:0:0:0:
354,261,47279,1,8,0:0:0:0:
318,274,47362,1,10,0:2:0:0:
298,306,47444,1,8,0:0:0:0:
304,344,47526,1,10,0:0:0:0:
334,297,47609,1,8,0:0:0:0:
348,243,47691,1,8,0:0:0:0:
343,187,47774,1,8,0:0:0:0:
319,136,47856,2,0,P|299:118|269:100,1,60.0000022888184,10|8,0:0|0:0,0:0:0:0:
476,54,48021,2,0,P|473:27|466:0,1,55.9999982910157,8|8,0:0|0:0,0:0:0:0:
230,0,48186,5,6,3:2:0:0:
388,53,48351,1,2,0:0:0:0:
450,198,48515,1,8,0:0:0:0:
184,279,48680,5,2,0:0:0:0:
170,255,48763,1,2,0:0:0:0:
176,227,48845,1,2,3:2:0:0:
244,353,49010,1,2,0:0:0:0:
98,179,49175,1,8,0:0:0:0:
191,2,49340,6,0,P|210:66|289:9,1,155.999992858887,2|0,0:0|0:0,0:0:0:0:
418,0,49669,1,2,3:2:0:0:
294,181,49834,1,8,0:0:0:0:
469,98,49999,1,2,0:0:0:0:
469,98,50081,1,0,3:0:0:0:
469,98,50164,1,2,3:0:0:0:
512,316,50329,2,0,P|465:294|414:282,1,103.999995239258,2|8,3:0|0:0,0:0:0:0:
138,190,50658,6,0,P|176:258|202:331,1,155.999992858887,2|0,0:0|0:0,0:0:0:0:
143,384,50988,1,2,0:0:0:0:
42,324,51153,1,8,0:0:0:0:
216,245,51318,1,2,0:0:0:0:
216,245,51400,1,0,3:0:0:0:
216,245,51482,1,0,3:0:0:0:
77,46,51647,1,2,3:2:0:0:
191,127,51812,1,8,0:0:0:0:
251,0,51977,1,2,0:0:0:0:
475,90,52142,6,0,P|452:164|437:241,1,155.999992858887,2|0,3:2|0:0,0:0:0:0:
348,268,52471,1,8,0:0:0:0:
470,340,52636,1,2,0:0:0:0:
243,384,52801,2,0,P|239:332|228:281,1,103.999995239258,2|2,3:0|0:0,0:0:0:0:
56,185,53131,1,8,0:0:0:0:
296,67,53296,5,10,0:0:0:0:
296,67,53378,1,10,0:0:0:0:
296,67,53460,2,0,P|222:41|146:23,1,155.999992858887,4|0,1:0|0:0,0:0:0:0:
56,185,53790,2,0,P|27:137|-4:92,1,103.999995239258,8|0,0:0|0:0,0:0:0:0:
261,271,54120,2,0,P|242:319|228:369,1,103.999995239258,2|0,3:2|0:0,0:0:0:0:
154,384,54367,1,2,3:0:0:0:
144,360,54449,1,8,0:0:0:0:
420,335,54614,6,0,P|398:260|386:182,1,155.999992858887,2|0,0:0|0:0,0:0:0:0:
426,117,54944,1,2,3:2:0:0:
497,263,55109,1,8,0:0:0:0:
270,202,55274,1,2,0:0:0:0:
228,0,55438,5,2,3:1:0:0:
228,0,55521,1,8,0:0:0:0:
0,83,55686,1,2,3:1:0:0:
0,83,55768,1,8,0:0:0:0:
181,74,55933,2,0,P|131:57|80:49,1,103.999995239258,2|0,0:1|3:0,0:0:0:0:
0,238,56263,5,2,3:2:0:0:
179,326,56427,1,8,0:0:0:0:
38,364,56592,1,8,0:0:0:0:
41,367,56675,1,8,0:0:0:0:
45,371,56757,1,2,3:2:0:0:
133,192,56922,1,2,3:2:0:0:
188,347,57087,1,8,0:0:0:0:
331,272,57252,1,10,3:2:0:0:
512,384,57416,5,12,0:0:0:0:
471,232,57581,1,2,3:2:0:0:
267,137,57746,5,8,0:0:0:0:
345,0,57911,1,2,3:2:0:0:
346,10,57993,1,2,3:2:0:0:
348,20,58076,1,8,0:0:0:0:
471,232,58241,5,12,0:0:0:0:
331,272,58405,1,12,0:0:0:0:
191,312,58570,1,8,0:0:0:0:
192,302,58653,1,8,0:0:0:0:
194,292,58735,5,6,3:2:0:0:
281,373,58900,1,12,0:0:0:0:
99,346,59065,1,12,0:0:0:0:
55,158,59230,1,12,0:0:0:0:
216,30,59395,1,8,0:0:0:0:
