osu file format v14

[General]
AudioFilename: ange.mp3
AudioLeadIn: 0
PreviewTime: 37389
Countdown: 0
SampleSet: Soft
StackLeniency: 0.7
Mode: 0
LetterboxInBreaks: 0
WidescreenStoryboard: 1

[Editor]
Bookmarks: 384,11263,21812,32362,37636,58735,59395
DistanceSpacing: 0.5
BeatDivisor: 4
GridSize: 32
TimelineZoom: 2.2

[Metadata]
Title:Telecaster B-boy
TitleUnicode:テレキャスタービーボーイ
Artist:Ange Katrina
ArtistUnicode:アンジュ・カトリーナ
Creator:wiken
Version:Amateurre's Hard
Source:
Tags:three すりぃ surii 3 パラドックス paradox pandemic パンデミック nijisanji vtuber amateurre maid nightlys newton- cami virtual youtuber にじさんじ 2434 YAB vocaloid cover japanese pop
BeatmapID:2603859
BeatmapSetID:1252909

[Difficulty]
HPDrainRate:4
CircleSize:3.4
OverallDifficulty:6.5
ApproachRate:8
SliderMultiplier:1.4
SliderTickRate:1

[Events]
//Background and Video events
0,0,"BG.jpg"
Video,0,"ange.mp4"
//Break Periods
//Storyboard Layer 0 (Background)
//Storyboard Layer 1 (Fail)
//Storyboard Layer 2 (Pass)
//Storyboard Layer 3 (Foreground)
//Storyboard Layer 4 (Overlay)
//Storyboard Sound Samples

[TimingPoints]
-605,329.67032967033,4,2,1,60,1,0
384,-100,4,2,7,60,0,0
11263,-111.111111111111,4,2,7,60,0,0
21318,-111.111111111111,4,2,1,60,0,0
21812,-111.111111111111,4,2,7,60,0,0
32362,-125,4,2,7,40,0,0
37636,-100,4,2,7,60,0,0
47856,-100,4,2,2,60,0,0
47938,-100,4,2,7,60,0,0

[Colours]
Combo1 : 255,179,179
Combo2 : 255,245,193
Combo3 : 255,198,255
Combo4 : 244,217,208

[HitObjects]
36,40,384,5,12,3:0:0:0:
36,40,713,6,0,B|88:50|88:50|107:75|107:75|189:90,1,140,4|8,1:2|0:0,0:0:0:0:
255,47,1208,2,0,P|300:59|316:96,1,70,2|0,0:0|3:0,0:0:0:0:
290,167,1537,1,2,0:0:0:0:
380,176,1702,2,0,L|458:167,1,70,8|2,0:0|0:0,0:0:0:0:
512,259,2032,6,0,B|426:251|457:316|359:300,1,140,2|8,3:2|0:0,0:0:0:0:
307,354,2526,2,0,L|297:272,1,70,2|0,0:0|3:0,0:0:0:0:
217,219,2856,2,0,L|200:273,1,35,2|0,0:3|0:0,0:0:0:0:
201,279,3021,2,0,L|209:348,1,70,10|2,0:0|0:0,0:0:0:0:
102,362,3351,6,0,B|69:323|69:323|94:223,1,140,2|8,3:2|0:0,0:0:0:0:
118,143,3845,2,0,B|208:170,1,70,2|0,0:0|3:0,0:0:0:0:
282,145,4175,1,2,0:0:0:0:
347,55,4340,2,0,P|305:62|270:42,1,70,8|2,0:0|0:2,0:0:0:0:
174,45,4669,6,0,P|148:107|185:163,1,140,2|8,3:2|0:0,0:0:0:0:
168,255,5164,2,0,B|252:240|252:240|271:257|298:269,1,140,2|2,0:0|0:3,0:0:0:0:
383,227,5658,1,8,0:0:0:0:
472,283,5823,5,8,0:0:0:0:
472,283,5905,1,8,0:0:0:0:
472,283,5988,2,0,B|495:193|495:193|461:132,1,140,4|8,1:2|0:0,0:0:0:0:
422,75,6482,2,0,P|368:83|339:108,1,70,2|0,0:0|3:0,0:0:0:0:
286,162,6812,1,2,0:0:0:0:
209,94,6977,2,0,L|217:16,1,70,8|2,0:0|0:0,0:0:0:0:
110,25,7307,6,0,P|71:59|111:128,1,140,2|8,3:2|0:0,0:0:0:0:
155,200,7801,2,0,P|206:191|249:215,1,70,2|0,0:0|3:0,0:0:0:0:
273,287,8131,2,0,P|291:274|314:274,1,35,2|0,0:3|0:0,0:0:0:0:
338,265,8296,2,0,P|372:270|405:260,1,70,8|2,0:0|0:0,0:0:0:0:
453,197,8625,6,0,B|424:242|424:242|452:334,1,140,2|8,3:2|0:0,0:0:0:0:
358,379,9120,2,0,L|262:369,1,70,2|0,0:0|3:0,0:0:0:0:
198,380,9449,1,2,0:0:0:0:
127,319,9614,2,0,P|112:279|128:229,1,70,8|2,0:0|0:0,0:0:0:0:
171,176,9944,6,0,B|93:172|115:221|29:213,1,140,2|8,3:2|0:0,0:0:0:0:
5,122,10438,1,2,0:0:0:0:
76,59,10603,2,0,L|119:68,3,35,2|0|8|0,0:3|3:0|0:0|3:0,0:0:0:0:
146,89,10933,2,0,L|180:81,3,35,8|0|0|0,0:0|3:0|3:0|3:0,0:0:0:0:
219,98,11263,6,0,L|216:164,2,62.9999980773926,4|2|8,3:2|0:0|0:0,0:0:0:0:
286,35,11757,2,0,P|331:20|393:64,1,125.999996154785,2|0,0:0|0:0,0:0:0:0:
479,88,12252,2,0,P|465:109|455:172,1,62.9999980773926,8|2,0:0|0:0,0:0:0:0:
397,215,12581,5,2,3:0:0:0:
397,215,12746,2,0,L|322:197,1,62.9999980773926,2|8,0:0|0:0,0:0:0:0:
251,250,13076,2,0,P|243:322|299:366,1,125.999996154785,2|0,0:3|3:0,0:0:0:0:
364,350,13570,1,8,0:0:0:0:
446,306,13735,5,2,0:0:0:0:
446,306,13900,2,0,L|469:388,2,62.9999980773926,2|2|8,3:2|0:0|0:0,0:0:0:0:
397,215,14395,2,0,P|359:166|371:106,1,125.999996154785,2|2,0:0|0:0,0:0:0:0:
304,37,14889,2,0,L|229:47,1,62.9999980773926,8|2,0:0|0:0,0:0:0:0:
151,28,15219,5,2,3:2:0:0:
151,28,15384,2,0,L|164:108,1,62.9999980773926,0|8,3:0|0:0,0:0:0:0:
72,113,15713,2,0,L|84:190,1,62.9999980773926,2|0,0:0|3:0,0:0:0:0:
166,230,16043,2,0,L|204:229,2,31.4999990386963,2|2|8,3:0|3:0|0:0,0:0:0:0:
78,289,16373,5,2,0:3:0:0:
150,350,16537,1,0,3:0:0:0:
150,350,16702,2,0,P|185:330|237:331,1,62.9999980773926,2|8,0:0|0:0,0:0:0:0:
304,355,17032,2,0,P|336:319|306:227,1,125.999996154785,2|2,0:0|0:0,0:0:0:0:
328,142,17526,2,0,P|283:156|253:159,1,62.9999980773926,8|2,0:0|0:0,0:0:0:0:
174,141,17856,5,2,3:0:0:0:
174,141,18021,2,0,L|165:66,1,62.9999980773926,2|8,0:0|0:0,0:0:0:0:
252,33,18351,2,0,L|270:181,1,125.999996154785,2|0,0:3|3:0,0:0:0:0:
340,215,18845,1,8,0:0:0:0:
431,171,19010,5,2,0:0:0:0:
431,171,19175,2,0,P|465:111|432:47,2,125.999996154785,2|8|0,3:2|0:0|3:0,0:0:0:0:
512,338,20164,2,0,L|425:315,1,62.9999980773926,8|2,0:0|0:0,0:0:0:0:
361,362,20493,1,0,3:0:0:0:
361,362,20658,2,0,L|350:292,1,62.9999980773926,2|8,0:3|0:0,0:0:0:0:
359,212,20988,1,2,0:0:0:0:
208,356,21318,5,6,1:2:0:0:
115,317,21482,1,6,1:2:0:0:
196,250,21647,5,2,0:0:0:0:
196,250,21812,2,0,L|203:176,1,62.9999980773926,4|0,3:2|0:0,0:0:0:0:
286,139,22142,1,8,0:0:0:0:
286,139,22307,2,0,B|330:161|330:161|406:148,1,125.999996154785,2|2,0:0|0:0,0:0:0:0:
490,192,22801,2,0,P|501:147|483:110,1,62.9999980773926,8|2,0:0|0:0,0:0:0:0:
483,27,23131,5,12,0:1:0:0:
483,27,23296,2,0,P|451:45|402:49,1,62.9999980773926,12|2,0:1|3:2,0:0:0:0:
333,12,23625,2,0,B|259:5|288:60|194:60,1,125.999996154785,12|0,0:1|3:0,0:0:0:0:
195,51,24037,1,0,3:0:0:0:
195,51,24120,1,8,0:0:0:0:
84,77,24285,1,2,0:0:0:0:
152,157,24449,6,0,L|224:146,2,62.9999980773926,2|2|8,3:2|0:0|0:0,0:0:0:0:
64,204,24944,2,0,B|66:258|66:258|47:280|47:280|47:335,1,125.999996154785,2|2,0:0|0:0,0:0:0:0:
131,372,25438,2,0,P|168:350|214:353,1,62.9999980773926,8|2,0:0|0:0,0:0:0:0:
272,373,25768,5,2,3:0:0:0:
352,325,25933,2,0,L|364:255,1,62.9999980773926,2|8,0:0|0:0,0:0:0:0:
404,188,26263,2,0,P|360:176|285:224,1,125.999996154785,2|2,0:2|0:0,0:0:0:0:
194,183,26757,2,0,L|191:135,2,31.4999990386963,10|2|2,0:2|0:0|0:0,0:0:0:0:
103,231,27087,6,0,L|89:303,2,62.9999980773926,0|2|8,3:0|0:0|0:0,0:0:0:0:
43,164,27581,2,0,P|27:131|62:41,1,125.999996154785,2|2,0:0|0:0,0:0:0:0:
145,14,28076,2,0,P|187:30|227:39,1,62.9999980773926,8|2,0:0|0:0,0:0:0:0:
301,78,28405,5,12,0:1:0:0:
301,78,28570,2,0,L|314:163,1,62.9999980773926,12|2,0:1|3:2,0:0:0:0:
374,221,28900,2,0,B|448:214|419:269|513:269,1,125.999996154785,12|2,0:1|3:0,0:0:0:0:
512,260,29312,1,0,3:0:0:0:
512,260,29395,1,8,0:0:0:0:
454,344,29559,1,2,0:0:0:0:
367,311,29724,6,0,P|337:297|302:297,1,62.9999980773926,0|0,3:0|0:0,0:0:0:0:
245,364,30054,2,0,P|189:361|161:348,1,62.9999980773926,8|0,0:0|0:0,0:0:0:0:
92,384,30384,2,0,L|82:297,1,62.9999980773926,0|0,3:0|0:0,0:0:0:0:
54,221,30713,1,8,0:0:0:0:
54,221,30878,1,2,0:0:0:0:
131,152,31043,5,2,3:0:0:0:
131,152,31208,2,0,P|176:175|211:177,1,62.9999980773926,2|8,0:0|0:0,0:0:0:0:
274,128,31537,1,2,0:0:0:0:
427,238,31867,5,12,0:0:0:0:
427,238,31949,1,0,0:0:0:0:
427,238,32032,1,12,0:0:0:0:
499,93,32362,5,6,3:2:0:0:
499,93,32526,2,0,P|485:51|411:47,1,112,2|2,0:0|0:0,0:0:0:0:
368,108,33021,1,2,3:2:0:0:
368,108,33186,2,0,P|354:150|280:154,1,112,2|2,0:0|0:0,0:0:0:0:
212,116,33680,2,0,L|200:2,2,112,2|2|2,3:2|0:3|0:0,0:0:0:0:
4,292,34834,6,0,P|52:272|124:289,1,112,2|0,0:0|0:0,0:0:0:0:
186,328,35329,2,0,P|199:297|194:264,1,56,2|2,0:3|0:0,0:0:0:0:
143,206,35658,2,0,P|131:180|131:153,1,56,2|2,3:2|0:0,0:0:0:0:
188,89,35988,2,0,L|257:99,1,56,2|2,0:3|0:0,0:0:0:0:
318,154,36318,1,2,0:0:0:0:
318,154,36482,1,2,0:0:0:0:
469,108,36812,1,2,0:0:0:0:
504,362,37471,5,2,0:3:0:0:
428,308,37636,2,0,L|274:332,1,140,4|8,3:2|0:0,0:0:0:0:
216,275,38131,1,0,0:0:0:0:
313,229,38296,2,0,P|314:170|294:126,2,105,2|2|2,3:2|3:0|0:0,0:0:0:0:
401,285,38955,1,4,3:0:0:0:
489,233,39120,5,2,0:0:0:0:
413,172,39285,2,0,L|401:102,1,70,8|2,0:0|0:0,0:0:0:0:
310,48,39614,2,0,P|272:83|221:96,1,105,2|2,3:1|3:1,0:0:0:0:
200,87,39944,1,8,0:0:0:0:
106,40,40109,2,0,L|113:109,1,70,2|0,0:1|3:0,0:0:0:0:
51,191,40438,5,2,0:0:0:0:
127,264,40603,1,8,0:0:0:0:
208,194,40768,1,2,0:3:0:0:
208,194,40851,2,0,L|332:177,1,105,2|2,0:3|0:0,0:0:0:0:
410,132,41263,1,8,0:0:0:0:
499,177,41427,1,2,0:0:0:0:
420,234,41592,6,0,P|423:286|430:338,2,105,0|2|2,3:0|3:0|0:0,0:0:0:0:
333,298,42252,2,0,P|299:288|264:284,1,70,2|2,0:0|0:0,0:0:0:0:
240,292,42499,1,2,3:0:0:0:
240,292,42581,1,8,0:0:0:0:
153,345,42746,1,8,0:0:0:0:
153,345,42829,1,8,0:0:0:0:
153,345,42911,1,12,3:0:0:0:
235,164,43241,6,0,P|233:129|219:97,1,70,12|0,1:0|0:0,0:0:0:0:
125,35,43570,2,0,P|169:25|235:-8,2,105,2|2|2,3:2|3:0|0:0,0:0:0:0:
32,21,44230,1,8,0:0:0:0:
89,113,44395,5,0,0:0:0:0:
14,172,44559,2,0,L|7:253,1,70,12|2,0:0|0:0,0:0:0:0:
84,302,44889,2,0,P|122:267|173:254,1,105,2|2,3:1|3:1,0:0:0:0:
194,263,45219,1,8,0:0:0:0:
288,208,45383,2,0,L|299:173,2,35,10|8|12,0:0|0:0|0:0,0:0:0:0:
384,250,45713,5,2,0:0:0:0:
446,188,45878,2,0,P|434:154|432:120,1,70,12|0,0:0|3:0,0:0:0:0:
480,43,46208,2,0,P|447:31|346:80,1,140,12|12,0:0|0:0,0:0:0:0:
272,23,46702,1,0,3:0:0:0:
240,118,46867,6,0,P|192:97|140:102,1,105,12|0,0:0|0:0,0:0:0:0:
131,130,47197,2,0,L|122:164,2,35,8|8|10,0:0|0:0|0:2,0:0:0:0:
193,241,47526,1,10,0:0:0:0:
193,241,47609,1,8,0:0:0:0:
193,241,47691,1,8,0:0:0:0:
296,226,47856,2,0,L|289:263,3,35,10|8|8|8,0:0|0:0|0:0|0:0,0:0:0:0:
301,298,48186,5,6,3:2:0:0:
381,361,48351,2,0,P|409:323|380:233,1,140,2|2,0:0|0:0,0:0:0:0:
460,119,48845,1,2,3:2:0:0:
370,147,49010,2,0,L|283:128,1,70,2|8,0:0|0:0,0:0:0:0:
207,81,49340,6,0,L|226:223,1,140,2|2,0:0|3:2,0:0:0:0:
278,326,49834,2,0,P|242:310|193:316,1,70,8|2,0:0|0:0,0:0:0:0:
144,365,50164,1,2,3:0:0:0:
62,324,50329,2,0,L|50:254,1,70,2|8,3:0|0:0,0:0:0:0:
0,149,50658,6,0,P|48:171|134:138,1,140,2|2,0:0|0:0,0:0:0:0:
201,74,51153,2,0,L|212:-1,1,70,8|2,0:0|0:0,0:0:0:0:
302,74,51482,2,0,L|312:143,1,70,0|2,3:0|3:2,0:0:0:0:
401,190,51812,1,8,0:0:0:0:
368,272,51977,1,2,0:0:0:0:
368,272,52142,6,0,P|404:230|496:241,1,140,2|8,3:2|0:0,0:0:0:0:
489,324,52636,1,2,0:0:0:0:
399,368,52801,2,0,L|298:359,1,70,2|2,3:0|0:0,0:0:0:0:
246,291,53131,1,8,0:0:0:0:
156,333,53296,5,10,0:0:0:0:
156,333,53378,1,10,0:0:0:0:
156,333,53460,2,0,L|148:249,1,70,4|0,1:0|0:0,0:0:0:0:
64,235,53790,2,0,L|59:165,1,70,8|0,0:0|0:0,0:0:0:0:
145,113,54120,2,0,L|129:-7,2,105,2|2|2,3:2|3:0|0:0,0:0:0:0:
234,148,54779,1,0,3:0:0:0:
326,98,54944,5,2,3:2:0:0:
417,137,55109,2,0,P|428:183|410:218,1,70,8|2,0:0|0:0,0:0:0:0:
498,272,55438,2,0,P|454:282|394:327,1,105,2|2,3:1|3:1,0:0:0:0:
390,338,55768,1,8,0:0:0:0:
332,253,55933,2,0,L|263:239,1,70,2|0,0:1|3:0,0:0:0:0:
196,308,56263,5,2,3:2:0:0:
117,363,56427,2,0,L|36:354,1,70,8|8,0:0|0:0,0:0:0:0:
4,276,56757,2,0,P|-7:231|3:204,1,70,2|2,3:2|3:2,0:0:0:0:
68,143,57087,2,0,P|113:164|149:172,1,70,8|10,0:0|3:2,0:0:0:0:
230,152,57416,6,0,L|215:83,1,70,12|2,0:0|3:2,0:0:0:0:
294,0,57746,1,8,0:0:0:0:
334,109,57911,1,2,3:2:0:0:
334,109,57993,1,2,3:2:0:0:
334,109,58076,2,0,P|374:133|420:137,1,70,8|12,0:0|0:0,0:0:0:0:
503,81,58405,2,0,L|520:21,3,35,12|0|8|8,0:0|3:0|0:0|0:0,0:0:0:0:
491,117,58735,6,0,L|501:186,1,70,6|12,3:2|0:0,0:0:0:0:
433,290,59065,2,0,L|414:204,1,70,12|12,0:0|0:0,0:0:0:0:
332,190,59395,1,8,0:0:0:0:
