osu file format v14

[General]
AudioFilename: audio.mp3
AudioLeadIn: 0
PreviewTime: -1
Countdown: 0
SampleSet: Normal
StackLeniency: 0.7
Mode: 0
LetterboxInBreaks: 0
WidescreenStoryboard: 0

[Editor]
Bookmarks: 44754,51028,54165,55636,57303,82008,107499
DistanceSpacing: 1.4
BeatDivisor: 4
GridSize: 8
TimelineZoom: 0.9

[Metadata]
Title:Cant Stop (feat. Heather Sommer)
TitleUnicode:Cant Stop (feat. Heather Sommer)
Artist:Anevo
ArtistUnicode:Anevo
Creator:Zonsa
Version:Hardcore
Source:
Tags:
BeatmapID:1332425
BeatmapSetID:631137

[Difficulty]
HPDrainRate:7
CircleSize:5
OverallDifficulty:6
ApproachRate:9
SliderMultiplier:1
SliderTickRate:1

[Events]
//Background and Video events
0,0,"60439088_p0.jpg",0,0
//Break Periods
2,95052,106899
//Storyboard Layer 0 (Background)
//Storyboard Layer 1 (Fail)
//Storyboard Layer 2 (Pass)
//Storyboard Layer 3 (Foreground)
//Storyboard Sound Samples

[TimingPoints]
7107,392.156862745098,4,1,0,100,1,0
57303,-66.6666666666667,4,1,0,100,0,0

[HitObjects]
120,120,7107,6,0,P|152:96|176:96,1,50
264,64,7499,1,0,0:0:0:0:
440,104,7695,1,0,0:0:0:0:
312,192,7891,1,0,0:0:0:0:
384,312,8087,1,0,0:0:0:0:
192,288,8283,1,0,0:0:0:0:
96,144,8479,1,0,0:0:0:0:
120,120,8577,1,0,0:0:0:0:
152,112,8675,1,0,0:0:0:0:
352,80,9067,1,0,0:0:0:0:
368,248,9459,1,0,0:0:0:0:
264,296,9656,1,0,0:0:0:0:
96,88,10244,5,0,0:0:0:0:
280,64,10636,1,0,0:0:0:0:
408,240,10832,1,0,0:0:0:0:
160,304,11028,1,0,0:0:0:0:
368,104,11224,1,0,0:0:0:0:
312,304,11420,1,0,0:0:0:0:
424,208,11812,1,0,0:0:0:0:
104,112,12205,1,0,0:0:0:0:
328,80,12597,1,0,0:0:0:0:
336,256,12793,1,0,0:0:0:0:
304,272,12891,1,0,0:0:0:0:
272,280,12989,1,0,0:0:0:0:
80,280,13381,5,0,0:0:0:0:
160,88,13773,1,0,0:0:0:0:
392,264,13969,1,0,0:0:0:0:
352,64,14165,1,0,0:0:0:0:
184,272,14361,1,0,0:0:0:0:
72,72,14557,1,0,0:0:0:0:
376,152,14754,1,0,0:0:0:0:
104,184,14950,1,0,0:0:0:0:
288,304,15342,1,0,0:0:0:0:
208,88,15734,5,0,0:0:0:0:
384,120,15930,1,0,0:0:0:0:
168,256,16126,1,0,0:0:0:0:
400,304,16322,1,0,0:0:0:0:
80,104,16518,1,0,0:0:0:0:
376,48,16910,1,0,0:0:0:0:
280,320,17107,1,0,0:0:0:0:
176,56,17303,1,0,0:0:0:0:
408,208,17499,1,0,0:0:0:0:
144,280,17695,2,0,P|120:264|120:240,1,50
152,72,18087,1,0,0:0:0:0:
384,96,18479,1,0,0:0:0:0:
160,272,18871,1,0,0:0:0:0:
208,48,19263,1,0,0:0:0:0:
384,88,19459,1,0,0:0:0:0:
256,200,19656,1,0,0:0:0:0:
96,80,20048,5,0,0:0:0:0:
216,304,20244,1,0,0:0:0:0:
312,80,20440,1,0,0:0:0:0:
56,168,20636,1,0,0:0:0:0:
384,192,20832,1,0,0:0:0:0:
120,312,21028,1,0,0:0:0:0:
104,280,21126,1,0,0:0:0:0:
96,248,21224,1,0,0:0:0:0:
440,80,21616,1,0,0:0:0:0:
136,120,22008,1,0,0:0:0:0:
56,208,22205,1,0,0:0:0:0:
176,248,22401,1,0,0:0:0:0:
384,96,22793,1,0,0:0:0:0:
272,288,23185,5,0,0:0:0:0:
248,72,23381,1,0,0:0:0:0:
392,248,23577,1,0,0:0:0:0:
88,96,23773,1,0,0:0:0:0:
104,312,23969,1,0,0:0:0:0:
248,72,24165,1,0,0:0:0:0:
384,192,24361,1,0,0:0:0:0:
120,128,24754,1,0,0:0:0:0:
232,296,25146,1,0,0:0:0:0:
288,200,25342,1,0,0:0:0:0:
104,72,25930,1,0,0:0:0:0:
384,208,26322,5,0,0:0:0:0:
360,232,26420,1,0,0:0:0:0:
328,240,26518,1,0,0:0:0:0:
144,240,26714,1,0,0:0:0:0:
240,48,26910,1,0,0:0:0:0:
424,176,27107,1,0,0:0:0:0:
88,104,27303,1,0,0:0:0:0:
240,328,27499,1,0,0:0:0:0:
312,80,27891,1,0,0:0:0:0:
120,96,28283,5,0,0:0:0:0:
232,208,28479,1,0,0:0:0:0:
64,232,28675,1,0,0:0:0:0:
184,320,28871,1,0,0:0:0:0:
328,240,29067,1,0,0:0:0:0:
176,72,29459,1,0,0:0:0:0:
384,64,29656,1,0,0:0:0:0:
312,296,29852,1,0,0:0:0:0:
96,104,30048,1,0,0:0:0:0:
168,320,30244,1,0,0:0:0:0:
400,160,30636,5,0,0:0:0:0:
120,96,31028,1,0,0:0:0:0:
232,208,31224,1,0,0:0:0:0:
64,232,31420,5,0,0:0:0:0:
184,320,31616,1,0,0:0:0:0:
328,240,31812,1,0,0:0:0:0:
184,64,32008,1,0,0:0:0:0:
112,280,32205,1,0,0:0:0:0:
408,312,32597,5,0,0:0:0:0:
128,104,32989,1,0,0:0:0:0:
432,224,33381,1,0,0:0:0:0:
48,128,33773,1,0,0:0:0:0:
424,72,34165,1,0,0:0:0:0:
96,304,34557,1,0,0:0:0:0:
464,352,34950,1,0,0:0:0:0:
120,136,35342,1,0,0:0:0:0:
424,88,35734,5,0,0:0:0:0:
320,320,36126,1,0,0:0:0:0:
128,96,36518,1,0,0:0:0:0:
72,344,36910,1,0,0:0:0:0:
336,64,37303,1,0,0:0:0:0:
232,344,37695,1,0,0:0:0:0:
72,112,38087,1,0,0:0:0:0:
400,64,38479,1,0,0:0:0:0:
288,328,38871,5,0,0:0:0:0:
48,88,39263,1,0,0:0:0:0:
416,192,39656,1,0,0:0:0:0:
104,328,40048,1,0,0:0:0:0:
416,96,40440,1,0,0:0:0:0:
72,88,40832,1,0,0:0:0:0:
240,328,41224,1,0,0:0:0:0:
440,64,41616,1,0,0:0:0:0:
72,176,42008,5,0,0:0:0:0:
432,176,42401,1,0,0:0:0:0:
104,72,42793,1,0,0:0:0:0:
376,320,43185,1,0,0:0:0:0:
248,48,43577,1,0,0:0:0:0:
64,344,43969,1,0,0:0:0:0:
400,64,44361,1,0,0:0:0:0:
96,136,44754,5,0,0:0:0:0:
336,144,44950,1,0,0:0:0:0:
224,304,45146,1,0,0:0:0:0:
184,80,45342,1,0,0:0:0:0:
352,280,45538,1,0,0:0:0:0:
72,232,45734,1,0,0:0:0:0:
400,96,45930,1,0,0:0:0:0:
440,304,46126,1,0,0:0:0:0:
208,192,46322,5,0,0:0:0:0:
304,40,46518,1,0,0:0:0:0:
272,328,46714,1,0,0:0:0:0:
72,112,46910,1,0,0:0:0:0:
360,152,47107,1,0,0:0:0:0:
80,288,47303,1,0,0:0:0:0:
256,48,47499,1,0,0:0:0:0:
376,336,47695,1,0,0:0:0:0:
104,136,47891,5,0,0:0:0:0:
208,328,48087,1,0,0:0:0:0:
416,128,48283,1,0,0:0:0:0:
96,264,48479,1,0,0:0:0:0:
240,48,48675,1,0,0:0:0:0:
392,280,48871,1,0,0:0:0:0:
80,136,49067,1,0,0:0:0:0:
216,320,49263,5,0,0:0:0:0:
136,64,49459,1,0,0:0:0:0:
296,256,49656,1,0,0:0:0:0:
88,288,49852,1,0,0:0:0:0:
392,96,50048,1,0,0:0:0:0:
128,104,50244,1,0,0:0:0:0:
376,288,50440,1,0,0:0:0:0:
96,240,50636,1,0,0:0:0:0:
368,88,50832,1,0,0:0:0:0:
240,304,51028,5,0,0:0:0:0:
200,296,51126,1,0,0:0:0:0:
168,272,51224,1,0,0:0:0:0:
152,232,51322,1,0,0:0:0:0:
136,192,51420,1,0,0:0:0:0:
136,152,51518,1,0,0:0:0:0:
152,120,51616,1,0,0:0:0:0:
192,104,51714,1,0,0:0:0:0:
232,96,51812,5,0,0:0:0:0:
272,96,51910,1,0,0:0:0:0:
304,112,52008,1,0,0:0:0:0:
328,144,52107,1,0,0:0:0:0:
328,184,52205,1,0,0:0:0:0:
304,216,52303,1,0,0:0:0:0:
264,224,52401,1,0,0:0:0:0:
224,208,52499,1,0,0:0:0:0:
192,184,52597,5,0,0:0:0:0:
152,168,52695,1,0,0:0:0:0:
112,184,52793,1,0,0:0:0:0:
104,224,52891,1,0,0:0:0:0:
120,264,52989,1,0,0:0:0:0:
152,288,53087,1,0,0:0:0:0:
192,304,53185,1,0,0:0:0:0:
232,288,53283,1,0,0:0:0:0:
240,248,53381,5,0,0:0:0:0:
224,208,53479,1,0,0:0:0:0:
192,184,53577,1,0,0:0:0:0:
184,144,53675,1,0,0:0:0:0:
216,120,53773,1,0,0:0:0:0:
256,136,53871,1,0,0:0:0:0:
280,168,53969,1,0,0:0:0:0:
288,208,54067,1,0,0:0:0:0:
304,248,54165,5,0,0:0:0:0:
320,264,54263,1,0,0:0:0:0:
344,272,54361,1,0,0:0:0:0:
368,256,54459,1,0,0:0:0:0:
376,232,54557,1,0,0:0:0:0:
376,208,54656,1,0,0:0:0:0:
368,184,54754,1,0,0:0:0:0:
352,168,54852,1,0,0:0:0:0:
328,168,54950,5,0,0:0:0:0:
304,176,55048,1,0,0:0:0:0:
280,184,55146,1,0,0:0:0:0:
256,200,55244,1,0,0:0:0:0:
240,216,55342,1,0,0:0:0:0:
232,240,55440,1,0,0:0:0:0:
216,264,55538,1,0,0:0:0:0:
192,280,55636,1,0,0:0:0:0:
96,112,57303,6,0,L|160:56,1,75.0000028610231
400,272,57695,2,0,L|344:336,1,75.0000028610231
344,80,58087,2,0,L|264:96,1,75.0000028610231
152,120,58479,2,0,L|144:72,1,37.5000014305115
112,192,58675,2,0,L|160:200,1,37.5000014305115
120,272,58871,2,0,L|80:280,1,37.5000014305115
352,304,59263,6,0,L|248:320,1,75.0000028610231
88,64,59656,2,0,P|128:48|176:56,1,75.0000028610231
360,264,60048,2,0,L|368:312,1,37.5000014305115
400,192,60244,2,0,L|352:184,1,37.5000014305115
392,112,60440,2,0,L|432:104,1,37.5000014305115
64,112,60832,2,0,L|104:72,1,37.5000014305115
96,192,61028,2,0,L|48:200,1,37.5000014305115
136,272,61224,2,0,L|160:232,1,37.5000014305115
378,240,61616,6,0,L|344:312,1,75.0000028610231
96,320,62008,2,0,L|72:240,1,75.0000028610231
384,88,62401,2,0,L|280:80,1,75.0000028610231
360,248,62793,2,0,L|376:304,1,37.5000014305115
280,232,62989,2,0,L|272:192,1,37.5000014305115
208,176,63185,2,0,L|184:208,1,37.5000014305115
104,176,63381,2,0,L|80:136,1,37.5000014305115
96,272,63577,6,0,L|160:328,1,75.0000028610231
400,112,63969,2,0,L|344:48,1,75.0000028610231
344,304,64361,2,0,L|264:288,1,75.0000028610231
152,264,64753,2,0,L|144:312,1,37.5000014305115
112,192,64949,2,0,L|160:184,1,37.5000014305115
120,112,65145,2,0,L|80:104,1,37.5000014305115
352,80,65537,6,0,L|248:64,1,75.0000028610231
88,320,65930,2,0,P|128:336|176:328,1,75.0000028610231
360,120,66322,2,0,L|368:72,1,37.5000014305115
400,192,66518,2,0,L|352:200,1,37.5000014305115
392,272,66714,2,0,L|432:280,1,37.5000014305115
64,272,67106,2,0,L|104:312,1,37.5000014305115
96,192,67302,2,0,L|48:184,1,37.5000014305115
136,112,67498,2,0,L|160:152,1,37.5000014305115
378,143,67890,6,0,L|344:72,1,75.0000028610231
96,64,68282,2,0,L|72:144,1,75.0000028610231
384,296,68675,2,0,L|280:304,1,75.0000028610231
248,224,69067,2,0,L|288:216,1,37.5000014305115
224,152,69263,2,0,L|176:144,1,37.5000014305115
224,80,69459,2,0,L|208:40,1,37.5000014305115
296,128,69656,2,0,L|328:160,1,37.5000014305115
416,112,69852,6,0,L|352:56,1,75.0000028610231
112,272,70244,2,0,L|168:336,1,75.0000028610231
168,80,70636,2,0,L|248:96,1,75.0000028610231
360,120,71028,2,0,L|368:72,1,37.5000014305115
400,192,71224,2,0,L|352:200,1,37.5000014305115
392,272,71420,2,0,L|432:280,1,37.5000014305115
160,304,71812,6,0,L|264:320,1,75.0000028610231
424,64,72205,2,0,P|384:48|336:56,1,75.0000028610231
152,264,72597,2,0,L|144:312,1,37.5000014305115
112,192,72793,2,0,L|160:184,1,37.5000014305115
120,112,72989,2,0,L|80:104,1,37.5000014305115
448,112,73381,2,0,L|408:72,1,37.5000014305115
416,192,73577,2,0,L|464:200,1,37.5000014305115
376,272,73773,2,0,L|352:232,1,37.5000014305115
133,240,74165,6,0,L|168:312,1,75.0000028610231
416,320,74557,2,0,L|440:240,1,75.0000028610231
128,88,74950,2,0,L|232:80,1,75.0000028610231
152,248,75342,2,0,L|136:304,1,37.5000014305115
248,248,75538,2,0,L|240:208,1,37.5000014305115
304,304,75734,2,0,L|272:328,1,37.5000014305115
328,216,75930,2,0,L|328:176,1,37.5000014305115
416,272,76126,6,0,L|360:336,1,75.0000028610231
112,112,76518,2,0,L|168:48,1,75.0000028610231
168,304,76910,2,0,L|248:288,1,75.0000028610231
360,264,77302,2,0,L|368:312,1,37.5000014305115
400,192,77498,2,0,L|352:184,1,37.5000014305115
392,112,77694,2,0,L|432:104,1,37.5000014305115
160,80,78086,6,0,L|264:64,1,75.0000028610231
424,320,78479,2,0,P|384:336|336:328,1,75.0000028610231
152,120,78871,2,0,L|144:72,1,37.5000014305115
112,192,79067,2,0,L|160:200,1,37.5000014305115
128,264,79263,5,0,0:0:0:0:
176,288,79361,1,0,0:0:0:0:
232,288,79459,1,0,0:0:0:0:
280,272,79557,1,0,0:0:0:0:
312,232,79656,1,0,0:0:0:0:
344,192,79754,1,0,0:0:0:0:
352,144,79852,1,0,0:0:0:0:
344,96,79950,1,0,0:0:0:0:
312,56,80048,5,0,0:0:0:0:
264,40,80146,1,0,0:0:0:0:
208,40,80244,1,0,0:0:0:0:
160,56,80342,1,0,0:0:0:0:
128,96,80440,1,0,0:0:0:0:
112,144,80538,1,0,0:0:0:0:
120,200,80636,1,0,0:0:0:0:
136,248,80734,1,0,0:0:0:0:
168,288,80832,5,0,0:0:0:0:
216,312,80930,1,0,0:0:0:0:
264,296,81028,1,0,0:0:0:0:
312,272,81126,1,0,0:0:0:0:
352,240,81224,1,0,0:0:0:0:
368,192,81322,1,0,0:0:0:0:
352,144,81420,1,0,0:0:0:0:
296,144,81518,1,0,0:0:0:0:
248,168,81616,5,0,0:0:0:0:
200,192,81714,1,0,0:0:0:0:
144,192,81812,1,0,0:0:0:0:
104,160,81910,1,0,0:0:0:0:
80,112,82008,1,0,0:0:0:0:
416,112,82401,6,0,L|352:56,1,75.0000028610231
112,272,82793,2,0,L|168:336,1,75.0000028610231
168,80,83185,2,0,L|248:96,1,75.0000028610231
360,120,83577,2,0,L|368:72,1,37.5000014305115
400,192,83773,2,0,L|352:200,1,37.5000014305115
392,272,83969,2,0,L|432:280,1,37.5000014305115
160,304,84361,6,0,L|264:320,1,75.0000028610231
424,64,84754,2,0,P|384:48|336:56,1,75.0000028610231
152,264,85146,2,0,L|144:312,1,37.5000014305115
112,192,85342,2,0,L|160:184,1,37.5000014305115
120,112,85538,2,0,L|80:104,1,37.5000014305115
448,112,85930,2,0,L|408:72,1,37.5000014305115
416,192,86126,2,0,L|464:200,1,37.5000014305115
376,272,86322,2,0,L|352:232,1,37.5000014305115
134,240,86714,6,0,L|168:312,1,75.0000028610231
416,320,87106,2,0,L|440:240,1,75.0000028610231
128,88,87499,2,0,L|232:80,1,75.0000028610231
152,248,87891,2,0,L|136:304,1,37.5000014305115
232,232,88087,2,0,L|240:192,1,37.5000014305115
304,176,88283,2,0,L|328:208,1,37.5000014305115
408,176,88479,2,0,L|432:136,1,37.5000014305115
416,272,88675,6,0,L|352:328,1,75.0000028610231
112,112,89067,2,0,L|168:48,1,75.0000028610231
168,304,89459,2,0,L|248:288,1,75.0000028610231
360,264,89851,2,0,L|368:312,1,37.5000014305115
400,192,90047,2,0,L|352:184,1,37.5000014305115
392,112,90243,2,0,L|432:104,1,37.5000014305115
160,80,90635,6,0,L|264:64,1,75.0000028610231
424,320,91028,2,0,P|384:336|336:328,1,75.0000028610231
152,120,91420,2,0,L|144:72,1,37.5000014305115
112,192,91616,2,0,L|160:200,1,37.5000014305115
120,272,91812,2,0,L|80:280,1,37.5000014305115
448,272,92204,2,0,L|408:312,1,37.5000014305115
416,192,92400,2,0,L|464:184,1,37.5000014305115
376,112,92596,2,0,L|352:152,1,37.5000014305115
134,143,92988,6,0,L|168:72,1,75.0000028610231
416,64,93380,2,0,L|440:144,1,75.0000028610231
128,296,93773,2,0,L|232:304,1,75.0000028610231
264,224,94165,2,0,L|224:216,1,37.5000014305115
288,152,94361,2,0,L|336:144,1,37.5000014305115
288,80,94557,2,0,L|304:40,1,37.5000014305115
216,128,94754,2,0,L|184:160,1,37.5000014305115
392,120,107499,6,0,P|360:96|336:96,1,50
248,64,107891,1,0,0:0:0:0:
72,104,108087,1,0,0:0:0:0:
200,192,108283,1,0,0:0:0:0:
128,312,108479,1,0,0:0:0:0:
320,288,108675,1,0,0:0:0:0:
416,144,108871,1,0,0:0:0:0:
392,120,108969,1,0,0:0:0:0:
360,112,109067,1,0,0:0:0:0:
160,80,109459,1,0,0:0:0:0:
144,248,109851,1,0,0:0:0:0:
248,296,110048,1,0,0:0:0:0:
416,88,110636,5,0,0:0:0:0:
232,64,111028,1,0,0:0:0:0:
104,240,111224,1,0,0:0:0:0:
352,304,111420,1,0,0:0:0:0:
144,104,111616,1,0,0:0:0:0:
200,304,111812,1,0,0:0:0:0:
88,208,112204,1,0,0:0:0:0:
408,112,112597,1,0,0:0:0:0:
184,80,112989,1,0,0:0:0:0:
176,256,113185,1,0,0:0:0:0:
208,272,113283,1,0,0:0:0:0:
240,280,113381,1,0,0:0:0:0:
432,280,113773,5,0,0:0:0:0:
352,88,114165,1,0,0:0:0:0:
120,264,114361,1,0,0:0:0:0:
160,64,114557,1,0,0:0:0:0:
328,272,114753,1,0,0:0:0:0:
440,72,114949,1,0,0:0:0:0:
136,152,115146,1,0,0:0:0:0:
408,184,115342,1,0,0:0:0:0:
224,304,115734,1,0,0:0:0:0:
304,88,116126,5,0,0:0:0:0:
128,120,116322,1,0,0:0:0:0:
344,256,116518,1,0,0:0:0:0:
112,304,116714,1,0,0:0:0:0:
432,104,116910,1,0,0:0:0:0:
136,48,117302,1,0,0:0:0:0:
232,320,117499,1,0,0:0:0:0:
336,56,117695,1,0,0:0:0:0:
104,208,117891,1,0,0:0:0:0:
368,280,118087,2,0,P|392:264|392:240,1,50
360,72,118479,1,0,0:0:0:0:
128,96,118871,1,0,0:0:0:0:
352,272,119263,1,0,0:0:0:0:
304,48,119655,1,0,0:0:0:0:
128,88,119851,1,0,0:0:0:0:
256,200,120048,1,0,0:0:0:0:
416,80,120440,5,0,0:0:0:0:
296,304,120636,1,0,0:0:0:0:
200,80,120832,1,0,0:0:0:0:
456,168,121028,1,0,0:0:0:0:
128,192,121224,1,0,0:0:0:0:
392,312,121420,1,0,0:0:0:0:
408,280,121518,1,0,0:0:0:0:
416,248,121616,1,0,0:0:0:0:
72,80,122008,1,0,0:0:0:0:
376,120,122400,1,0,0:0:0:0:
456,208,122597,1,0,0:0:0:0:
336,248,122793,1,0,0:0:0:0:
128,96,123185,1,0,0:0:0:0:
240,288,123577,5,0,0:0:0:0:
264,72,123773,1,0,0:0:0:0:
120,248,123969,1,0,0:0:0:0:
424,96,124165,1,0,0:0:0:0:
408,312,124361,1,0,0:0:0:0:
264,72,124557,1,0,0:0:0:0:
128,192,124753,1,0,0:0:0:0:
392,128,125146,1,0,0:0:0:0:
280,296,125538,1,0,0:0:0:0:
224,200,125734,1,0,0:0:0:0:
408,72,126322,1,0,0:0:0:0:
128,208,126714,5,0,0:0:0:0:
152,232,126812,1,0,0:0:0:0:
184,240,126910,1,0,0:0:0:0:
368,240,127106,1,0,0:0:0:0:
272,48,127302,1,0,0:0:0:0:
88,176,127499,1,0,0:0:0:0:
424,104,127695,1,0,0:0:0:0:
272,328,127891,1,0,0:0:0:0:
200,80,128283,1,0,0:0:0:0:
392,96,128675,5,0,0:0:0:0:
280,208,128871,1,0,0:0:0:0:
448,232,129067,1,0,0:0:0:0:
328,320,129263,1,0,0:0:0:0:
184,240,129459,1,0,0:0:0:0:
336,72,129851,1,0,0:0:0:0:
128,64,130048,1,0,0:0:0:0:
200,296,130244,1,0,0:0:0:0:
416,104,130440,1,0,0:0:0:0:
344,320,130636,1,0,0:0:0:0:
112,160,131028,5,0,0:0:0:0:
392,96,131420,1,0,0:0:0:0:
280,208,131616,1,0,0:0:0:0:
448,232,131812,5,0,0:0:0:0:
328,320,132008,1,0,0:0:0:0:
184,240,132204,1,0,0:0:0:0:
328,64,132400,1,0,0:0:0:0:
400,280,132597,1,0,0:0:0:0:
104,312,132989,5,0,0:0:0:0:
384,104,133381,1,0,0:0:0:0:
80,224,133773,1,0,0:0:0:0:
464,128,134165,1,0,0:0:0:0:
88,72,134557,1,0,0:0:0:0:
416,304,134949,1,0,0:0:0:0:
48,352,135342,1,0,0:0:0:0:
392,136,135734,1,0,0:0:0:0:
88,88,136126,5,0,0:0:0:0:
192,320,136518,1,0,0:0:0:0:
384,96,136910,1,0,0:0:0:0:
440,344,137302,1,0,0:0:0:0:
176,64,137695,1,0,0:0:0:0:
280,344,138087,1,0,0:0:0:0:
440,112,138479,1,0,0:0:0:0:
112,64,138871,1,0,0:0:0:0:
224,328,139263,5,0,0:0:0:0:
464,88,139655,1,0,0:0:0:0:
96,192,140048,1,0,0:0:0:0:
408,328,140440,1,0,0:0:0:0:
96,96,140832,1,0,0:0:0:0:
440,88,141224,1,0,0:0:0:0:
272,328,141616,1,0,0:0:0:0:
72,64,142008,1,0,0:0:0:0:
440,176,142400,5,0,0:0:0:0:
80,176,142793,1,0,0:0:0:0:
408,72,143185,1,0,0:0:0:0:
136,320,143577,1,0,0:0:0:0:
264,48,143969,1,0,0:0:0:0:
448,344,144361,1,0,0:0:0:0:
112,64,144753,1,0,0:0:0:0:
416,136,145146,5,0,0:0:0:0:
176,144,145342,1,0,0:0:0:0:
288,304,145538,1,0,0:0:0:0:
328,80,145734,1,0,0:0:0:0:
160,280,145930,1,0,0:0:0:0:
440,232,146126,1,0,0:0:0:0:
112,96,146322,1,0,0:0:0:0:
72,304,146518,1,0,0:0:0:0:
304,192,146714,5,0,0:0:0:0:
208,40,146910,1,0,0:0:0:0:
240,328,147106,1,0,0:0:0:0:
440,112,147302,1,0,0:0:0:0:
152,152,147499,1,0,0:0:0:0:
432,288,147695,1,0,0:0:0:0:
256,48,147891,1,0,0:0:0:0:
136,336,148087,1,0,0:0:0:0:
408,136,148283,5,0,0:0:0:0:
304,328,148479,1,0,0:0:0:0:
96,128,148675,1,0,0:0:0:0:
416,264,148871,1,0,0:0:0:0:
272,48,149067,1,0,0:0:0:0:
120,280,149263,1,0,0:0:0:0:
432,136,149459,1,0,0:0:0:0:
296,320,149655,5,0,0:0:0:0:
376,64,149851,1,0,0:0:0:0:
216,256,150048,1,0,0:0:0:0:
424,288,150244,1,0,0:0:0:0:
120,96,150440,1,0,0:0:0:0:
384,104,150636,1,0,0:0:0:0:
136,288,150832,1,0,0:0:0:0:
416,240,151028,1,0,0:0:0:0:
144,88,151224,1,0,0:0:0:0:
272,304,151420,5,0,0:0:0:0:
312,296,151518,1,0,0:0:0:0:
344,272,151616,1,0,0:0:0:0:
360,232,151714,1,0,0:0:0:0:
376,192,151812,1,0,0:0:0:0:
376,152,151910,1,0,0:0:0:0:
360,120,152008,1,0,0:0:0:0:
320,104,152106,1,0,0:0:0:0:
280,96,152204,5,0,0:0:0:0:
240,96,152302,1,0,0:0:0:0:
208,112,152400,1,0,0:0:0:0:
184,144,152499,1,0,0:0:0:0:
184,184,152597,1,0,0:0:0:0:
208,216,152695,1,0,0:0:0:0:
248,224,152793,1,0,0:0:0:0:
288,208,152891,1,0,0:0:0:0:
320,184,152989,5,0,0:0:0:0:
360,168,153087,1,0,0:0:0:0:
400,184,153185,1,0,0:0:0:0:
408,224,153283,1,0,0:0:0:0:
392,264,153381,1,0,0:0:0:0:
360,288,153479,1,0,0:0:0:0:
320,304,153577,1,0,0:0:0:0:
280,288,153675,1,0,0:0:0:0:
272,248,153773,5,0,0:0:0:0:
288,208,153871,1,0,0:0:0:0:
320,184,153969,1,0,0:0:0:0:
328,144,154067,1,0,0:0:0:0:
296,120,154165,1,0,0:0:0:0:
256,136,154263,1,0,0:0:0:0:
232,168,154361,1,0,0:0:0:0:
224,208,154459,1,0,0:0:0:0:
208,248,154557,5,0,0:0:0:0:
192,264,154655,1,0,0:0:0:0:
168,272,154753,1,0,0:0:0:0:
144,256,154851,1,0,0:0:0:0:
136,232,154949,1,0,0:0:0:0:
136,208,155048,1,0,0:0:0:0:
144,184,155146,1,0,0:0:0:0:
160,168,155244,1,0,0:0:0:0:
184,168,155342,5,0,0:0:0:0:
208,176,155440,1,0,0:0:0:0:
232,184,155538,1,0,0:0:0:0:
256,200,155636,1,0,0:0:0:0:
272,216,155734,1,0,0:0:0:0:
280,240,155832,1,0,0:0:0:0:
296,264,155930,1,0,0:0:0:0:
320,280,156028,1,0,0:0:0:0:
416,112,157695,6,0,L|352:56,1,75.0000028610231
112,272,158087,2,0,L|168:336,1,75.0000028610231
168,80,158479,2,0,L|248:96,1,75.0000028610231
360,120,158871,2,0,L|368:72,1,37.5000014305115
400,192,159067,2,0,L|352:200,1,37.5000014305115
392,272,159263,2,0,L|432:280,1,37.5000014305115
160,304,159655,6,0,L|264:320,1,75.0000028610231
424,64,160048,2,0,P|384:48|336:56,1,75.0000028610231
152,264,160440,2,0,L|144:312,1,37.5000014305115
112,192,160636,2,0,L|160:184,1,37.5000014305115
120,112,160832,2,0,L|80:104,1,37.5000014305115
448,112,161224,2,0,L|408:72,1,37.5000014305115
416,192,161420,2,0,L|464:200,1,37.5000014305115
376,272,161616,2,0,L|352:232,1,37.5000014305115
134,240,162008,6,0,L|168:312,1,75.0000028610231
416,320,162400,2,0,L|440:240,1,75.0000028610231
128,88,162793,2,0,L|232:80,1,75.0000028610231
152,248,163185,2,0,L|136:304,1,37.5000014305115
232,232,163381,2,0,L|240:192,1,37.5000014305115
304,176,163577,2,0,L|328:208,1,37.5000014305115
408,176,163773,2,0,L|432:136,1,37.5000014305115
416,272,163969,6,0,L|352:328,1,75.0000028610231
112,112,164361,2,0,L|168:48,1,75.0000028610231
168,304,164753,2,0,L|248:288,1,75.0000028610231
360,264,165145,2,0,L|368:312,1,37.5000014305115
400,192,165341,2,0,L|352:184,1,37.5000014305115
392,112,165537,2,0,L|432:104,1,37.5000014305115
160,80,165929,6,0,L|264:64,1,75.0000028610231
424,320,166322,2,0,P|384:336|336:328,1,75.0000028610231
152,120,166714,2,0,L|144:72,1,37.5000014305115
112,192,166910,2,0,L|160:200,1,37.5000014305115
120,272,167106,2,0,L|80:280,1,37.5000014305115
448,272,167498,2,0,L|408:312,1,37.5000014305115
416,192,167694,2,0,L|464:184,1,37.5000014305115
376,112,167890,2,0,L|352:152,1,37.5000014305115
134,143,168282,6,0,L|168:72,1,75.0000028610231
416,64,168674,2,0,L|440:144,1,75.0000028610231
128,296,169067,2,0,L|232:304,1,75.0000028610231
264,224,169459,2,0,L|224:216,1,37.5000014305115
288,152,169655,2,0,L|336:144,1,37.5000014305115
288,80,169851,2,0,L|304:40,1,37.5000014305115
216,128,170048,2,0,L|184:160,1,37.5000014305115
96,112,170244,6,0,L|160:56,1,75.0000028610231
400,272,170636,2,0,L|344:336,1,75.0000028610231
344,80,171028,2,0,L|264:96,1,75.0000028610231
152,120,171420,2,0,L|144:72,1,37.5000014305115
112,192,171616,2,0,L|160:200,1,37.5000014305115
120,272,171812,2,0,L|80:280,1,37.5000014305115
352,304,172204,6,0,L|248:320,1,75.0000028610231
88,64,172597,2,0,P|128:48|176:56,1,75.0000028610231
360,264,172989,2,0,L|368:312,1,37.5000014305115
400,192,173185,2,0,L|352:184,1,37.5000014305115
392,112,173381,2,0,L|432:104,1,37.5000014305115
64,112,173773,2,0,L|104:72,1,37.5000014305115
96,192,173969,2,0,L|48:200,1,37.5000014305115
136,272,174165,2,0,L|160:232,1,37.5000014305115
379,240,174557,6,0,L|344:312,1,75.0000028610231
96,320,174949,2,0,L|72:240,1,75.0000028610231
384,88,175342,2,0,L|280:80,1,75.0000028610231
360,248,175734,2,0,L|376:304,1,37.5000014305115
264,248,175930,2,0,L|272:208,1,37.5000014305115
208,304,176126,2,0,L|240:328,1,37.5000014305115
184,216,176322,2,0,L|184:176,1,37.5000014305115
96,272,176518,6,0,L|152:336,1,75.0000028610231
400,112,176910,2,0,L|344:48,1,75.0000028610231
344,304,177302,2,0,L|264:288,1,75.0000028610231
152,264,177694,2,0,L|144:312,1,37.5000014305115
112,192,177890,2,0,L|160:184,1,37.5000014305115
120,112,178086,2,0,L|80:104,1,37.5000014305115
352,80,178478,6,0,L|248:64,1,75.0000028610231
88,320,178871,2,0,P|128:336|176:328,1,75.0000028610231
360,120,179263,2,0,L|368:72,1,37.5000014305115
400,192,179459,2,0,L|352:200,1,37.5000014305115
384,264,179655,5,0,0:0:0:0:
336,288,179753,1,0,0:0:0:0:
280,288,179851,1,0,0:0:0:0:
232,272,179949,1,0,0:0:0:0:
200,232,180048,1,0,0:0:0:0:
168,192,180146,1,0,0:0:0:0:
160,144,180244,1,0,0:0:0:0:
168,96,180342,1,0,0:0:0:0:
200,56,180440,5,0,0:0:0:0:
248,40,180538,1,0,0:0:0:0:
304,40,180636,1,0,0:0:0:0:
352,56,180734,1,0,0:0:0:0:
384,96,180832,1,0,0:0:0:0:
400,144,180930,1,0,0:0:0:0:
392,200,181028,1,0,0:0:0:0:
376,248,181126,1,0,0:0:0:0:
344,288,181224,5,0,0:0:0:0:
296,312,181322,1,0,0:0:0:0:
248,296,181420,1,0,0:0:0:0:
200,272,181518,1,0,0:0:0:0:
160,240,181616,1,0,0:0:0:0:
144,192,181714,1,0,0:0:0:0:
160,144,181812,1,0,0:0:0:0:
216,144,181910,1,0,0:0:0:0:
264,168,182008,5,0,0:0:0:0:
312,192,182106,1,0,0:0:0:0:
368,192,182204,1,0,0:0:0:0:
408,160,182302,1,0,0:0:0:0:
432,112,182400,1,0,0:0:0:0:
