osu file format v14

[General]
AudioFilename: audio.mp3
AudioLeadIn: 0
PreviewTime: 0
Countdown: 1
SampleSet: Soft
StackLeniency: 0.7
Mode: 0
LetterboxInBreaks: 0
WidescreenStoryboard: 1

[Editor]
DistanceSpacing: 1.4
BeatDivisor: 4
GridSize: 8
TimelineZoom: 1

[Metadata]
Title:Transformers Theme
TitleUnicode:Transformers Theme
Artist:Andy Sturner and Sebastian Evans II
ArtistUnicode:Andy Sturner and Sebastian Evans II
Creator:Not_Zippy
Version:Normal
Source:Transformers: Animated
Tags:
BeatmapID:1063773
BeatmapSetID:469369

[Difficulty]
HPDrainRate:3
CircleSize:3.3
OverallDifficulty:4
ApproachRate:5
SliderMultiplier:1.3
SliderTickRate:1

[Events]
//Background and Video events
Video,0,"TFA intro.avi"
0,0,"Transformers_animated.jpg",0,0
//Break Periods
//Storyboard Layer 0 (Background)
//Storyboard Layer 1 (Fail)
//Storyboard Layer 2 (Pass)
//Storyboard Layer 3 (Foreground)
//Storyboard Sound Samples

[TimingPoints]
375,375,4,1,0,65,1,0
4500,-100,4,1,0,85,0,0
6375,-100,4,1,0,65,0,0
10500,-100,4,1,0,85,0,0
12375,-100,4,1,0,65,0,0
18375,-100,4,1,0,85,0,1
19125,-100,4,1,0,65,0,1
27375,-100,4,1,0,65,0,0
27750,-100,4,2,0,5,0,0

[Colours]
Combo1 : 255,128,0
Combo2 : 255,0,0
Combo3 : 255,255,0
Combo4 : 255,234,234
Combo5 : 170,170,85
Combo6 : 62,111,17
Combo7 : 0,255,255
Combo8 : 0,0,255

[HitObjects]
340,103,0,5,8,0:3:0:0:
337,232,375,6,0,P|275:283|215:288,1,130,4|8,0:3|0:0,0:0:0:0:
208,160,1125,2,8,L|168:107,1,65,8|8,0:3|0:3,0:3:0:0:
104,104,1500,2,0,B|83:116|8:120|8:120|24:168,1,130,8|4,0:0|0:3,0:0:0:0:
112,240,2250,2,0,B|178:248|178:248|236:296,1,130,8|8,0:0|0:3,0:0:0:0:
265,340,2812,1,8,0:3:0:0:
326,361,3000,1,8,0:0:0:0:
377,241,3375,6,0,P|340:186|272:162,1,130,4|8,0:3|0:0,0:0:0:0:
217,162,3937,2,0,P|157:137|122:83,1,130,8|0,0:3|0:0,0:0:0:0:
122,18,4500,2,0,B|181:45|181:45|255:23|304:77,1,195,10|0,0:3|0:0,0:0:0:0:
336,127,5250,1,8,0:0:0:0:
321,256,5625,1,8,0:3:0:0:
262,283,5812,1,8,0:3:0:0:
196,283,6000,2,0,B|131:283|131:283|76:233,1,130,8|4,0:0|0:3,0:0:0:0:
205,194,6750,6,0,P|262:222|284:284,1,130,8|8,0:0|0:3,0:0:0:0:
260,342,7312,1,8,0:3:0:0:
201,370,7500,1,8,0:0:0:0:
89,303,7875,2,2,L|43:168,1,130,2|8,0:0|0:0,0:0:0:0:
111,179,8437,2,2,L|157:44,1,130,2|0,0:0|0:0,0:0:0:0:
218,55,9000,1,8,0:0:0:0:
356,191,9375,6,0,P|405:230|356:273,1,130,4|8,0:3|0:0,0:0:0:0:
312,300,9937,2,0,P|250:290|271:228,1,130,8|0,0:3|0:0,0:0:0:0:
289,179,10500,2,0,L|230:64,1,130,10|0,0:3|0:0,0:0:0:0:
180,20,11062,1,0,0:0:0:0:
114,18,11250,1,8,0:0:0:0:
78,143,11625,5,4,0:3:0:0:
86,207,11812,1,4,0:3:0:0:
132,252,12000,1,8,0:3:0:0:
258,283,12375,2,0,P|213:198|162:171,1,130,4|8,0:3|0:0,0:0:0:0:
154,124,12937,2,0,P|97:67|31:81,1,130,8|0,0:3|0:0,0:0:0:0:
22,127,13500,2,0,L|5:265,1,130,10|4,0:3|0:3,0:0:0:0:
27,317,14062,1,0,0:0:0:0:
90,332,14250,1,8,0:0:0:0:
214,295,14625,5,8,0:3:0:0:
190,234,14812,1,0,0:0:0:0:
254,245,15000,1,8,0:0:0:0:
360,170,15375,2,0,L|281:50,1,130,4|8,0:3|0:0,0:0:0:0:
236,100,15937,2,0,P|181:129|111:120,1,130,8|0,0:3|0:0,0:0:0:0:
57,91,16500,2,0,L|-1:207,2,130,10|0|8,0:3|0:0|0:0,0:0:0:0:
170,27,17625,5,10,0:3:0:0:
218,95,17812,1,10,0:3:0:0:
266,25,18000,1,10,0:3:0:0:
314,93,18187,1,10,0:3:0:0:
355,18,18375,2,0,P|395:68|388:135,1,130,4|8,0:3|0:0,0:0:0:0:
353,184,18937,2,0,P|283:165|206:188,1,130,8|0,0:3|0:0,0:0:0:0:
174,213,19500,2,0,L|152:342,2,130,10|0|10,0:3|0:0|0:3,0:0:0:0:
208,87,20625,5,8,0:3:0:0:
168,35,20812,1,0,0:0:0:0:
112,70,21000,2,0,P|76:115|8:126,1,130,8|4,0:0|0:3,0:0:0:0:
10,255,21750,1,8,0:0:0:0:
74,250,21937,2,0,P|110:205|178:194,1,130,8|0,0:3|0:3,0:0:0:0:
239,219,22500,2,0,L|288:347,1,130,10|4,0:3|0:3,0:0:0:0:
347,361,23062,1,0,0:0:0:0:
394,316,23250,2,0,P|366:212|315:196,1,130,8|8,0:0|0:3,0:0:0:0:
229,167,24000,6,0,L|241:71,1,65,8|0,0:0|0:0,0:0:0:0:
246,38,24375,1,4,0:3:0:0:
182,25,24562,2,0,P|97:56|45:157,1,195
94,264,25500,1,10,0:3:0:0:
223,273,25875,6,0,L|285:294,2,65,4|8|8,0:3|0:3|0:3,0:3:0:0:
223,188,26437,2,0,L|272:144,2,65,4|8|8,0:3|0:3|0:3,0:3:0:0:
150,231,27000,1,4,0:3:0:0:
77,189,27188,1,4,0:3:0:0:
77,273,27375,1,10,0:3:0:0:
256,192,27750,12,0,30000,2:0:0:0:
