osu file format v14

[General]
AudioFilename: L.D.mp3
AudioLeadIn: 0
PreviewTime: 46880
Countdown: 1
SampleSet: None
StackLeniency: 0.7
Mode: 3
LetterboxInBreaks: 0
SpecialStyle: 0
WidescreenStoryboard: 0

[Editor]
DistanceSpacing: 0.8
BeatDivisor: 4
GridSize: 16
TimelineZoom: 2.1

[Metadata]
Title:L.D.
TitleUnicode:L.D.
Artist:Andy Lee arranged by Saka-ROW Kumi
ArtistUnicode:Andy Lee arranged by Saka-ROW組
Creator:Jakads
Version:Lovely Day (Robeats Lv.31)
Source:BMS
Tags:
BeatmapID:1809631
BeatmapSetID:865466

[Difficulty]
HPDrainRate:8
CircleSize:4
OverallDifficulty:8
ApproachRate:5
SliderMultiplier:1.4
SliderTickRate:1

[Events]
//Background and Video events
0,0,"L.D..jpg",0,0
//Break Periods
//Storyboard Layer 0 (Background)
//Storyboard Layer 1 (Fail)
//Storyboard Layer 2 (Pass)
//Storyboard Layer 3 (Foreground)
//Storyboard Sound Samples

[TimingPoints]
5,375,4,1,0,0,1,0
22505,-100,4,1,0,0,0,1
23255,-100,4,1,0,0,0,0
48005,-100,4,1,0,0,0,1
60005,-100,4,1,0,0,0,0
90005,-100,4,1,0,0,0,1
102005,-100,4,1,0,0,0,0
112505,-100,4,1,0,0,0,1
113255,-100,4,1,0,0,0,0
113630,-100,4,1,0,0,0,1
113723,-100,4,1,0,0,0,0

[HitObjects]
64,192,5,5,0,0:0:0:0:
320,192,5,1,0,0:0:0:0:
448,192,5,1,0,0:0:0:0:
192,192,380,1,0,0:0:0:0:
192,192,755,1,0,0:0:0:0:
64,192,755,1,0,0:0:0:0:
448,192,755,1,0,0:0:0:0:
320,192,942,1,0,0:0:0:0:
64,192,1317,128,0,2911:0:0:0:0:
320,192,1317,1,0,0:0:0:0:
448,192,1317,1,0,0:0:0:0:
448,192,1692,1,0,0:0:0:0:
448,192,1880,1,0,0:0:0:0:
320,192,1973,1,0,0:0:0:0:
192,192,2067,1,0,0:0:0:0:
192,192,2255,1,0,0:0:0:0:
320,192,2348,1,0,0:0:0:0:
448,192,2442,1,0,0:0:0:0:
320,192,2630,1,0,0:0:0:0:
448,192,2630,1,0,0:0:0:0:
320,192,2817,1,0,0:0:0:0:
448,192,2817,1,0,0:0:0:0:
192,192,2911,1,0,0:0:0:0:
448,192,3005,1,0,0:0:0:0:
320,192,3005,1,0,0:0:0:0:
64,192,3005,1,0,0:0:0:0:
320,192,3380,1,0,0:0:0:0:
64,192,3755,1,0,0:0:0:0:
448,192,3755,1,0,0:0:0:0:
320,192,3755,1,0,0:0:0:0:
192,192,3942,1,0,0:0:0:0:
64,192,4317,1,0,0:0:0:0:
192,192,4317,1,0,0:0:0:0:
448,192,4317,128,0,5911:0:0:0:0:
64,192,4692,1,0,0:0:0:0:
64,192,4880,1,0,0:0:0:0:
192,192,4973,1,0,0:0:0:0:
320,192,5067,1,0,0:0:0:0:
320,192,5255,1,0,0:0:0:0:
192,192,5348,1,0,0:0:0:0:
64,192,5442,1,0,0:0:0:0:
320,192,5536,1,0,0:0:0:0:
64,192,5630,1,0,0:0:0:0:
192,192,5630,1,0,0:0:0:0:
320,192,5723,1,0,0:0:0:0:
64,192,5817,1,0,0:0:0:0:
192,192,5817,1,0,0:0:0:0:
320,192,5911,1,0,0:0:0:0:
64,192,6005,1,0,0:0:0:0:
192,192,6005,1,0,0:0:0:0:
448,192,6005,1,0,0:0:0:0:
192,192,6192,1,0,0:0:0:0:
64,192,6380,1,0,0:0:0:0:
320,192,6380,1,0,0:0:0:0:
448,192,6380,1,0,0:0:0:0:
320,192,6567,1,0,0:0:0:0:
192,192,6755,1,0,0:0:0:0:
64,192,6755,1,0,0:0:0:0:
64,192,6942,1,0,0:0:0:0:
192,192,7130,1,0,0:0:0:0:
320,192,7130,1,0,0:0:0:0:
448,192,7130,1,0,0:0:0:0:
320,192,7317,1,0,0:0:0:0:
192,192,7505,1,0,0:0:0:0:
64,192,7505,1,0,0:0:0:0:
192,192,7692,1,0,0:0:0:0:
448,192,7880,1,0,0:0:0:0:
320,192,7880,1,0,0:0:0:0:
64,192,7880,1,0,0:0:0:0:
448,192,8067,1,0,0:0:0:0:
64,192,8255,1,0,0:0:0:0:
320,192,8255,1,0,0:0:0:0:
64,192,8442,1,0,0:0:0:0:
448,192,8630,1,0,0:0:0:0:
320,192,8630,1,0,0:0:0:0:
192,192,8630,1,0,0:0:0:0:
448,192,8817,1,0,0:0:0:0:
64,192,9005,1,0,0:0:0:0:
192,192,9005,1,0,0:0:0:0:
448,192,9005,1,0,0:0:0:0:
64,192,9380,1,0,0:0:0:0:
320,192,9380,1,0,0:0:0:0:
448,192,9380,1,0,0:0:0:0:
320,192,9755,1,0,0:0:0:0:
192,192,9755,1,0,0:0:0:0:
64,192,9755,1,0,0:0:0:0:
192,192,9942,1,0,0:0:0:0:
448,192,9942,1,0,0:0:0:0:
320,192,9942,1,0,0:0:0:0:
192,192,10317,1,0,0:0:0:0:
64,192,10317,1,0,0:0:0:0:
320,192,10317,1,0,0:0:0:0:
448,192,10317,1,0,0:0:0:0:
192,192,11255,1,0,0:0:0:0:
320,192,11348,1,0,0:0:0:0:
192,192,11442,1,0,0:0:0:0:
320,192,11536,1,0,0:0:0:0:
192,192,11630,1,0,0:0:0:0:
64,192,11630,1,0,0:0:0:0:
320,192,11723,1,0,0:0:0:0:
448,192,11723,1,0,0:0:0:0:
64,192,11817,1,0,0:0:0:0:
192,192,11817,1,0,0:0:0:0:
320,192,11911,1,0,0:0:0:0:
448,192,11911,1,0,0:0:0:0:
192,192,12005,1,0,0:0:0:0:
64,192,12005,1,0,0:0:0:0:
320,192,12098,1,0,0:0:0:0:
448,192,12192,1,0,0:0:0:0:
192,192,12286,1,0,0:0:0:0:
448,192,12380,1,0,0:0:0:0:
64,192,12380,1,0,0:0:0:0:
320,192,12567,1,0,0:0:0:0:
448,192,12755,1,0,0:0:0:0:
64,192,12755,1,0,0:0:0:0:
320,192,12848,1,0,0:0:0:0:
192,192,12942,1,0,0:0:0:0:
320,192,13036,1,0,0:0:0:0:
64,192,13130,1,0,0:0:0:0:
448,192,13130,1,0,0:0:0:0:
192,192,13317,1,0,0:0:0:0:
320,192,13505,1,0,0:0:0:0:
64,192,13505,1,0,0:0:0:0:
192,192,13598,1,0,0:0:0:0:
320,192,13692,1,0,0:0:0:0:
192,192,13786,1,0,0:0:0:0:
64,192,13880,1,0,0:0:0:0:
320,192,13880,1,0,0:0:0:0:
192,192,14067,1,0,0:0:0:0:
64,192,14255,1,0,0:0:0:0:
192,192,14255,1,0,0:0:0:0:
448,192,14348,1,0,0:0:0:0:
192,192,14442,1,0,0:0:0:0:
320,192,14536,1,0,0:0:0:0:
64,192,14630,1,0,0:0:0:0:
448,192,14630,1,0,0:0:0:0:
320,192,14723,1,0,0:0:0:0:
192,192,14817,1,0,0:0:0:0:
448,192,14911,1,0,0:0:0:0:
320,192,15005,1,0,0:0:0:0:
64,192,15005,1,0,0:0:0:0:
192,192,15098,1,0,0:0:0:0:
448,192,15192,1,0,0:0:0:0:
320,192,15286,1,0,0:0:0:0:
64,192,15380,1,0,0:0:0:0:
448,192,15380,1,0,0:0:0:0:
192,192,15567,1,0,0:0:0:0:
64,192,15755,1,0,0:0:0:0:
320,192,15755,1,0,0:0:0:0:
448,192,15848,1,0,0:0:0:0:
320,192,15942,1,0,0:0:0:0:
192,192,16036,1,0,0:0:0:0:
64,192,16130,1,0,0:0:0:0:
448,192,16130,1,0,0:0:0:0:
192,192,16317,1,0,0:0:0:0:
64,192,16505,1,0,0:0:0:0:
320,192,16505,1,0,0:0:0:0:
448,192,16505,1,0,0:0:0:0:
192,192,16598,1,0,0:0:0:0:
448,192,16692,1,0,0:0:0:0:
192,192,16786,1,0,0:0:0:0:
64,192,16880,1,0,0:0:0:0:
448,192,16880,1,0,0:0:0:0:
320,192,16880,1,0,0:0:0:0:
192,192,16973,1,0,0:0:0:0:
448,192,17067,1,0,0:0:0:0:
320,192,17161,1,0,0:0:0:0:
192,192,17255,1,0,0:0:0:0:
64,192,17255,1,0,0:0:0:0:
448,192,17255,1,0,0:0:0:0:
320,192,17348,1,0,0:0:0:0:
64,192,17442,1,0,0:0:0:0:
320,192,17536,1,0,0:0:0:0:
192,192,17630,1,0,0:0:0:0:
64,192,17630,1,0,0:0:0:0:
448,192,17630,1,0,0:0:0:0:
320,192,17723,1,0,0:0:0:0:
64,192,17817,1,0,0:0:0:0:
192,192,17911,1,0,0:0:0:0:
448,192,18005,1,0,0:0:0:0:
320,192,18005,1,0,0:0:0:0:
64,192,18005,1,0,0:0:0:0:
192,192,18098,1,0,0:0:0:0:
64,192,18192,1,0,0:0:0:0:
320,192,18286,1,0,0:0:0:0:
64,192,18380,1,0,0:0:0:0:
448,192,18380,1,0,0:0:0:0:
192,192,18567,1,0,0:0:0:0:
64,192,18755,1,0,0:0:0:0:
448,192,18755,1,0,0:0:0:0:
192,192,18848,1,0,0:0:0:0:
320,192,18942,1,0,0:0:0:0:
192,192,19036,1,0,0:0:0:0:
448,192,19130,1,0,0:0:0:0:
64,192,19130,1,0,0:0:0:0:
320,192,19317,1,0,0:0:0:0:
192,192,19505,1,0,0:0:0:0:
448,192,19505,1,0,0:0:0:0:
320,192,19598,1,0,0:0:0:0:
192,192,19692,1,0,0:0:0:0:
320,192,19786,1,0,0:0:0:0:
448,192,19880,1,0,0:0:0:0:
192,192,19880,1,0,0:0:0:0:
320,192,20067,1,0,0:0:0:0:
448,192,20255,1,0,0:0:0:0:
320,192,20255,1,0,0:0:0:0:
64,192,20348,1,0,0:0:0:0:
320,192,20442,1,0,0:0:0:0:
192,192,20536,1,0,0:0:0:0:
448,192,20630,1,0,0:0:0:0:
64,192,20630,1,0,0:0:0:0:
192,192,20723,1,0,0:0:0:0:
320,192,20817,1,0,0:0:0:0:
64,192,20911,1,0,0:0:0:0:
192,192,21005,1,0,0:0:0:0:
448,192,21005,1,0,0:0:0:0:
320,192,21098,1,0,0:0:0:0:
64,192,21192,1,0,0:0:0:0:
192,192,21286,1,0,0:0:0:0:
448,192,21380,1,0,0:0:0:0:
64,192,21380,1,0,0:0:0:0:
320,192,21567,1,0,0:0:0:0:
448,192,21755,1,0,0:0:0:0:
192,192,21755,1,0,0:0:0:0:
64,192,21848,1,0,0:0:0:0:
192,192,21942,1,0,0:0:0:0:
320,192,22036,1,0,0:0:0:0:
448,192,22130,1,0,0:0:0:0:
64,192,22130,1,0,0:0:0:0:
192,192,22223,1,0,0:0:0:0:
320,192,22317,1,0,0:0:0:0:
192,192,22411,1,0,0:0:0:0:
64,192,22505,1,0,0:0:0:0:
448,192,22505,1,0,0:0:0:0:
448,192,22598,1,0,0:0:0:0:
64,192,22598,1,0,0:0:0:0:
64,192,22786,1,0,0:0:0:0:
448,192,22786,1,0,0:0:0:0:
64,192,22973,1,0,0:0:0:0:
448,192,22973,1,0,0:0:0:0:
448,192,23161,1,0,0:0:0:0:
64,192,23161,1,0,0:0:0:0:
64,192,23255,1,0,0:0:0:0:
448,192,23255,1,0,0:0:0:0:
192,192,23630,1,0,0:0:0:0:
320,192,23817,1,0,0:0:0:0:
448,192,23817,1,0,0:0:0:0:
64,192,24005,1,0,0:0:0:0:
320,192,24005,1,0,0:0:0:0:
448,192,24005,1,0,0:0:0:0:
192,192,24192,1,0,0:0:0:0:
64,192,24380,1,0,0:0:0:0:
448,192,24380,1,0,0:0:0:0:
320,192,24567,1,0,0:0:0:0:
192,192,24755,1,0,0:0:0:0:
448,192,24755,1,0,0:0:0:0:
320,192,24942,1,0,0:0:0:0:
64,192,25130,1,0,0:0:0:0:
448,192,25130,1,0,0:0:0:0:
192,192,25317,1,0,0:0:0:0:
448,192,25505,128,0,25598:0:0:0:0:
64,192,25505,1,0,0:0:0:0:
320,192,25598,128,0,25692:0:0:0:0:
192,192,25692,128,0,25786:0:0:0:0:
64,192,25786,128,0,25880:0:0:0:0:
448,192,25880,128,0,26630:0:0:0:0:
320,192,25880,1,0,0:0:0:0:
192,192,26067,1,0,0:0:0:0:
320,192,26255,1,0,0:0:0:0:
64,192,26255,1,0,0:0:0:0:
192,192,26442,1,0,0:0:0:0:
192,192,26630,128,0,26723:0:0:0:0:
64,192,26630,1,0,0:0:0:0:
448,192,26723,128,0,26817:0:0:0:0:
192,192,26817,128,0,26911:0:0:0:0:
448,192,26911,128,0,27005:0:0:0:0:
64,192,27005,1,0,0:0:0:0:
320,192,27005,1,0,0:0:0:0:
192,192,27192,1,0,0:0:0:0:
320,192,27380,1,0,0:0:0:0:
448,192,27380,1,0,0:0:0:0:
64,192,27567,1,0,0:0:0:0:
192,192,27755,1,0,0:0:0:0:
448,192,27755,1,0,0:0:0:0:
320,192,27942,1,0,0:0:0:0:
192,192,28130,1,0,0:0:0:0:
64,192,28130,1,0,0:0:0:0:
448,192,28317,1,0,0:0:0:0:
64,192,28505,128,0,28598:0:0:0:0:
448,192,28505,1,0,0:0:0:0:
192,192,28598,128,0,28692:0:0:0:0:
320,192,28692,128,0,28786:0:0:0:0:
448,192,28786,128,0,28880:0:0:0:0:
64,192,28880,128,0,29630:0:0:0:0:
192,192,28880,1,0,0:0:0:0:
320,192,29067,1,0,0:0:0:0:
192,192,29255,1,0,0:0:0:0:
448,192,29255,1,0,0:0:0:0:
320,192,29442,1,0,0:0:0:0:
320,192,29630,128,0,29723:0:0:0:0:
448,192,29630,1,0,0:0:0:0:
64,192,29723,128,0,29817:0:0:0:0:
320,192,29817,128,0,29911:0:0:0:0:
64,192,29911,128,0,30005:0:0:0:0:
192,192,30005,1,0,0:0:0:0:
448,192,30005,1,0,0:0:0:0:
320,192,30005,128,0,31130:0:0:0:0:
64,192,30192,1,0,0:0:0:0:
64,192,30380,1,0,0:0:0:0:
192,192,30380,1,0,0:0:0:0:
448,192,30567,1,0,0:0:0:0:
64,192,30755,1,0,0:0:0:0:
448,192,30755,1,0,0:0:0:0:
192,192,30942,1,0,0:0:0:0:
64,192,31130,128,0,31223:0:0:0:0:
192,192,31130,1,0,0:0:0:0:
320,192,31223,128,0,31317:0:0:0:0:
64,192,31317,128,0,31411:0:0:0:0:
320,192,31411,128,0,31505:0:0:0:0:
192,192,31505,128,0,32442:0:0:0:0:
64,192,31505,1,0,0:0:0:0:
448,192,31692,1,0,0:0:0:0:
320,192,31880,1,0,0:0:0:0:
448,192,31880,1,0,0:0:0:0:
64,192,32067,1,0,0:0:0:0:
64,192,32255,1,0,0:0:0:0:
320,192,32255,1,0,0:0:0:0:
448,192,32442,128,0,32536:0:0:0:0:
192,192,32630,128,0,32723:0:0:0:0:
64,192,32630,1,0,0:0:0:0:
448,192,32723,128,0,32817:0:0:0:0:
192,192,32911,128,0,33005:0:0:0:0:
320,192,33005,128,0,33380:0:0:0:0:
448,192,33005,128,0,33380:0:0:0:0:
64,192,33005,1,0,0:0:0:0:
64,192,33380,1,0,0:0:0:0:
192,192,33380,1,0,0:0:0:0:
192,192,33567,128,0,33942:0:0:0:0:
320,192,33567,128,0,33942:0:0:0:0:
64,192,33755,1,0,0:0:0:0:
448,192,33755,1,0,0:0:0:0:
192,192,34130,128,0,34505:0:0:0:0:
64,192,34130,128,0,34505:0:0:0:0:
448,192,34130,1,0,0:0:0:0:
320,192,34130,1,0,0:0:0:0:
320,192,34505,1,0,0:0:0:0:
448,192,34505,1,0,0:0:0:0:
192,192,34598,1,0,0:0:0:0:
64,192,34692,1,0,0:0:0:0:
320,192,34786,1,0,0:0:0:0:
448,192,34880,1,0,0:0:0:0:
64,192,34880,1,0,0:0:0:0:
192,192,34973,1,0,0:0:0:0:
448,192,35067,1,0,0:0:0:0:
320,192,35161,1,0,0:0:0:0:
192,192,35255,1,0,0:0:0:0:
64,192,35255,1,0,0:0:0:0:
320,192,35442,1,0,0:0:0:0:
448,192,35442,1,0,0:0:0:0:
320,192,35630,1,0,0:0:0:0:
448,192,35630,1,0,0:0:0:0:
64,192,35723,1,0,0:0:0:0:
192,192,35723,1,0,0:0:0:0:
192,192,35911,1,0,0:0:0:0:
64,192,35911,1,0,0:0:0:0:
320,192,36005,1,0,0:0:0:0:
448,192,36005,128,0,36755:0:0:0:0:
192,192,36192,1,0,0:0:0:0:
64,192,36380,1,0,0:0:0:0:
192,192,36380,1,0,0:0:0:0:
320,192,36567,1,0,0:0:0:0:
64,192,36755,1,0,0:0:0:0:
320,192,36755,1,0,0:0:0:0:
192,192,36942,1,0,0:0:0:0:
192,192,37130,1,0,0:0:0:0:
448,192,37130,128,0,37505:0:0:0:0:
64,192,37317,1,0,0:0:0:0:
64,192,37505,128,0,37880:0:0:0:0:
320,192,37505,1,0,0:0:0:0:
192,192,37692,1,0,0:0:0:0:
192,192,37880,128,0,38255:0:0:0:0:
448,192,37880,1,0,0:0:0:0:
320,192,38067,1,0,0:0:0:0:
320,192,38255,128,0,38630:0:0:0:0:
64,192,38255,1,0,0:0:0:0:
448,192,38442,1,0,0:0:0:0:
448,192,38630,128,0,39005:0:0:0:0:
192,192,38630,1,0,0:0:0:0:
64,192,38817,1,0,0:0:0:0:
64,192,39005,128,0,39755:0:0:0:0:
192,192,39005,1,0,0:0:0:0:
320,192,39192,1,0,0:0:0:0:
320,192,39380,1,0,0:0:0:0:
448,192,39380,1,0,0:0:0:0:
192,192,39567,1,0,0:0:0:0:
448,192,39755,1,0,0:0:0:0:
192,192,39755,1,0,0:0:0:0:
320,192,39942,1,0,0:0:0:0:
320,192,40130,1,0,0:0:0:0:
64,192,40130,128,0,40505:0:0:0:0:
448,192,40317,1,0,0:0:0:0:
448,192,40505,128,0,40880:0:0:0:0:
192,192,40505,1,0,0:0:0:0:
320,192,40692,1,0,0:0:0:0:
320,192,40880,128,0,41255:0:0:0:0:
64,192,40880,1,0,0:0:0:0:
192,192,41067,1,0,0:0:0:0:
192,192,41255,128,0,41630:0:0:0:0:
448,192,41255,1,0,0:0:0:0:
64,192,41442,1,0,0:0:0:0:
64,192,41630,128,0,42005:0:0:0:0:
448,192,41630,1,0,0:0:0:0:
320,192,41817,1,0,0:0:0:0:
320,192,42005,128,0,42942:0:0:0:0:
192,192,42005,1,0,0:0:0:0:
448,192,42005,1,0,0:0:0:0:
64,192,42192,1,0,0:0:0:0:
448,192,42380,1,0,0:0:0:0:
64,192,42380,1,0,0:0:0:0:
192,192,42567,1,0,0:0:0:0:
448,192,42755,1,0,0:0:0:0:
192,192,42755,1,0,0:0:0:0:
64,192,42942,128,0,43130:0:0:0:0:
320,192,43130,128,0,43317:0:0:0:0:
192,192,43130,1,0,0:0:0:0:
448,192,43317,128,0,43692:0:0:0:0:
192,192,43505,1,0,0:0:0:0:
64,192,43505,1,0,0:0:0:0:
320,192,43692,128,0,43880:0:0:0:0:
192,192,43880,128,0,44067:0:0:0:0:
448,192,43880,1,0,0:0:0:0:
64,192,44067,128,0,44630:0:0:0:0:
448,192,44067,1,0,0:0:0:0:
320,192,44067,1,0,0:0:0:0:
192,192,44255,1,0,0:0:0:0:
320,192,44442,1,0,0:0:0:0:
320,192,44630,128,0,44817:0:0:0:0:
448,192,44630,1,0,0:0:0:0:
64,192,44817,128,0,45005:0:0:0:0:
320,192,45005,1,0,0:0:0:0:
448,192,45005,1,0,0:0:0:0:
192,192,45098,1,0,0:0:0:0:
64,192,45192,1,0,0:0:0:0:
320,192,45192,1,0,0:0:0:0:
448,192,45286,1,0,0:0:0:0:
192,192,45380,1,0,0:0:0:0:
64,192,45380,1,0,0:0:0:0:
320,192,45473,1,0,0:0:0:0:
448,192,45567,1,0,0:0:0:0:
192,192,45567,1,0,0:0:0:0:
64,192,45661,1,0,0:0:0:0:
448,192,45755,1,0,0:0:0:0:
320,192,45755,1,0,0:0:0:0:
192,192,45848,1,0,0:0:0:0:
64,192,45942,1,0,0:0:0:0:
448,192,45942,1,0,0:0:0:0:
320,192,46036,1,0,0:0:0:0:
192,192,46130,1,0,0:0:0:0:
64,192,46130,1,0,0:0:0:0:
320,192,46223,1,0,0:0:0:0:
448,192,46317,1,0,0:0:0:0:
64,192,46317,1,0,0:0:0:0:
192,192,46411,1,0,0:0:0:0:
320,192,46505,1,0,0:0:0:0:
448,192,46505,1,0,0:0:0:0:
64,192,46505,1,0,0:0:0:0:
448,192,48005,1,0,0:0:0:0:
192,192,48005,1,0,0:0:0:0:
64,192,48005,1,0,0:0:0:0:
320,192,48098,1,0,0:0:0:0:
64,192,48192,1,0,0:0:0:0:
448,192,48192,1,0,0:0:0:0:
192,192,48286,1,0,0:0:0:0:
64,192,48380,1,0,0:0:0:0:
448,192,48380,1,0,0:0:0:0:
320,192,48380,1,0,0:0:0:0:
192,192,48473,1,0,0:0:0:0:
64,192,48567,1,0,0:0:0:0:
448,192,48567,1,0,0:0:0:0:
320,192,48661,1,0,0:0:0:0:
192,192,48755,1,0,0:0:0:0:
448,192,48755,1,0,0:0:0:0:
64,192,48848,1,0,0:0:0:0:
192,192,48942,1,0,0:0:0:0:
320,192,48942,1,0,0:0:0:0:
448,192,49036,1,0,0:0:0:0:
320,192,49130,1,0,0:0:0:0:
192,192,49130,1,0,0:0:0:0:
64,192,49130,1,0,0:0:0:0:
448,192,49223,1,0,0:0:0:0:
320,192,49317,1,0,0:0:0:0:
64,192,49317,1,0,0:0:0:0:
192,192,49411,1,0,0:0:0:0:
64,192,49505,1,0,0:0:0:0:
320,192,49505,1,0,0:0:0:0:
448,192,49598,1,0,0:0:0:0:
192,192,49692,1,0,0:0:0:0:
64,192,49692,1,0,0:0:0:0:
320,192,49786,1,0,0:0:0:0:
448,192,49880,1,0,0:0:0:0:
192,192,49880,1,0,0:0:0:0:
64,192,49880,1,0,0:0:0:0:
320,192,49973,1,0,0:0:0:0:
192,192,50067,1,0,0:0:0:0:
448,192,50067,1,0,0:0:0:0:
64,192,50161,1,0,0:0:0:0:
192,192,50255,1,0,0:0:0:0:
320,192,50255,1,0,0:0:0:0:
64,192,50348,1,0,0:0:0:0:
448,192,50442,1,0,0:0:0:0:
320,192,50442,1,0,0:0:0:0:
192,192,50536,1,0,0:0:0:0:
64,192,50630,1,0,0:0:0:0:
320,192,50630,1,0,0:0:0:0:
448,192,50630,1,0,0:0:0:0:
192,192,50723,1,0,0:0:0:0:
64,192,50817,1,0,0:0:0:0:
448,192,50817,1,0,0:0:0:0:
320,192,50911,1,0,0:0:0:0:
192,192,51005,1,0,0:0:0:0:
448,192,51005,1,0,0:0:0:0:
64,192,51098,1,0,0:0:0:0:
192,192,51192,1,0,0:0:0:0:
320,192,51192,1,0,0:0:0:0:
448,192,51286,1,0,0:0:0:0:
320,192,51380,1,0,0:0:0:0:
192,192,51380,1,0,0:0:0:0:
64,192,51380,1,0,0:0:0:0:
448,192,51473,1,0,0:0:0:0:
192,192,51567,1,0,0:0:0:0:
64,192,51567,1,0,0:0:0:0:
320,192,51661,1,0,0:0:0:0:
64,192,51755,1,0,0:0:0:0:
448,192,51755,1,0,0:0:0:0:
320,192,51848,1,0,0:0:0:0:
448,192,51942,1,0,0:0:0:0:
192,192,51942,1,0,0:0:0:0:
64,192,52036,1,0,0:0:0:0:
192,192,52130,1,0,0:0:0:0:
320,192,52130,1,0,0:0:0:0:
448,192,52130,1,0,0:0:0:0:
64,192,52223,1,0,0:0:0:0:
192,192,52317,1,0,0:0:0:0:
320,192,52317,1,0,0:0:0:0:
448,192,52411,1,0,0:0:0:0:
64,192,52505,1,0,0:0:0:0:
320,192,52505,1,0,0:0:0:0:
192,192,52598,1,0,0:0:0:0:
64,192,52692,1,0,0:0:0:0:
448,192,52692,1,0,0:0:0:0:
320,192,52786,1,0,0:0:0:0:
448,192,52880,1,0,0:0:0:0:
192,192,52880,1,0,0:0:0:0:
64,192,52880,1,0,0:0:0:0:
320,192,52973,1,0,0:0:0:0:
192,192,53067,1,0,0:0:0:0:
64,192,53067,1,0,0:0:0:0:
448,192,53161,1,0,0:0:0:0:
320,192,53255,1,0,0:0:0:0:
64,192,53255,1,0,0:0:0:0:
448,192,53348,1,0,0:0:0:0:
64,192,53442,1,0,0:0:0:0:
192,192,53442,1,0,0:0:0:0:
320,192,53536,1,0,0:0:0:0:
448,192,53536,1,0,0:0:0:0:
192,192,53630,1,0,0:0:0:0:
64,192,53630,1,0,0:0:0:0:
448,192,53723,1,0,0:0:0:0:
320,192,53817,1,0,0:0:0:0:
64,192,53817,1,0,0:0:0:0:
192,192,53911,1,0,0:0:0:0:
320,192,54005,1,0,0:0:0:0:
448,192,54005,1,0,0:0:0:0:
64,192,54005,1,0,0:0:0:0:
192,192,54098,1,0,0:0:0:0:
448,192,54192,1,0,0:0:0:0:
64,192,54192,1,0,0:0:0:0:
320,192,54286,1,0,0:0:0:0:
448,192,54380,1,0,0:0:0:0:
64,192,54380,1,0,0:0:0:0:
192,192,54380,1,0,0:0:0:0:
320,192,54473,1,0,0:0:0:0:
448,192,54567,1,0,0:0:0:0:
64,192,54567,1,0,0:0:0:0:
192,192,54661,1,0,0:0:0:0:
320,192,54755,1,0,0:0:0:0:
64,192,54755,1,0,0:0:0:0:
448,192,54848,1,0,0:0:0:0:
320,192,54942,1,0,0:0:0:0:
192,192,54942,1,0,0:0:0:0:
64,192,55036,1,0,0:0:0:0:
192,192,55130,1,0,0:0:0:0:
320,192,55130,1,0,0:0:0:0:
448,192,55130,1,0,0:0:0:0:
64,192,55223,1,0,0:0:0:0:
192,192,55317,1,0,0:0:0:0:
448,192,55317,1,0,0:0:0:0:
320,192,55411,1,0,0:0:0:0:
448,192,55505,1,0,0:0:0:0:
192,192,55505,1,0,0:0:0:0:
64,192,55598,1,0,0:0:0:0:
320,192,55692,1,0,0:0:0:0:
448,192,55692,1,0,0:0:0:0:
192,192,55786,1,0,0:0:0:0:
64,192,55880,1,0,0:0:0:0:
320,192,55880,1,0,0:0:0:0:
448,192,55880,1,0,0:0:0:0:
192,192,55973,1,0,0:0:0:0:
320,192,56067,1,0,0:0:0:0:
64,192,56067,1,0,0:0:0:0:
448,192,56161,1,0,0:0:0:0:
320,192,56255,1,0,0:0:0:0:
192,192,56255,1,0,0:0:0:0:
448,192,56348,1,0,0:0:0:0:
64,192,56442,1,0,0:0:0:0:
192,192,56442,1,0,0:0:0:0:
320,192,56536,1,0,0:0:0:0:
448,192,56630,1,0,0:0:0:0:
192,192,56630,1,0,0:0:0:0:
64,192,56630,1,0,0:0:0:0:
320,192,56723,1,0,0:0:0:0:
448,192,56817,1,0,0:0:0:0:
64,192,56817,1,0,0:0:0:0:
192,192,56911,1,0,0:0:0:0:
320,192,57005,1,0,0:0:0:0:
64,192,57005,1,0,0:0:0:0:
448,192,57098,1,0,0:0:0:0:
320,192,57192,1,0,0:0:0:0:
192,192,57192,1,0,0:0:0:0:
64,192,57286,1,0,0:0:0:0:
192,192,57380,1,0,0:0:0:0:
320,192,57380,1,0,0:0:0:0:
448,192,57380,1,0,0:0:0:0:
64,192,57473,1,0,0:0:0:0:
320,192,57567,1,0,0:0:0:0:
448,192,57567,1,0,0:0:0:0:
192,192,57661,1,0,0:0:0:0:
448,192,57755,1,0,0:0:0:0:
64,192,57755,1,0,0:0:0:0:
320,192,57755,1,0,0:0:0:0:
192,192,57848,1,0,0:0:0:0:
320,192,57942,1,0,0:0:0:0:
448,192,57942,1,0,0:0:0:0:
192,192,58036,1,0,0:0:0:0:
64,192,58036,1,0,0:0:0:0:
320,192,58130,1,0,0:0:0:0:
448,192,58130,1,0,0:0:0:0:
64,192,58223,1,0,0:0:0:0:
192,192,58223,1,0,0:0:0:0:
320,192,58317,1,0,0:0:0:0:
448,192,58317,1,0,0:0:0:0:
192,192,58411,1,0,0:0:0:0:
64,192,58411,1,0,0:0:0:0:
448,192,58505,1,0,0:0:0:0:
320,192,58505,1,0,0:0:0:0:
192,192,58598,1,0,0:0:0:0:
448,192,58692,1,0,0:0:0:0:
64,192,58692,1,0,0:0:0:0:
192,192,58786,1,0,0:0:0:0:
320,192,58786,1,0,0:0:0:0:
64,192,58880,1,0,0:0:0:0:
448,192,58880,1,0,0:0:0:0:
192,192,58973,1,0,0:0:0:0:
320,192,59067,1,0,0:0:0:0:
64,192,59067,1,0,0:0:0:0:
448,192,59161,1,0,0:0:0:0:
64,192,59255,1,0,0:0:0:0:
192,192,59255,1,0,0:0:0:0:
448,192,59348,1,0,0:0:0:0:
320,192,59348,1,0,0:0:0:0:
64,192,59442,1,0,0:0:0:0:
192,192,59442,1,0,0:0:0:0:
320,192,59536,1,0,0:0:0:0:
448,192,59536,1,0,0:0:0:0:
192,192,59630,1,0,0:0:0:0:
64,192,59630,1,0,0:0:0:0:
320,192,59723,1,0,0:0:0:0:
448,192,59723,1,0,0:0:0:0:
64,192,59817,1,0,0:0:0:0:
192,192,59817,1,0,0:0:0:0:
320,192,59911,1,0,0:0:0:0:
448,192,60005,1,0,0:0:0:0:
64,192,60005,1,0,0:0:0:0:
192,192,60005,1,0,0:0:0:0:
320,192,60098,1,0,0:0:0:0:
448,192,60192,1,0,0:0:0:0:
320,192,60286,1,0,0:0:0:0:
448,192,60380,1,0,0:0:0:0:
64,192,60380,1,0,0:0:0:0:
192,192,60567,1,0,0:0:0:0:
64,192,60755,1,0,0:0:0:0:
320,192,60755,1,0,0:0:0:0:
448,192,60942,1,0,0:0:0:0:
448,192,61130,1,0,0:0:0:0:
64,192,61130,1,0,0:0:0:0:
192,192,61223,1,0,0:0:0:0:
320,192,61317,1,0,0:0:0:0:
448,192,61505,1,0,0:0:0:0:
64,192,61505,1,0,0:0:0:0:
320,192,61598,1,0,0:0:0:0:
448,192,61692,1,0,0:0:0:0:
192,192,61786,1,0,0:0:0:0:
320,192,61880,1,0,0:0:0:0:
64,192,61880,1,0,0:0:0:0:
192,192,62067,1,0,0:0:0:0:
64,192,62255,1,0,0:0:0:0:
448,192,62255,1,0,0:0:0:0:
320,192,62348,1,0,0:0:0:0:
192,192,62442,1,0,0:0:0:0:
64,192,62442,1,0,0:0:0:0:
320,192,62536,1,0,0:0:0:0:
448,192,62630,1,0,0:0:0:0:
64,192,62630,1,0,0:0:0:0:
192,192,62723,1,0,0:0:0:0:
320,192,62817,1,0,0:0:0:0:
448,192,62817,1,0,0:0:0:0:
192,192,62911,1,0,0:0:0:0:
64,192,63005,1,0,0:0:0:0:
448,192,63005,1,0,0:0:0:0:
192,192,63098,1,0,0:0:0:0:
64,192,63192,1,0,0:0:0:0:
192,192,63286,1,0,0:0:0:0:
64,192,63380,1,0,0:0:0:0:
448,192,63380,1,0,0:0:0:0:
320,192,63567,1,0,0:0:0:0:
192,192,63755,1,0,0:0:0:0:
448,192,63755,1,0,0:0:0:0:
64,192,63942,1,0,0:0:0:0:
64,192,64130,1,0,0:0:0:0:
448,192,64130,1,0,0:0:0:0:
320,192,64223,1,0,0:0:0:0:
192,192,64317,1,0,0:0:0:0:
448,192,64505,1,0,0:0:0:0:
320,192,64505,1,0,0:0:0:0:
64,192,64598,1,0,0:0:0:0:
192,192,64692,1,0,0:0:0:0:
320,192,64786,1,0,0:0:0:0:
448,192,64880,1,0,0:0:0:0:
64,192,64880,1,0,0:0:0:0:
320,192,64973,1,0,0:0:0:0:
192,192,65067,1,0,0:0:0:0:
64,192,65161,1,0,0:0:0:0:
320,192,65255,1,0,0:0:0:0:
448,192,65255,1,0,0:0:0:0:
192,192,65348,1,0,0:0:0:0:
64,192,65348,1,0,0:0:0:0:
448,192,65442,1,0,0:0:0:0:
320,192,65442,1,0,0:0:0:0:
192,192,65536,1,0,0:0:0:0:
64,192,65536,1,0,0:0:0:0:
320,192,65630,1,0,0:0:0:0:
448,192,65630,1,0,0:0:0:0:
192,192,65723,1,0,0:0:0:0:
64,192,65723,1,0,0:0:0:0:
320,192,65817,1,0,0:0:0:0:
448,192,65817,1,0,0:0:0:0:
192,192,65911,1,0,0:0:0:0:
64,192,66005,1,0,0:0:0:0:
320,192,66005,1,0,0:0:0:0:
448,192,66005,1,0,0:0:0:0:
192,192,66098,1,0,0:0:0:0:
64,192,66192,1,0,0:0:0:0:
192,192,66286,1,0,0:0:0:0:
64,192,66380,1,0,0:0:0:0:
448,192,66380,1,0,0:0:0:0:
192,192,66473,1,0,0:0:0:0:
64,192,66567,1,0,0:0:0:0:
192,192,66661,1,0,0:0:0:0:
64,192,66755,1,0,0:0:0:0:
448,192,66755,1,0,0:0:0:0:
320,192,66942,1,0,0:0:0:0:
64,192,67130,1,0,0:0:0:0:
448,192,67130,1,0,0:0:0:0:
192,192,67317,1,0,0:0:0:0:
64,192,67505,1,0,0:0:0:0:
448,192,67505,1,0,0:0:0:0:
320,192,67598,1,0,0:0:0:0:
448,192,67692,1,0,0:0:0:0:
320,192,67786,1,0,0:0:0:0:
448,192,67880,1,0,0:0:0:0:
64,192,67880,1,0,0:0:0:0:
320,192,67973,1,0,0:0:0:0:
448,192,68067,1,0,0:0:0:0:
320,192,68161,1,0,0:0:0:0:
448,192,68255,1,0,0:0:0:0:
64,192,68255,1,0,0:0:0:0:
192,192,68442,1,0,0:0:0:0:
64,192,68630,1,0,0:0:0:0:
448,192,68630,1,0,0:0:0:0:
320,192,68817,1,0,0:0:0:0:
192,192,69005,1,0,0:0:0:0:
448,192,69005,1,0,0:0:0:0:
64,192,69098,1,0,0:0:0:0:
192,192,69192,1,0,0:0:0:0:
64,192,69286,1,0,0:0:0:0:
192,192,69380,1,0,0:0:0:0:
448,192,69380,1,0,0:0:0:0:
64,192,69473,1,0,0:0:0:0:
192,192,69567,1,0,0:0:0:0:
64,192,69661,1,0,0:0:0:0:
192,192,69755,1,0,0:0:0:0:
448,192,69755,1,0,0:0:0:0:
320,192,69942,1,0,0:0:0:0:
64,192,70130,1,0,0:0:0:0:
448,192,70130,1,0,0:0:0:0:
192,192,70317,1,0,0:0:0:0:
64,192,70505,1,0,0:0:0:0:
320,192,70505,1,0,0:0:0:0:
448,192,70598,1,0,0:0:0:0:
320,192,70692,1,0,0:0:0:0:
448,192,70786,1,0,0:0:0:0:
320,192,70880,1,0,0:0:0:0:
64,192,70880,1,0,0:0:0:0:
448,192,70973,1,0,0:0:0:0:
320,192,71067,1,0,0:0:0:0:
448,192,71161,1,0,0:0:0:0:
320,192,71255,1,0,0:0:0:0:
64,192,71255,1,0,0:0:0:0:
192,192,71348,1,0,0:0:0:0:
320,192,71442,1,0,0:0:0:0:
192,192,71536,1,0,0:0:0:0:
448,192,71630,1,0,0:0:0:0:
320,192,71630,1,0,0:0:0:0:
64,192,71723,1,0,0:0:0:0:
448,192,71817,1,0,0:0:0:0:
64,192,71911,1,0,0:0:0:0:
192,192,72005,1,0,0:0:0:0:
448,192,72005,1,0,0:0:0:0:
320,192,72098,1,0,0:0:0:0:
192,192,72192,1,0,0:0:0:0:
320,192,72286,1,0,0:0:0:0:
192,192,72380,1,0,0:0:0:0:
448,192,72380,1,0,0:0:0:0:
320,192,72473,1,0,0:0:0:0:
192,192,72567,1,0,0:0:0:0:
320,192,72661,1,0,0:0:0:0:
192,192,72755,1,0,0:0:0:0:
448,192,72755,1,0,0:0:0:0:
64,192,72848,1,0,0:0:0:0:
320,192,72942,1,0,0:0:0:0:
64,192,73130,1,0,0:0:0:0:
320,192,73130,1,0,0:0:0:0:
448,192,73223,1,0,0:0:0:0:
192,192,73317,1,0,0:0:0:0:
448,192,73505,1,0,0:0:0:0:
320,192,73505,1,0,0:0:0:0:
64,192,73598,1,0,0:0:0:0:
448,192,73692,1,0,0:0:0:0:
64,192,73786,1,0,0:0:0:0:
192,192,73880,1,0,0:0:0:0:
448,192,73880,1,0,0:0:0:0:
320,192,74067,1,0,0:0:0:0:
64,192,74255,1,0,0:0:0:0:
448,192,74255,1,0,0:0:0:0:
192,192,74348,1,0,0:0:0:0:
320,192,74442,1,0,0:0:0:0:
64,192,74630,1,0,0:0:0:0:
320,192,74630,1,0,0:0:0:0:
192,192,74817,1,0,0:0:0:0:
448,192,75005,1,0,0:0:0:0:
64,192,75005,1,0,0:0:0:0:
192,192,75098,1,0,0:0:0:0:
448,192,75192,1,0,0:0:0:0:
192,192,75286,1,0,0:0:0:0:
448,192,75380,1,0,0:0:0:0:
64,192,75380,1,0,0:0:0:0:
192,192,75473,1,0,0:0:0:0:
448,192,75567,1,0,0:0:0:0:
192,192,75661,1,0,0:0:0:0:
448,192,75755,1,0,0:0:0:0:
64,192,75755,1,0,0:0:0:0:
320,192,75848,1,0,0:0:0:0:
192,192,75942,1,0,0:0:0:0:
64,192,76036,1,0,0:0:0:0:
320,192,76130,1,0,0:0:0:0:
448,192,76130,1,0,0:0:0:0:
192,192,76223,1,0,0:0:0:0:
320,192,76317,1,0,0:0:0:0:
64,192,76317,1,0,0:0:0:0:
192,192,76411,1,0,0:0:0:0:
64,192,76505,1,0,0:0:0:0:
448,192,76505,1,0,0:0:0:0:
320,192,76598,1,0,0:0:0:0:
64,192,76692,1,0,0:0:0:0:
448,192,76692,1,0,0:0:0:0:
320,192,76786,1,0,0:0:0:0:
64,192,76880,1,0,0:0:0:0:
448,192,76880,1,0,0:0:0:0:
320,192,76973,1,0,0:0:0:0:
64,192,77067,1,0,0:0:0:0:
448,192,77067,1,0,0:0:0:0:
320,192,77161,1,0,0:0:0:0:
192,192,77255,1,0,0:0:0:0:
64,192,77255,1,0,0:0:0:0:
320,192,77348,1,0,0:0:0:0:
448,192,77348,1,0,0:0:0:0:
192,192,77442,1,0,0:0:0:0:
64,192,77442,1,0,0:0:0:0:
320,192,77536,1,0,0:0:0:0:
448,192,77536,1,0,0:0:0:0:
192,192,77630,1,0,0:0:0:0:
64,192,77630,1,0,0:0:0:0:
448,192,77723,1,0,0:0:0:0:
320,192,77817,1,0,0:0:0:0:
192,192,77817,1,0,0:0:0:0:
64,192,77911,1,0,0:0:0:0:
320,192,78005,1,0,0:0:0:0:
192,192,78005,1,0,0:0:0:0:
448,192,78005,128,0,78755:0:0:0:0:
64,192,78380,1,0,0:0:0:0:
320,192,78755,1,0,0:0:0:0:
192,192,78942,1,0,0:0:0:0:
64,192,78942,1,0,0:0:0:0:
448,192,79130,128,0,79505:0:0:0:0:
64,192,79130,1,0,0:0:0:0:
192,192,79130,1,0,0:0:0:0:
192,192,79317,1,0,0:0:0:0:
64,192,79317,1,0,0:0:0:0:
64,192,79505,128,0,79880:0:0:0:0:
192,192,79505,1,0,0:0:0:0:
320,192,79505,1,0,0:0:0:0:
192,192,79880,128,0,80255:0:0:0:0:
448,192,79880,1,0,0:0:0:0:
320,192,80255,128,0,80630:0:0:0:0:
64,192,80255,1,0,0:0:0:0:
448,192,80255,1,0,0:0:0:0:
192,192,80536,1,0,0:0:0:0:
64,192,80536,1,0,0:0:0:0:
448,192,80630,128,0,81005:0:0:0:0:
64,192,80817,1,0,0:0:0:0:
192,192,80817,1,0,0:0:0:0:
64,192,81005,128,0,81755:0:0:0:0:
192,192,81005,1,0,0:0:0:0:
320,192,81005,1,0,0:0:0:0:
448,192,81380,1,0,0:0:0:0:
192,192,81755,1,0,0:0:0:0:
64,192,81942,128,0,82130:0:0:0:0:
320,192,81942,1,0,0:0:0:0:
448,192,81942,1,0,0:0:0:0:
192,192,82130,128,0,82317:0:0:0:0:
320,192,82130,1,0,0:0:0:0:
448,192,82130,1,0,0:0:0:0:
64,192,82317,128,0,82505:0:0:0:0:
448,192,82317,1,0,0:0:0:0:
320,192,82317,1,0,0:0:0:0:
448,192,82505,128,0,82880:0:0:0:0:
320,192,82505,1,0,0:0:0:0:
192,192,82505,1,0,0:0:0:0:
320,192,82880,128,0,83255:0:0:0:0:
64,192,82880,1,0,0:0:0:0:
192,192,83255,128,0,83630:0:0:0:0:
64,192,83255,1,0,0:0:0:0:
448,192,83255,1,0,0:0:0:0:
448,192,83442,1,0,0:0:0:0:
320,192,83536,1,0,0:0:0:0:
64,192,83630,128,0,84005:0:0:0:0:
448,192,83630,1,0,0:0:0:0:
320,192,83817,1,0,0:0:0:0:
320,192,84005,128,0,84942:0:0:0:0:
192,192,84005,1,0,0:0:0:0:
448,192,84005,1,0,0:0:0:0:
64,192,84192,1,0,0:0:0:0:
64,192,84380,1,0,0:0:0:0:
192,192,84380,1,0,0:0:0:0:
448,192,84567,1,0,0:0:0:0:
448,192,84755,1,0,0:0:0:0:
192,192,84755,1,0,0:0:0:0:
64,192,84942,128,0,85130:0:0:0:0:
320,192,85130,128,0,85317:0:0:0:0:
192,192,85130,1,0,0:0:0:0:
448,192,85317,128,0,85692:0:0:0:0:
192,192,85505,1,0,0:0:0:0:
64,192,85505,1,0,0:0:0:0:
320,192,85692,128,0,85880:0:0:0:0:
192,192,85880,128,0,86067:0:0:0:0:
448,192,85880,1,0,0:0:0:0:
64,192,86067,128,0,86630:0:0:0:0:
448,192,86067,1,0,0:0:0:0:
320,192,86067,1,0,0:0:0:0:
192,192,86255,1,0,0:0:0:0:
320,192,86442,1,0,0:0:0:0:
320,192,86630,128,0,86817:0:0:0:0:
448,192,86630,1,0,0:0:0:0:
64,192,86817,128,0,87005:0:0:0:0:
192,192,87005,1,0,0:0:0:0:
448,192,87005,1,0,0:0:0:0:
320,192,87098,1,0,0:0:0:0:
64,192,87192,1,0,0:0:0:0:
448,192,87192,1,0,0:0:0:0:
192,192,87286,1,0,0:0:0:0:
64,192,87380,1,0,0:0:0:0:
320,192,87380,1,0,0:0:0:0:
192,192,87473,1,0,0:0:0:0:
64,192,87567,1,0,0:0:0:0:
448,192,87567,1,0,0:0:0:0:
320,192,87661,1,0,0:0:0:0:
192,192,87755,1,0,0:0:0:0:
448,192,87755,1,0,0:0:0:0:
320,192,87848,1,0,0:0:0:0:
448,192,87942,1,0,0:0:0:0:
64,192,87942,1,0,0:0:0:0:
192,192,88036,1,0,0:0:0:0:
64,192,88130,1,0,0:0:0:0:
320,192,88130,1,0,0:0:0:0:
192,192,88223,1,0,0:0:0:0:
64,192,88317,1,0,0:0:0:0:
448,192,88317,1,0,0:0:0:0:
320,192,88411,1,0,0:0:0:0:
192,192,88505,1,0,0:0:0:0:
448,192,88505,1,0,0:0:0:0:
64,192,88505,1,0,0:0:0:0:
64,192,90005,1,0,0:0:0:0:
448,192,90005,1,0,0:0:0:0:
192,192,90067,1,0,0:0:0:0:
320,192,90130,1,0,0:0:0:0:
64,192,90192,1,0,0:0:0:0:
448,192,90255,1,0,0:0:0:0:
320,192,90317,1,0,0:0:0:0:
192,192,90380,1,0,0:0:0:0:
64,192,90380,1,0,0:0:0:0:
448,192,90442,1,0,0:0:0:0:
320,192,90505,1,0,0:0:0:0:
64,192,90567,1,0,0:0:0:0:
448,192,90630,1,0,0:0:0:0:
192,192,90692,1,0,0:0:0:0:
320,192,90755,1,0,0:0:0:0:
64,192,90755,1,0,0:0:0:0:
448,192,90817,1,0,0:0:0:0:
192,192,90880,1,0,0:0:0:0:
320,192,90942,1,0,0:0:0:0:
64,192,91005,1,0,0:0:0:0:
192,192,91067,1,0,0:0:0:0:
448,192,91130,1,0,0:0:0:0:
320,192,91130,1,0,0:0:0:0:
64,192,91192,1,0,0:0:0:0:
320,192,91255,1,0,0:0:0:0:
192,192,91317,1,0,0:0:0:0:
448,192,91380,1,0,0:0:0:0:
320,192,91442,1,0,0:0:0:0:
192,192,91505,1,0,0:0:0:0:
64,192,91505,1,0,0:0:0:0:
448,192,91567,1,0,0:0:0:0:
64,192,91630,1,0,0:0:0:0:
320,192,91692,1,0,0:0:0:0:
192,192,91755,1,0,0:0:0:0:
64,192,91817,1,0,0:0:0:0:
448,192,91880,1,0,0:0:0:0:
192,192,91880,1,0,0:0:0:0:
320,192,91942,1,0,0:0:0:0:
64,192,92005,1,0,0:0:0:0:
448,192,92067,1,0,0:0:0:0:
320,192,92130,1,0,0:0:0:0:
192,192,92192,1,0,0:0:0:0:
320,192,92255,1,0,0:0:0:0:
64,192,92255,1,0,0:0:0:0:
448,192,92317,1,0,0:0:0:0:
192,192,92380,1,0,0:0:0:0:
320,192,92442,1,0,0:0:0:0:
64,192,92505,1,0,0:0:0:0:
448,192,92567,1,0,0:0:0:0:
320,192,92630,1,0,0:0:0:0:
192,192,92630,1,0,0:0:0:0:
64,192,92692,1,0,0:0:0:0:
448,192,92755,1,0,0:0:0:0:
320,192,92817,1,0,0:0:0:0:
448,192,92880,1,0,0:0:0:0:
192,192,92942,1,0,0:0:0:0:
64,192,93005,1,0,0:0:0:0:
320,192,93005,1,0,0:0:0:0:
192,192,93067,1,0,0:0:0:0:
448,192,93130,1,0,0:0:0:0:
64,192,93192,1,0,0:0:0:0:
320,192,93255,1,0,0:0:0:0:
192,192,93317,1,0,0:0:0:0:
64,192,93380,1,0,0:0:0:0:
448,192,93380,1,0,0:0:0:0:
320,192,93442,1,0,0:0:0:0:
192,192,93505,1,0,0:0:0:0:
448,192,93567,1,0,0:0:0:0:
64,192,93630,1,0,0:0:0:0:
320,192,93692,1,0,0:0:0:0:
192,192,93755,1,0,0:0:0:0:
448,192,93755,1,0,0:0:0:0:
64,192,93817,1,0,0:0:0:0:
320,192,93880,1,0,0:0:0:0:
448,192,93942,1,0,0:0:0:0:
320,192,94005,1,0,0:0:0:0:
192,192,94067,1,0,0:0:0:0:
448,192,94130,1,0,0:0:0:0:
64,192,94130,1,0,0:0:0:0:
320,192,94192,1,0,0:0:0:0:
192,192,94255,1,0,0:0:0:0:
64,192,94317,1,0,0:0:0:0:
192,192,94380,1,0,0:0:0:0:
448,192,94442,1,0,0:0:0:0:
64,192,94505,1,0,0:0:0:0:
320,192,94505,1,0,0:0:0:0:
192,192,94567,1,0,0:0:0:0:
448,192,94630,1,0,0:0:0:0:
64,192,94692,1,0,0:0:0:0:
320,192,94755,1,0,0:0:0:0:
64,192,94817,1,0,0:0:0:0:
192,192,94880,1,0,0:0:0:0:
448,192,94880,1,0,0:0:0:0:
320,192,94942,1,0,0:0:0:0:
64,192,95005,1,0,0:0:0:0:
448,192,95067,1,0,0:0:0:0:
192,192,95130,1,0,0:0:0:0:
64,192,95192,1,0,0:0:0:0:
320,192,95255,1,0,0:0:0:0:
448,192,95255,1,0,0:0:0:0:
192,192,95317,1,0,0:0:0:0:
64,192,95380,1,0,0:0:0:0:
448,192,95442,1,0,0:0:0:0:
192,192,95505,1,0,0:0:0:0:
448,192,95567,1,0,0:0:0:0:
320,192,95630,1,0,0:0:0:0:
64,192,95630,1,0,0:0:0:0:
192,192,95692,1,0,0:0:0:0:
448,192,95755,1,0,0:0:0:0:
64,192,95817,1,0,0:0:0:0:
320,192,95880,1,0,0:0:0:0:
448,192,95942,1,0,0:0:0:0:
192,192,96005,1,0,0:0:0:0:
64,192,96005,1,0,0:0:0:0:
320,192,96067,1,0,0:0:0:0:
448,192,96130,1,0,0:0:0:0:
192,192,96192,1,0,0:0:0:0:
64,192,96255,1,0,0:0:0:0:
192,192,96317,1,0,0:0:0:0:
320,192,96380,1,0,0:0:0:0:
448,192,96380,1,0,0:0:0:0:
64,192,96442,1,0,0:0:0:0:
192,192,96505,1,0,0:0:0:0:
448,192,96567,1,0,0:0:0:0:
64,192,96630,1,0,0:0:0:0:
320,192,96692,1,0,0:0:0:0:
192,192,96755,1,0,0:0:0:0:
448,192,96755,1,0,0:0:0:0:
64,192,96817,1,0,0:0:0:0:
320,192,96880,1,0,0:0:0:0:
192,192,96942,1,0,0:0:0:0:
448,192,97005,1,0,0:0:0:0:
320,192,97067,1,0,0:0:0:0:
64,192,97130,1,0,0:0:0:0:
192,192,97130,1,0,0:0:0:0:
448,192,97192,1,0,0:0:0:0:
192,192,97255,1,0,0:0:0:0:
320,192,97317,1,0,0:0:0:0:
64,192,97380,1,0,0:0:0:0:
192,192,97442,1,0,0:0:0:0:
320,192,97505,1,0,0:0:0:0:
448,192,97505,1,0,0:0:0:0:
64,192,97567,1,0,0:0:0:0:
448,192,97630,1,0,0:0:0:0:
192,192,97692,1,0,0:0:0:0:
320,192,97755,1,0,0:0:0:0:
448,192,97817,1,0,0:0:0:0:
64,192,97880,1,0,0:0:0:0:
320,192,97880,1,0,0:0:0:0:
192,192,97942,1,0,0:0:0:0:
448,192,98005,1,0,0:0:0:0:
64,192,98067,1,0,0:0:0:0:
192,192,98130,1,0,0:0:0:0:
320,192,98192,1,0,0:0:0:0:
192,192,98255,1,0,0:0:0:0:
448,192,98255,1,0,0:0:0:0:
64,192,98317,1,0,0:0:0:0:
320,192,98380,1,0,0:0:0:0:
192,192,98442,1,0,0:0:0:0:
448,192,98505,1,0,0:0:0:0:
64,192,98567,1,0,0:0:0:0:
192,192,98630,1,0,0:0:0:0:
320,192,98630,1,0,0:0:0:0:
448,192,98692,1,0,0:0:0:0:
64,192,98755,1,0,0:0:0:0:
192,192,98817,1,0,0:0:0:0:
64,192,98880,1,0,0:0:0:0:
320,192,98942,1,0,0:0:0:0:
448,192,99005,1,0,0:0:0:0:
192,192,99005,1,0,0:0:0:0:
320,192,99067,1,0,0:0:0:0:
64,192,99130,1,0,0:0:0:0:
448,192,99192,1,0,0:0:0:0:
192,192,99255,1,0,0:0:0:0:
320,192,99317,1,0,0:0:0:0:
448,192,99380,1,0,0:0:0:0:
64,192,99380,1,0,0:0:0:0:
192,192,99442,1,0,0:0:0:0:
320,192,99505,1,0,0:0:0:0:
64,192,99567,1,0,0:0:0:0:
448,192,99630,1,0,0:0:0:0:
192,192,99692,1,0,0:0:0:0:
320,192,99755,1,0,0:0:0:0:
64,192,99755,1,0,0:0:0:0:
448,192,99817,1,0,0:0:0:0:
192,192,99880,1,0,0:0:0:0:
64,192,99942,1,0,0:0:0:0:
192,192,100005,1,0,0:0:0:0:
320,192,100067,1,0,0:0:0:0:
64,192,100130,1,0,0:0:0:0:
448,192,100130,1,0,0:0:0:0:
192,192,100192,1,0,0:0:0:0:
320,192,100255,1,0,0:0:0:0:
448,192,100317,1,0,0:0:0:0:
64,192,100317,1,0,0:0:0:0:
320,192,100380,1,0,0:0:0:0:
192,192,100442,1,0,0:0:0:0:
448,192,100505,1,0,0:0:0:0:
320,192,100567,1,0,0:0:0:0:
64,192,100630,1,0,0:0:0:0:
448,192,100692,1,0,0:0:0:0:
192,192,100755,1,0,0:0:0:0:
448,192,100817,1,0,0:0:0:0:
64,192,100880,1,0,0:0:0:0:
192,192,100942,1,0,0:0:0:0:
448,192,101005,1,0,0:0:0:0:
64,192,101067,1,0,0:0:0:0:
320,192,101130,1,0,0:0:0:0:
64,192,101192,1,0,0:0:0:0:
448,192,101255,1,0,0:0:0:0:
320,192,101317,1,0,0:0:0:0:
192,192,101380,1,0,0:0:0:0:
448,192,101442,1,0,0:0:0:0:
320,192,101505,1,0,0:0:0:0:
64,192,101567,1,0,0:0:0:0:
448,192,101630,1,0,0:0:0:0:
192,192,101692,1,0,0:0:0:0:
64,192,101755,1,0,0:0:0:0:
320,192,101817,1,0,0:0:0:0:
192,192,101880,1,0,0:0:0:0:
64,192,101942,1,0,0:0:0:0:
320,192,102005,1,0,0:0:0:0:
448,192,102005,1,0,0:0:0:0:
192,192,102098,1,0,0:0:0:0:
448,192,102192,1,0,0:0:0:0:
192,192,102286,1,0,0:0:0:0:
320,192,102380,1,0,0:0:0:0:
448,192,102380,1,0,0:0:0:0:
192,192,102567,1,0,0:0:0:0:
192,192,102755,1,0,0:0:0:0:
64,192,102755,1,0,0:0:0:0:
320,192,102848,1,0,0:0:0:0:
64,192,102942,1,0,0:0:0:0:
320,192,103036,1,0,0:0:0:0:
192,192,103130,1,0,0:0:0:0:
64,192,103130,1,0,0:0:0:0:
320,192,103317,1,0,0:0:0:0:
192,192,103505,1,0,0:0:0:0:
320,192,103505,1,0,0:0:0:0:
448,192,103598,1,0,0:0:0:0:
192,192,103692,1,0,0:0:0:0:
448,192,103786,1,0,0:0:0:0:
320,192,103880,1,0,0:0:0:0:
192,192,103880,1,0,0:0:0:0:
448,192,104067,1,0,0:0:0:0:
320,192,104255,1,0,0:0:0:0:
192,192,104255,1,0,0:0:0:0:
64,192,104348,1,0,0:0:0:0:
320,192,104442,1,0,0:0:0:0:
64,192,104536,1,0,0:0:0:0:
192,192,104630,1,0,0:0:0:0:
320,192,104630,1,0,0:0:0:0:
448,192,104723,1,0,0:0:0:0:
64,192,104817,1,0,0:0:0:0:
448,192,104911,1,0,0:0:0:0:
192,192,105005,1,0,0:0:0:0:
64,192,105005,1,0,0:0:0:0:
320,192,105098,1,0,0:0:0:0:
448,192,105192,1,0,0:0:0:0:
320,192,105286,1,0,0:0:0:0:
192,192,105380,1,0,0:0:0:0:
64,192,105380,1,0,0:0:0:0:
192,192,105567,1,0,0:0:0:0:
448,192,105755,1,0,0:0:0:0:
320,192,105755,1,0,0:0:0:0:
192,192,105848,1,0,0:0:0:0:
64,192,105942,1,0,0:0:0:0:
192,192,106036,1,0,0:0:0:0:
320,192,106130,1,0,0:0:0:0:
448,192,106130,1,0,0:0:0:0:
320,192,106317,1,0,0:0:0:0:
64,192,106505,1,0,0:0:0:0:
192,192,106505,1,0,0:0:0:0:
320,192,106598,1,0,0:0:0:0:
448,192,106598,1,0,0:0:0:0:
192,192,106692,1,0,0:0:0:0:
64,192,106692,1,0,0:0:0:0:
320,192,106786,1,0,0:0:0:0:
448,192,106786,1,0,0:0:0:0:
192,192,106880,1,0,0:0:0:0:
64,192,106880,1,0,0:0:0:0:
448,192,106973,1,0,0:0:0:0:
320,192,107067,1,0,0:0:0:0:
64,192,107067,1,0,0:0:0:0:
192,192,107161,1,0,0:0:0:0:
448,192,107255,1,0,0:0:0:0:
320,192,107255,1,0,0:0:0:0:
192,192,107348,1,0,0:0:0:0:
64,192,107348,1,0,0:0:0:0:
320,192,107442,1,0,0:0:0:0:
448,192,107442,1,0,0:0:0:0:
192,192,107536,1,0,0:0:0:0:
64,192,107536,1,0,0:0:0:0:
320,192,107630,1,0,0:0:0:0:
448,192,107630,1,0,0:0:0:0:
64,192,107723,1,0,0:0:0:0:
192,192,107817,1,0,0:0:0:0:
448,192,107817,1,0,0:0:0:0:
320,192,107911,1,0,0:0:0:0:
192,192,108005,1,0,0:0:0:0:
64,192,108005,1,0,0:0:0:0:
448,192,108098,1,0,0:0:0:0:
192,192,108192,1,0,0:0:0:0:
448,192,108286,1,0,0:0:0:0:
192,192,108380,1,0,0:0:0:0:
64,192,108380,1,0,0:0:0:0:
64,192,108567,1,0,0:0:0:0:
448,192,108755,1,0,0:0:0:0:
320,192,108755,1,0,0:0:0:0:
64,192,108848,1,0,0:0:0:0:
320,192,108942,1,0,0:0:0:0:
64,192,109036,1,0,0:0:0:0:
320,192,109130,1,0,0:0:0:0:
448,192,109130,1,0,0:0:0:0:
448,192,109317,1,0,0:0:0:0:
448,192,109505,1,0,0:0:0:0:
64,192,109505,1,0,0:0:0:0:
320,192,109598,1,0,0:0:0:0:
64,192,109692,1,0,0:0:0:0:
320,192,109786,1,0,0:0:0:0:
64,192,109880,1,0,0:0:0:0:
448,192,109880,1,0,0:0:0:0:
192,192,110067,1,0,0:0:0:0:
64,192,110255,1,0,0:0:0:0:
448,192,110255,1,0,0:0:0:0:
192,192,110348,1,0,0:0:0:0:
448,192,110442,1,0,0:0:0:0:
192,192,110536,1,0,0:0:0:0:
64,192,110630,1,0,0:0:0:0:
448,192,110630,1,0,0:0:0:0:
320,192,110723,1,0,0:0:0:0:
192,192,110817,1,0,0:0:0:0:
448,192,110911,1,0,0:0:0:0:
64,192,111005,1,0,0:0:0:0:
192,192,111005,1,0,0:0:0:0:
320,192,111005,1,0,0:0:0:0:
64,192,111098,1,0,0:0:0:0:
64,192,111192,1,0,0:0:0:0:
64,192,111286,1,0,0:0:0:0:
64,192,111380,1,0,0:0:0:0:
192,192,111755,1,0,0:0:0:0:
320,192,111755,1,0,0:0:0:0:
448,192,111848,1,0,0:0:0:0:
192,192,111848,1,0,0:0:0:0:
192,192,111942,1,0,0:0:0:0:
448,192,111942,1,0,0:0:0:0:
448,192,112036,1,0,0:0:0:0:
192,192,112036,1,0,0:0:0:0:
192,192,112130,1,0,0:0:0:0:
320,192,112130,1,0,0:0:0:0:
64,192,112505,1,0,0:0:0:0:
192,192,112505,1,0,0:0:0:0:
320,192,112505,1,0,0:0:0:0:
448,192,112505,1,0,0:0:0:0:
320,192,112598,1,0,0:0:0:0:
448,192,112598,1,0,0:0:0:0:
192,192,112598,1,0,0:0:0:0:
64,192,112598,1,0,0:0:0:0:
192,192,112786,1,0,0:0:0:0:
64,192,112786,1,0,0:0:0:0:
320,192,112786,1,0,0:0:0:0:
448,192,112786,1,0,0:0:0:0:
320,192,112973,1,0,0:0:0:0:
448,192,112973,1,0,0:0:0:0:
192,192,112973,1,0,0:0:0:0:
64,192,112973,1,0,0:0:0:0:
192,192,113161,1,0,0:0:0:0:
64,192,113161,1,0,0:0:0:0:
320,192,113161,1,0,0:0:0:0:
448,192,113161,1,0,0:0:0:0:
320,192,113255,1,0,0:0:0:0:
448,192,113255,1,0,0:0:0:0:
192,192,113255,1,0,0:0:0:0:
64,192,113255,1,0,0:0:0:0:
448,192,113630,128,0,113723:0:0:0:0:
320,192,113630,128,0,113723:0:0:0:0:
192,192,113630,128,0,113723:0:0:0:0:
64,192,113630,128,0,113723:0:0:0:0:
