osu file format v14

[General]
AudioFilename: audio.ogg
AudioLeadIn: 0
PreviewTime: 90415
Countdown: 0
SampleSet: Soft
StackLeniency: 0.7
Mode: 0
LetterboxInBreaks: 0
WidescreenStoryboard: 0

[Editor]
DistanceSpacing: 1.5
BeatDivisor: 5
GridSize: 4
TimelineZoom: 1

[Metadata]
Title:Gong Xi Fa Cai
TitleUnicode:恭喜發財
Artist:Andy Lau
ArtistUnicode:劉德華
Creator:yf_bmp
Version:Insane
Source:
Tags:Chinese New Year Lunar Spring Festival zengsb pigeons Arsalan Graphical gongxifacai 刘德华 恭喜发财 继续谈情 春节联欢晚会 繼續談情 Liu De Hua Ji Xu Tan Qing Chun Jie Lian Huan Wan Hui best of my love pop
BeatmapID:4486815
BeatmapSetID:2132907

[Difficulty]
HPDrainRate:6
CircleSize:4
OverallDifficulty:8
ApproachRate:8
SliderMultiplier:1.8
SliderTickRate:1

[Events]
//Background and Video events
0,0,"121.jpg",0,0
Video,0,"video.mp4"
//Break Periods
//Storyboard Layer 0 (Background)
//Storyboard Layer 1 (Fail)
//Storyboard Layer 2 (Pass)
//Storyboard Layer 3 (Foreground)
//Storyboard Layer 4 (Overlay)
//Storyboard Sound Samples

[TimingPoints]
5074,454.545454545455,4,2,1,70,1,0
5074,-90.9090909090909,4,2,1,70,0,0
12347,-90.9090909090909,4,2,1,80,0,0
22347,-66.6666666666667,4,2,1,80,0,0
23256,-90.9090909090909,4,2,1,80,0,0
25983,-66.6666666666667,4,2,1,80,0,0
26892,-90.9090909090909,4,2,1,80,0,1
42346,-90.9090909090909,4,2,1,80,0,0
43028,-90.9090909090909,4,2,0,70,0,0
43256,-111.111111111111,4,2,0,70,0,0
48710,-111.111111111111,4,2,1,80,0,0
50528,-111.111111111111,4,2,0,70,0,0
55973,-111.111111111111,4,2,1,80,0,0
57801,-111.111111111111,4,2,0,70,0,0
63256,-111.111111111111,4,2,1,80,0,0
65074,-111.111111111111,4,2,0,70,0,0
70519,-111.111111111111,4,2,1,80,0,0
72347,-111.111111111111,4,2,1,70,0,0
79619,-90.9090909090909,4,2,1,70,0,0
83483,-111.111111111111,4,2,1,70,0,0
85405,-111.111111111111,4,2,1,60,0,0
86892,-111.111111111111,4,2,0,80,0,0
88938,-111.111111111111,4,2,1,60,0,0
89619,-111.111111111111,4,2,0,70,0,0
90528,-90.9090909090909,4,2,0,80,0,1
90982,-90.9090909090909,4,2,1,80,0,1
104951,-90.9090909090909,4,2,0,5,0,1
105074,-90.9090909090909,4,2,0,80,0,1
106438,-133.333333333333,4,2,0,80,0,1
106892,-111.111111111111,4,2,1,60,0,0
114165,-111.111111111111,4,2,2,50,0,0
121437,-111.111111111111,4,2,2,70,0,1
121892,-111.111111111111,4,2,1,70,0,1
122119,-90.9090909090909,4,2,1,70,0,1
128710,-90.9090909090909,4,2,2,60,0,0
131892,-90.9090909090909,4,2,2,70,0,0
132347,-111.111111111111,4,2,2,70,0,0
137801,-111.111111111111,4,2,1,80,0,0
139619,-111.111111111111,4,2,0,70,0,0
145065,-111.111111111111,4,2,1,80,0,0
146892,-111.111111111111,4,2,1,70,0,0
154165,-90.9090909090909,4,2,1,70,0,0
158028,-111.111111111111,4,2,1,70,0,0
161437,-111.111111111111,4,2,1,80,0,1
163256,-90.9090909090909,4,2,1,80,0,1
175860,-90.9090909090909,4,2,2,5,0,1
175983,-90.9090909090909,4,2,2,80,0,1
177574,-90.9090909090909,4,2,2,80,0,0
177801,-90.9090909090909,4,2,2,80,0,1
178028,-90.9090909090909,4,2,1,80,0,1
190528,-62.5,4,2,1,80,0,1
195983,-90.9090909090909,4,2,1,80,0,1
196315,-90.9090909090909,4,2,2,5,0,1
196438,-83.3333333333333,4,2,1,80,0,1
196769,-83.3333333333333,4,2,2,5,0,1
196892,-76.9230769230769,4,2,1,80,0,1
197224,-76.9230769230769,4,2,2,5,0,1
197347,-71.4285714285714,4,2,1,80,0,1
197678,-71.4285714285714,4,2,2,5,0,1
197801,-71.4285714285714,4,2,1,80,0,1
198255,-71.4285714285714,4,2,1,80,0,0

[Colours]
Combo1 : 254,215,56
Combo2 : 245,1,38
Combo3 : 254,65,18

[HitObjects]
44,380,5074,22,0,P|0:294|46:231,1,148.5,4|0,2:0|2:0,2:0:0:0:
56,222,5528,2,0,L|156:202,1,99,0|4,2:0|2:0,2:0:0:0:
208,120,5983,2,0,P|211:71|184:20,2,99,0|2|2,2:0|2:0|2:0,2:0:0:0:
504,352,6892,5,2,2:0:0:0:
416,288,7165,2,0,L|416:240,2,39.6000012084961,0|2|0,2:0|2:0|2:0,2:0:0:0:
328,352,7574,1,2,2:0:0:0:
252,288,7801,1,0,2:0:0:0:
176,352,8028,1,2,2:0:0:0:
164,352,8142,1,0,2:0:0:0:
152,352,8256,1,2,2:0:0:0:
468,4,8710,6,0,P|511:89|465:152,1,148.5,4|0,2:0|2:0,2:0:0:0:
456,162,9165,2,0,L|356:182,1,99,0|4,2:0|2:0,2:0:0:0:
304,264,9619,2,0,P|300:312|327:363,2,99,0|2|2,2:0|2:0|2:0,2:0:0:0:
8,32,10528,5,2,2:0:0:0:
84,96,10756,1,0,2:0:0:0:
96,96,10869,1,2,2:0:0:0:
108,96,10983,1,0,2:0:0:0:
184,32,11210,1,2,2:0:0:0:
260,96,11438,1,0,2:0:0:0:
336,32,11665,1,2,1:2:0:0:
348,32,11778,1,0,2:0:0:0:
360,32,11892,1,2,1:2:0:0:
504,332,12347,6,0,P|512:240|456:184,1,148.5,6|0,2:1|2:0,2:0:0:0:
436,176,12801,2,0,P|394:202|345:204,1,99,8|0,2:0|1:0,2:0:0:0:
240,136,13256,1,2,1:0:0:0:
236,264,13483,1,0,2:0:0:0:
236,264,13597,1,0,2:0:0:0:
236,264,13710,1,8,2:0:0:0:
128,196,13938,1,0,2:0:0:0:
48,296,14165,6,0,P|47:345|77:383,1,99,2|0,1:0|2:0,2:0:0:0:
92,384,14506,1,2,2:1:0:0:
104,376,14619,2,0,P|74:337|75:289,1,99,8|2,2:0|1:0,2:0:0:0:
96,164,15074,6,0,L|28:76,1,99,2|0,1:0|2:0,2:0:0:0:
4,48,15415,1,2,2:1:0:0:
4,48,15528,1,8,2:0:0:0:
8,52,15983,6,0,P|0:144|56:200,1,148.5,2|0,1:0|2:0,2:0:0:0:
76,208,16438,2,0,P|117:181|166:179,1,99,8|0,2:0|1:0,2:0:0:0:
272,248,16892,1,2,1:0:0:0:
276,120,17119,1,0,2:0:0:0:
276,120,17233,1,0,2:0:0:0:
276,120,17347,1,8,2:0:0:0:
384,188,17574,1,0,2:0:0:0:
464,88,17801,6,0,P|465:39|435:1,1,99,2|0,1:0|2:0,2:0:0:0:
420,0,18142,1,2,2:1:0:0:
408,8,18256,2,0,P|438:47|437:95,1,99,8|2,2:0|1:0,2:0:0:0:
416,220,18710,6,0,L|484:308,1,99,0|0,1:0|1:0,2:0:0:0:
356,148,19165,1,12,2:0:0:0:
252,376,19619,6,0,P|188:376|144:340,1,99,2|0,2:0|2:0,2:0:0:0:
136,320,19960,1,0,2:0:0:0:
140,276,20074,2,0,L|156:164,1,99,8|2,2:0|2:0,2:0:0:0:
159,358,20528,6,0,P|95:358|51:322,1,99,2|0,2:0|2:0,2:0:0:0:
43,302,20869,1,0,2:0:0:0:
47,258,20983,2,0,L|63:146,1,99,8|2,2:0|2:0,2:0:0:0:
67,340,21438,6,0,P|124:364|178:347,1,99,2|0,2:0|2:0,2:0:0:0:
168,314,21778,1,0,2:0:0:0:
159,358,21892,2,0,P|216:382|270:365,1,99,8|2,2:0|2:0,2:0:0:0:
372,316,22347,6,0,B|380:268|380:268|356:240|356:240|363:191,2,135,2|4|4,2:0|2:0|2:0,2:0:0:0:
260,8,23256,6,0,P|324:8|368:44,1,99,2|0,2:0|2:0,2:0:0:0:
376,64,23597,1,0,2:0:0:0:
372,108,23710,2,0,L|356:220,1,99,8|2,2:0|2:0,2:0:0:0:
353,26,24165,6,0,P|417:26|461:62,1,99,2|0,2:0|2:0,2:0:0:0:
469,82,24506,1,0,2:0:0:0:
465,126,24619,2,0,L|449:238,1,99,8|2,2:0|2:0,2:0:0:0:
445,44,25074,6,0,P|388:20|334:37,1,99,2|0,2:0|2:0,2:0:0:0:
344,70,25415,1,0,2:0:0:0:
353,26,25528,2,0,P|296:2|242:19,1,99,8|2,2:0|2:0,2:0:0:0:
140,68,25983,6,0,B|132:116|132:116|156:144|156:144|148:192,2,135,2|4|4,2:0|2:0|2:0,2:0:0:0:
20,16,26665,1,0,2:0:0:0:
0,144,26892,6,0,P|1:242|51:341,1,198,2|8,2:0|2:0,2:0:0:0:
512,240,27801,2,0,P|510:141|460:42,1,198,2|8,2:0|2:0,2:0:0:0:
372,28,28483,1,0,2:0:0:0:
328,152,28710,6,0,P|281:171|191:153,1,99,2|0,2:0|2:0,2:0:0:0:
188,148,29051,1,2,2:0:0:0:
188,148,29165,1,8,2:0:0:0:
296,252,29392,1,0,2:0:0:0:
264,84,29619,1,0,2:0:0:0:
260,60,29733,1,2,2:0:0:0:
256,36,29847,1,2,2:0:0:0:
360,112,30074,2,0,P|379:158|361:248,1,99,8|2,2:0|2:0,2:0:0:0:
388,332,30528,6,0,P|299:373|200:374,1,198,2|8,2:0|2:0,2:0:0:0:
124,52,31438,2,0,P|212:10|311:9,1,198,2|8,2:0|2:0,2:0:0:0:
352,100,32119,1,0,2:0:0:0:
248,176,32347,6,0,P|250:226|304:300,1,99,2|0,2:0|2:0,2:0:0:0:
310,300,32688,1,2,2:0:0:0:
310,300,32801,1,8,2:0:0:0:
170,246,33028,1,2,2:0:0:0:
335,204,33256,1,0,2:0:0:0:
359,197,33369,1,2,2:0:0:0:
383,191,33483,1,2,2:0:0:0:
270,129,33710,2,0,P|220:131|146:185,1,99,8|2,2:0|2:0,2:0:0:0:
128,324,34165,6,0,P|46:318|-8:232,1,148.5,2|0,2:0|2:0,2:0:0:0:
16,224,34619,2,0,P|19:176|-5:120,2,99,8|0|0,2:0|2:0|2:0,2:0:0:0:
160,240,35301,5,2,2:0:0:0:
168,240,35415,1,2,2:0:0:0:
176,240,35528,1,8,2:0:0:0:
304,180,35756,1,2,2:0:0:0:
384,60,35983,6,0,P|465:65|520:152,1,148.5,2|0,2:0|2:0,2:0:0:0:
496,160,36438,2,0,P|492:207|517:263,2,99,8|0|0,2:0|2:0|2:0,2:0:0:0:
352,144,37119,5,2,2:0:0:0:
344,144,37233,1,2,2:0:0:0:
336,144,37347,1,8,2:0:0:0:
208,204,37574,1,2,2:0:0:0:
128,324,37801,6,0,P|64:244|85:145,1,198,2|8,2:0|2:0,2:0:0:0:
384,60,38710,2,0,P|447:139|426:238,1,198,2|8,2:0|2:0,2:0:0:0:
256,192,39619,1,2,2:0:0:0:
256,192,39733,12,4,41438,2:0:0:0:
204,8,41778,5,0,2:0:0:0:
156,24,41892,1,0,2:0:0:0:
232,152,42119,1,4,2:0:0:0:
364,88,42347,1,4,2:0:0:0:
452,344,43028,5,0,2:0:0:0:
376,296,43256,2,0,L|215:316,1,162,2|8,2:0|2:0,2:0:0:0:
128,308,43938,1,0,2:0:0:0:
124,184,44165,2,0,P|160:204|180:264,1,81.0000000000001,2|0,2:0|2:0,2:0:0:0:
24,260,44619,2,0,L|40:164,1,81.0000000000001,8|0,2:0|2:0,2:0:0:0:
0,68,45074,6,0,P|40:88|144:72,1,121.5,2|0,2:0|2:0,2:0:0:0:
160,96,45528,2,0,P|156:47|168:12,1,81.0000000000001,8|0,2:0|2:0,2:0:0:0:
288,0,45983,2,0,P|308:75|264:141,1,162,2|8,2:0|2:0,2:0:0:0:
188,188,46665,1,0,2:0:0:0:
284,264,46892,6,0,P|339:208|418:214,1,162,2|8,2:0|2:0,2:0:0:0:
496,256,47574,1,0,2:0:0:0:
436,116,47801,2,0,P|472:136|492:196,1,81.0000000000001,2|0,2:0|2:0,2:0:0:0:
336,192,48256,2,0,L|352:96,1,81.0000000000001,8|0,2:0|2:0,2:0:0:0:
264,20,48710,5,4,2:0:0:0:
196,76,48938,1,0,2:0:0:0:
156,92,49051,1,2,2:0:0:0:
116,108,49165,1,0,2:0:0:0:
108,232,49392,1,4,2:0:0:0:
220,288,49619,5,0,2:0:0:0:
192,372,49847,1,2,2:0:0:0:
108,344,50074,1,4,2:0:0:0:
136,260,50301,1,0,2:0:0:0:
192,372,50528,6,0,P|278:353|304:264,1,162,2|8,2:0|2:0,2:0:0:0:
284,204,51210,1,0,2:0:0:0:
368,172,51438,2,0,P|408:196|424:252,1,81.0000000000001,2|0,2:0|2:0,2:0:0:0:
492,320,51892,2,0,L|516:220,1,81.0000000000001,8|0,2:0|2:0,2:0:0:0:
512,112,52347,6,0,P|456:69|344:102,1,162,2|8,2:0|2:0,2:0:0:0:
296,128,53028,1,0,2:0:0:0:
208,136,53256,2,0,P|160:80|160:60,1,81.0000000000001,2|0,2:0|2:0,2:0:0:0:
256,212,53710,2,0,L|248:296,1,81.0000000000001,8|0,2:0|2:0,2:0:0:0:
164,380,54165,5,2,2:0:0:0:
80,348,54392,1,0,2:0:0:0:
60,260,54619,1,8,2:0:0:0:
128,200,54847,1,0,2:0:0:0:
132,112,55074,6,0,B|100:80|100:40|100:40|64:52|23:28,2,162,2|8|4,2:0|2:0|2:0,2:0:0:0:
24,168,56210,1,0,2:0:0:0:
12,212,56324,1,2,2:0:0:0:
0,256,56438,1,0,2:0:0:0:
84,344,56665,1,4,2:0:0:0:
0,384,56892,5,2,2:0:0:0:
200,248,57347,1,4,2:0:0:0:
184,208,57460,1,2,2:0:0:0:
168,168,57574,1,0,2:0:0:0:
152,128,57688,1,0,2:0:0:0:
136,88,57801,6,0,L|297:68,1,162,2|8,2:0|2:0,2:0:0:0:
384,76,58483,1,0,2:0:0:0:
388,200,58710,2,0,P|352:180|332:120,1,81.0000000000001,2|0,2:0|2:0,2:0:0:0:
488,124,59165,2,0,L|472:220,1,81.0000000000001,8|0,2:0|2:0,2:0:0:0:
504,292,59619,5,2,2:0:0:0:
444,356,59847,1,0,2:0:0:0:
416,272,60074,2,0,P|377:258|337:261,1,81.0000000000001,8|0,2:0|2:0,2:0:0:0:
232,360,60528,2,0,P|212:285|256:219,1,162,2|8,2:0|2:0,2:0:0:0:
332,172,61210,1,0,2:0:0:0:
240,96,61438,6,0,P|185:150|105:145,1,162,2|8,2:0|2:0,2:0:0:0:
27,103,62119,1,0,2:0:0:0:
60,224,62347,2,0,P|49:282|3:321,2,121.5,2|2|0,2:0|2:0|2:0,2:0:0:0:
160,304,63256,5,4,2:0:0:0:
216,236,63483,1,0,2:0:0:0:
232,196,63597,1,2,2:0:0:0:
248,156,63710,1,0,2:0:0:0:
372,148,63938,1,4,2:0:0:0:
428,260,64165,5,0,2:0:0:0:
512,232,64392,1,2,2:0:0:0:
484,148,64619,1,4,2:0:0:0:
400,176,64847,1,0,2:0:0:0:
512,232,65074,6,0,P|493:318|404:344,1,162,4|8,2:0|2:0,2:0:0:0:
348,320,65756,1,0,2:0:0:0:
347,231,65983,2,0,P|371:191|427:175,1,81.0000000000001,2|0,2:0|2:0,2:0:0:0:
340,72,66438,2,0,L|240:48,1,81.0000000000001,8|0,2:0|2:0,2:0:0:0:
140,48,66892,6,0,P|159:134|248:160,1,162,2|8,2:0|2:0,2:0:0:0:
252,248,67574,1,0,2:0:0:0:
168,280,67801,2,0,P|112:328|92:328,1,81.0000000000001,2|0,2:0|2:0,2:0:0:0:
4,268,68256,2,0,L|12:184,1,81.0000000000001,8|0,2:0|2:0,2:0:0:0:
12,24,68710,5,2,2:0:0:0:
49,105,68938,1,0,2:0:0:0:
138,119,69165,1,8,2:0:0:0:
194,47,69392,1,0,2:0:0:0:
281,37,69619,6,0,B|315:66|355:63|355:63|345:100|372:139,2,162,2|8|4,2:0|2:0|2:0,2:0:0:0:
233,148,70756,1,0,2:0:0:0:
190,163,70869,1,2,2:0:0:0:
147,178,70983,1,0,2:0:0:0:
57,97,71210,1,4,2:0:0:0:
8,172,71438,5,0,2:0:0:0:
72,232,71665,1,2,2:0:0:0:
23,307,71892,1,4,2:0:0:0:
128,368,72119,1,0,2:0:0:0:
144,328,72233,1,2,2:0:0:0:
160,288,72347,5,2,2:0:0:0:
264,332,72574,1,2,2:0:0:0:
276,328,72688,1,2,2:0:0:0:
288,324,72801,1,8,2:0:0:0:
344,224,73028,1,2,2:0:0:0:
448,268,73256,2,0,B|448:244|448:244|464:232|464:232|460:168|504:108,1,162,2|8,2:0|2:0,2:0:0:0:
376,104,73938,1,0,2:0:0:0:
364,100,74051,1,0,2:0:0:0:
352,96,74165,5,2,2:0:0:0:
248,52,74392,1,2,2:0:0:0:
236,56,74506,1,2,2:0:0:0:
224,60,74619,1,8,2:0:0:0:
168,160,74847,1,2,2:0:0:0:
64,116,75074,2,0,B|64:140|64:140|48:152|48:152|52:216|8:276,1,162,2|8,2:0|2:0,2:0:0:0:
136,280,75756,1,0,2:0:0:0:
240,356,75983,5,2,2:0:0:0:
328,272,76210,2,0,L|335:311,2,40.5,0|0|8,2:0|2:0|2:0,2:0:0:0:
208,244,76665,1,2,2:0:0:0:
288,152,76892,2,0,P|300:81|268:0,2,162,2|8|2,2:0|2:0|2:0,2:0:0:0:
432,152,78028,5,2,2:0:0:0:
428,164,78142,1,2,2:0:0:0:
424,176,78256,1,8,2:0:0:0:
324,232,78483,1,2,2:0:0:0:
368,336,78710,2,0,B|344:336|344:336|332:352|332:352|268:348|208:392,1,162,2|8,2:0|2:0,2:0:0:0:
152,276,79392,1,0,2:0:0:0:
152,276,79506,1,0,2:0:0:0:
152,276,79619,6,0,P|119:187|183:80,1,198,2|8,2:0|2:0,2:0:0:0:
262,72,80301,1,0,2:0:0:0:
360,108,80528,2,0,P|392:196|328:303,1,198,2|8,2:0|2:0,2:0:0:0:
250,312,81210,1,0,2:0:0:0:
165,194,81438,6,0,B|221:222|221:222|250:302|250:302|288:225|288:225|347:203|347:203,1,297,2|2,2:0|2:0,2:0:0:0:
347,190,82347,2,0,B|290:161|290:161|261:81|261:81|223:158|223:158|164:180|164:180,1,297,2|2,2:0|2:0,2:0:0:0:
152,184,83142,1,0,2:0:0:0:
152,184,83256,5,0,2:0:0:0:
36,144,83483,2,0,P|27:104|25:64,1,81.0000000000001,2|8,2:0|2:0,2:0:0:0:
128,0,83938,1,0,2:0:0:0:
244,32,84165,1,0,2:0:0:0:
244,32,84392,2,0,P|264:84|236:196,1,162,2|2,2:0|2:0,2:0:0:0:
232,308,85074,6,0,P|172:304|104:332,1,121.5,2|0,2:0|2:0,2:0:0:0:
140,364,85528,2,0,P|175:351|219:352,1,81.0000000000001,0|0,2:0|2:0,2:0:0:0:
340,360,85983,2,0,P|352:324|351:280,2,81.0000000000001,0|2|2,2:0|2:0|2:0,2:0:0:0:
448,192,86892,5,2,2:0:0:0:
256,0,87347,1,2,2:0:0:0:
64,192,87801,1,2,2:0:0:0:
256,384,88256,1,2,2:0:0:0:
306,205,88710,5,4,2:0:0:0:
219,228,88938,1,0,2:0:0:0:
219,228,89051,1,0,2:0:0:0:
219,228,89165,1,0,2:0:0:0:
242,141,89392,1,0,2:0:0:0:
356,218,89619,5,4,2:0:0:0:
182,264,89847,1,4,1:2:0:0:
228,90,90074,1,4,1:2:0:0:
256,192,90301,5,0,1:2:0:0:
120,156,90528,6,0,P|78:244|77:343,1,198,4|8,3:1|2:0,2:0:0:0:
392,228,91438,2,0,P|433:139|434:40,1,198,2|8,2:0|2:0,2:0:0:0:
340,8,92119,1,0,2:0:0:0:
264,72,92347,6,0,P|214:72|169:53,1,99,4|0,3:1|2:0,2:0:0:0:
140,16,92688,1,2,2:0:0:0:
140,16,92801,1,8,2:0:0:0:
192,160,93028,1,0,2:0:0:0:
96,276,93256,6,0,P|95:325|114:370,1,99,2|0,2:0|2:0,2:0:0:0:
348,284,93710,2,0,P|348:234|329:189,1,99,8|0,2:0|2:0,2:0:0:0:
196,264,94165,6,0,P|97:262|8:221,1,198,2|8,1:2|2:0,2:0:0:0:
316,120,95074,2,0,P|414:121|503:162,1,198,2|8,2:0|2:0,2:0:0:0:
508,260,95756,1,0,2:0:0:0:
396,232,95983,6,0,P|377:277|377:326,1,99,2|0,1:2|2:0,2:0:0:0:
420,356,96324,1,2,2:0:0:0:
420,356,96438,1,8,2:0:0:0:
292,280,96665,1,0,2:0:0:0:
176,376,96892,6,0,P|126:376|81:357,1,99,2|0,2:0|2:0,2:0:0:0:
168,124,97347,2,0,P|217:123|262:142,1,99,8|0,2:0|2:0,2:0:0:0:
396,232,97801,6,0,P|445:178|447:106,1,148.5,2|0,1:2|2:0,2:0:0:0:
428,60,98256,2,0,P|379:61|334:42,2,99,8|0|2,2:0|2:0|2:0,2:0:0:0:
262,142,98938,5,2,2:0:0:0:
262,134,99051,1,2,2:0:0:0:
262,126,99165,1,8,2:0:0:0:
220,268,99392,1,2,2:0:0:0:
116,152,99619,6,0,P|66:205|64:277,1,148.5,2|0,2:0|2:0,2:0:0:0:
84,324,100074,2,0,P|133:323|178:342,2,99,8|0|2,2:0|2:0|2:0,2:0:0:0:
250,242,100756,5,2,2:0:0:0:
250,250,100869,1,2,2:0:0:0:
250,258,100983,1,8,2:0:0:0:
292,116,101210,1,2,2:0:0:0:
396,232,101438,6,0,P|445:178|416:32,1,198,2|8,1:2|2:0,2:0:0:0:
116,152,102347,2,0,P|67:206|96:352,1,198,2|8,2:0|2:0,2:0:0:0:
220,336,103028,1,0,2:0:0:0:
357,280,103256,6,0,P|328:78|286:323,1,742.5,2|0,1:2|2:0,2:0:0:0:
246,253,105074,6,0,P|273:243|301:241,1,49.5,2|2,2:0|2:0,2:0:0:0:
243,244,105301,2,0,P|270:234|298:232,1,49.5,2|0,2:0|2:0,2:0:0:0:
317,202,105528,6,0,P|307:174|305:146,1,49.5,2|2,2:0|2:0,2:0:0:0:
308,205,105756,2,0,P|298:177|296:149,1,49.5,2|0,2:0|2:0,2:0:0:0:
266,131,105983,6,0,P|238:140|210:142,1,49.5,2|2,1:2|2:0,2:0:0:0:
269,140,106210,2,0,P|241:149|213:151,1,49.5,2|0,1:2|2:0,2:0:0:0:
196,172,106438,6,0,P|207:205|209:239,1,67.5000000000002,4|0,1:2|2:0,2:0:0:0:
48,260,106892,6,0,L|56:168,1,81.0000000000001,2|0,2:0|2:0,2:0:0:0:
60,136,107233,1,0,2:0:0:0:
60,136,107347,1,0,2:0:0:0:
132,276,107574,1,0,2:0:0:0:
132,276,108028,1,8,2:3:0:0:
232,208,108256,6,0,P|228:284|248:328,1,121.5,8|0,2:3|2:0,2:0:0:0:
280,352,108710,5,0,3:0:0:0:
396,312,108938,1,0,3:0:0:0:
384,192,109165,1,8,3:0:0:0:
232,32,109619,5,0,3:0:0:0:
116,72,109847,1,0,3:0:0:0:
128,192,110074,1,8,3:0:0:0:
384,76,110528,6,0,L|476:84,1,81.0000000000001,0|0,3:0|2:0,2:0:0:0:
508,88,110869,1,2,2:0:0:0:
508,88,110983,1,2,2:0:0:0:
432,184,111210,2,0,P|339:184|280:120,1,162,8|8,3:0|3:0,2:0:0:0:
308,260,111892,2,0,P|292:334|261:371,1,121.5,4|0,3:0|2:0,2:0:0:0:
220,380,112347,5,0,2:0:0:0:
184,352,112460,1,2,2:0:0:0:
140,364,112574,1,2,2:0:0:0:
104,336,112688,1,2,2:0:0:0:
60,348,112801,1,0,2:0:0:0:
121,242,113028,5,0,2:0:0:0:
128,222,113142,1,2,2:0:0:0:
131,200,113256,1,0,2:0:0:0:
129,179,113369,1,2,2:0:0:0:
123,158,113483,1,0,2:0:0:0:
112,139,113597,1,2,2:0:0:0:
98,122,113710,2,0,L|48:112,3,40.5,0|0|0|0,2:0|2:0|2:0|2:0,2:0:0:0:
16,104,114165,6,0,L|28:12,2,81.0000000000001,4|4|0,2:3|2:3|2:0,2:0:0:0:
60,348,115074,1,4,2:3:0:0:
120,284,115301,2,0,P|156:268|216:264,1,81.0000000000001,4|4,2:3|2:0,2:0:0:0:
496,280,115983,6,0,L|484:372,2,81.0000000000001,4|4|4,2:3|2:3|2:0,2:0:0:0:
452,36,116892,1,4,2:3:0:0:
392,100,117119,2,0,P|356:116|296:120,1,81.0000000000001,4|4,2:3|2:0,2:0:0:0:
16,104,117801,5,4,2:3:0:0:
104,108,118028,1,4,2:3:0:0:
112,196,118256,1,0,2:0:0:0:
192,288,118483,2,0,P|245:254|268:200,1,121.5,4|0,2:0|2:0,2:0:0:0:
236,172,118938,2,0,L|228:72,1,81.0000000000001,4|0,2:0|2:0,2:0:0:0:
344,132,119392,1,4,2:0:0:0:
371,250,119619,6,0,P|363:260|352:268,5,27,2|0|2|0|2|0,2:0|2:0|2:0|2:0|2:0|2:0,2:0:0:0:
320,304,120074,2,0,P|301:311|283:310,5,27,0|2|0|2|0|2,2:0|2:0|2:0|2:0|2:0|2:0,2:0:0:0:
256,336,120528,2,0,P|237:329|219:330,5,27,0|2|0|2|0|2,2:0|2:0|2:0|2:0|2:0|2:0,2:0:0:0:
188,308,120983,2,0,P|169:315|151:314,5,27,0|2|0|2|0|2,2:0|2:0|2:0|2:0|2:0|2:0,2:0:0:0:
120,340,121438,5,6,3:1:0:0:
12,248,121665,1,0,1:0:0:0:
28,200,121778,1,0,1:0:0:0:
44,152,121892,1,10,2:1:0:0:
184,180,122119,2,0,P|201:80|149:1,1,198,0|0,1:0|1:0,2:0:0:0:
4,124,122801,2,0,L|116:104,1,99,10|0,1:0|1:0,2:0:0:0:
240,100,123256,6,0,P|272:132|280:188,1,99,2|0,1:0|1:0,2:0:0:0:
256,228,123597,1,2,1:0:0:0:
228,272,123710,2,0,L|356:256,1,99,8|2,1:0|1:0,2:0:0:0:
472,280,124165,2,0,P|464:328|431:363,2,99,2|4|4,1:0|2:0|2:0,2:0:0:0:
392,44,125074,5,2,1:0:0:0:
500,136,125301,1,0,1:0:0:0:
484,184,125415,1,0,1:0:0:0:
468,232,125528,1,10,2:1:0:0:
328,204,125756,2,0,P|311:304|363:383,1,198,0|0,1:0|1:0,2:0:0:0:
508,260,126438,2,0,L|396:280,1,99,10|0,1:0|1:0,2:0:0:0:
272,284,126892,6,0,P|240:252|232:196,1,99,2|0,1:0|1:0,2:0:0:0:
256,156,127233,1,2,1:0:0:0:
284,112,127347,2,0,L|156:128,1,99,8|0,2:1|1:0,2:0:0:0:
84,232,127801,2,0,P|36:224|1:191,2,99,0|4|4,1:0|2:0|2:0,2:0:0:0:
344,368,128710,5,4,2:3:0:0:
344,368,128938,1,4,2:3:0:0:
372,240,129165,1,0,3:0:0:0:
432,352,129619,5,4,2:3:0:0:
432,352,129847,1,4,2:3:0:0:
460,224,130074,1,0,3:0:0:0:
304,64,130528,5,4,2:3:0:0:
304,64,130756,1,4,2:3:0:0:
276,192,130983,1,0,3:0:0:0:
216,80,131210,5,4,2:3:0:0:
216,80,131438,1,4,2:3:0:0:
216,80,131665,1,4,2:3:0:0:
188,208,131892,2,0,L|227:210,4,39.6000012084961,2|2|0|2|2,2:0|2:0|2:0|2:0|2:0,2:0:0:0:
152,236,132347,6,0,B|108:248|92:284|92:284|64:256|16:256,1,162,2|8,2:0|2:0,2:0:0:0:
76,172,133028,1,0,2:0:0:0:
64,84,133256,2,0,P|44:49|9:30,1,81.0000000000001,2|0,2:0|2:0,2:0:0:0:
76,172,133710,2,0,P|55:206|56:246,1,81.0000000000001,8|0,2:0|2:0,2:0:0:0:
152,116,134165,5,2,2:0:0:0:
268,16,134392,1,0,2:0:0:0:
320,92,134619,2,0,P|281:106|241:103,1,81.0000000000001,8|0,2:0|2:0,2:0:0:0:
412,84,135074,2,0,P|456:149|436:225,1,162,2|8,2:0|2:0,2:0:0:0:
356,264,135756,1,0,2:0:0:0:
292,364,135983,6,0,P|237:310|157:315,1,162,2|8,2:0|2:0,2:0:0:0:
80,364,136665,1,0,2:0:0:0:
32,252,136892,5,2,2:0:0:0:
92,188,137119,1,0,2:0:0:0:
60,104,137347,1,8,2:0:0:0:
0,172,137574,1,0,2:0:0:0:
160,80,137801,5,4,2:0:0:0:
216,148,138028,1,0,2:0:0:0:
232,188,138142,1,2,2:0:0:0:
248,228,138256,1,0,2:0:0:0:
372,236,138483,1,4,2:0:0:0:
428,124,138710,5,0,2:0:0:0:
512,152,138938,1,2,2:0:0:0:
484,236,139165,1,4,2:0:0:0:
400,208,139392,1,0,2:0:0:0:
496,68,139619,6,0,P|413:37|343:97,1,162,4|8,2:0|2:0,2:0:0:0:
328,156,140301,1,0,2:0:0:0:
266,298,140528,2,0,P|301:279|320:244,1,81.0000000000001,2|0,2:0|2:0,2:0:0:0:
240,152,140983,2,0,L|216:52,1,81.0000000000001,8|0,2:0|2:0,2:0:0:0:
112,12,141438,5,2,2:0:0:0:
60,84,141665,1,0,2:0:0:0:
128,144,141892,1,8,2:0:0:0:
76,216,142119,1,0,2:0:0:0:
112,348,142347,2,0,P|89:315|52:300,1,81.0000000000001,2|0,2:0|2:0,2:0:0:0:
8,308,142688,1,2,2:0:0:0:
8,308,142801,2,0,L|0:228,1,81.0000000000001,8|0,2:0|2:0,2:0:0:0:
83,71,143256,5,2,2:0:0:0:
209,166,143483,1,0,2:0:0:0:
120,152,143710,1,8,2:0:0:0:
265,94,143938,1,0,2:0:0:0:
352,84,144165,6,0,B|386:113|426:110|426:110|416:147|443:186,2,162,2|8|4,2:0|2:0|2:0,2:0:0:0:
304,195,145301,1,0,2:0:0:0:
261,210,145415,1,2,2:0:0:0:
218,225,145528,1,0,2:0:0:0:
132,140,145756,1,4,2:0:0:0:
83,215,145983,5,0,2:0:0:0:
147,275,146210,1,2,2:0:0:0:
100,384,146438,1,4,2:0:0:0:
32,284,146665,1,0,2:0:0:0:
44,240,146778,1,2,2:0:0:0:
83,215,146892,5,2,2:0:0:0:
176,136,147119,1,2,2:0:0:0:
188,140,147233,1,2,2:0:0:0:
200,144,147347,1,8,2:0:0:0:
168,12,147574,1,2,2:0:0:0:
288,48,147801,2,0,B|288:72|288:72|304:84|304:84|300:148|344:208,1,162,2|8,2:0|2:0,2:0:0:0:
480,100,148483,1,0,2:0:0:0:
468,144,148597,1,2,2:0:0:0:
429,169,148710,5,2,2:0:0:0:
336,248,148938,1,2,2:0:0:0:
324,244,149051,1,2,2:0:0:0:
312,240,149165,1,8,2:0:0:0:
344,372,149392,1,2,2:0:0:0:
224,336,149619,2,0,B|224:312|224:312|208:300|208:300|212:236|168:176,1,162,2|8,2:0|2:0,2:0:0:0:
32,284,150301,1,0,2:0:0:0:
44,240,150415,1,2,2:0:0:0:
83,215,150528,5,2,2:0:0:0:
96,96,150756,2,0,P|90:72|76:52,2,40.5,0|0|8,2:0|2:0|2:0,2:0:0:0:
196,168,151210,1,0,2:0:0:0:
209,49,151438,2,0,P|280:55|350:107,2,162,0|8|2,2:0|2:0|2:0,2:0:0:0:
196,168,152574,5,2,2:0:0:0:
206,165,152688,1,2,2:0:0:0:
218,161,152801,1,8,2:0:0:0:
204,280,153028,1,2,2:0:0:0:
296,360,153256,2,0,B|294:336|294:336|309:324|309:324|303:260|345:198,1,162,2|8,2:0|2:0,2:0:0:0:
340,88,153938,1,0,2:0:0:0:
340,88,154051,1,0,2:0:0:0:
340,88,154165,6,0,P|251:55|144:119,1,198,2|8,2:0|2:0,2:0:0:0:
136,198,154847,1,0,2:0:0:0:
172,296,155074,2,0,P|260:328|367:264,1,198,2|8,2:0|2:0,2:0:0:0:
376,186,155756,1,0,2:0:0:0:
258,101,155983,6,0,B|286:157|286:157|366:186|366:186|289:224|289:224|267:283|267:283,1,297,2|2,2:0|2:0,2:0:0:0:
254,283,156892,2,0,B|225:226|225:226|145:197|145:197|222:159|222:159|244:100|244:100,1,297,2|2,2:0|2:0,2:0:0:0:
248,88,157688,1,0,2:0:0:0:
248,88,157801,5,0,2:0:0:0:
352,148,158028,2,0,P|392:139|432:137,1,81.0000000000001,2|8,2:0|2:0,2:0:0:0:
408,252,158483,1,0,2:0:0:0:
496,340,158710,1,0,2:0:0:0:
496,340,158938,2,0,P|441:325|333:367,1,162,2|2,2:0|2:0,2:0:0:0:
244,272,159619,5,4,2:0:0:0:
256,192,159733,12,0,161210,2:0:0:0:
448,192,161438,5,6,3:1:0:0:
256,384,161892,1,8,2:0:0:0:
64,192,162347,1,2,2:0:0:0:
256,0,162801,1,8,2:0:0:0:
320,96,163028,1,0,2:0:0:0:
256,192,163256,6,0,P|188:180|136:112,1,148.5,4|2,3:1|2:0,2:0:0:0:
104,24,163710,2,0,P|141:65|149:109,1,99,8|4,2:0|2:0,2:0:0:0:
64,272,164165,2,0,P|26:313|18:357,1,99,2|0,2:0|2:0,2:0:0:0:
240,356,164619,2,0,P|295:358|334:336,1,99,4|0,2:0|2:0,2:0:0:0:
448,192,165074,5,6,3:1:0:0:
256,0,165528,1,8,2:0:0:0:
64,192,165983,1,2,2:0:0:0:
256,384,166438,1,8,2:0:0:0:
320,288,166665,1,2,2:0:0:0:
256,192,166892,6,0,P|197:202|152:260,1,99,4|0,3:1|2:0,2:0:0:0:
156,276,167233,1,2,2:0:0:0:
156,276,167347,1,8,2:0:0:0:
76,216,167574,1,4,2:0:0:0:
132,76,167801,1,2,2:0:0:0:
52,16,168028,1,0,2:0:0:0:
0,160,168256,2,0,P|39:189|87:194,1,99,4|0,2:0|2:0,2:0:0:0:
216,56,168710,6,0,P|270:7|342:5,1,148.5,2|0,1:2|2:0,2:0:0:0:
388,24,169165,2,0,P|387:73|406:118,1,99,8|4,2:0|2:0,2:0:0:0:
440,252,169619,1,2,2:0:0:0:
306,186,169847,5,2,2:0:0:0:
314,186,169960,1,2,2:0:0:0:
322,186,170074,1,8,2:0:0:0:
180,228,170301,1,2,2:0:0:0:
296,328,170528,6,0,P|243:378|171:380,1,148.5,2|0,1:2|2:0,2:0:0:0:
124,360,170983,2,0,P|125:311|106:266,1,99,8|4,2:0|2:0,2:0:0:0:
72,132,171438,1,2,2:0:0:0:
206,198,171665,5,2,2:0:0:0:
198,198,171778,1,2,2:0:0:0:
190,198,171892,1,8,2:0:0:0:
324,140,172119,1,2,2:0:0:0:
444,200,172347,5,2,1:0:0:0:
248,380,172801,1,8,2:0:0:0:
68,184,173256,1,2,2:0:0:0:
264,4,173710,1,8,2:0:0:0:
304,148,173938,1,0,2:0:0:0:
344,293,174165,6,0,P|142:264|387:222,1,742.5,2|0,1:2|2:0,2:0:0:0:
312,168,175983,5,4,1:0:0:0:
301,190,176097,1,2,2:0:0:0:
295,214,176210,1,0,2:0:0:0:
293,239,176324,1,2,2:0:0:0:
280,248,176438,5,2,1:2:0:0:
257,237,176551,1,2,2:0:0:0:
233,231,176665,1,0,2:0:0:0:
208,229,176778,1,2,2:0:0:0:
200,216,176892,5,2,1:2:0:0:
210,193,177006,1,2,2:0:0:0:
216,169,177119,1,0,1:0:0:0:
218,144,177233,1,2,2:0:0:0:
246,131,177347,6,0,P|273:140|301:142,1,49.5,4|0,1:2|2:0,2:0:0:0:
364,96,177574,2,0,P|373:69|375:41,1,49.5,2|2,2:0|2:0,2:0:0:0:
436,136,177801,6,0,P|435:185|444:260,1,99,4|0,3:1|2:0,2:0:0:0:
312,372,178256,2,0,P|262:371|188:380,1,99,8|0,2:0|2:0,2:0:0:0:
76,248,178710,2,0,P|76:198|68:124,1,99,2|0,1:2|2:0,2:0:0:0:
200,12,179165,1,8,2:0:0:0:
249,11,179278,1,0,2:0:0:0:
298,7,179392,1,2,1:2:0:0:
256,192,179619,6,0,B|220:184|220:184|208:212|208:212|182:206|182:206|152:256|93:246,1,198,6|8,3:1|2:0,2:0:0:0:
84,108,180301,1,0,1:0:0:0:
184,248,180528,2,0,P|168:304|112:332,1,99,2|0,1:0|2:0,2:0:0:0:
100,360,180869,1,0,2:0:0:0:
100,360,180983,2,0,L|-4:352,1,99,8|2,2:0|2:1,2:0:0:0:
72,149,181438,6,0,P|76:198|76:248,1,99,4|0,3:1|2:0,2:0:0:0:
298,8,181892,2,0,P|249:13|200:12,1,99,8|0,2:0|2:0,2:0:0:0:
440,234,182347,2,0,P|435:185|436:136,1,99,2|0,1:2|2:0,2:0:0:0:
213,376,182801,1,8,2:0:0:0:
262,372,182915,1,0,2:0:0:0:
312,372,183028,1,2,1:2:0:0:
256,192,183256,6,0,B|292:200|292:200|304:172|304:172|330:178|330:178|360:128|419:138,1,198,6|8,3:1|2:0,2:0:0:0:
428,276,183938,1,0,1:0:0:0:
304,332,184165,2,0,P|248:316|220:260,1,99,2|0,1:0|2:0,2:0:0:0:
208,52,184619,1,8,2:0:0:0:
255,62,184733,1,0,2:0:0:0:
286,99,184847,1,0,1:0:0:0:
396,232,185074,6,0,P|445:178|447:106,1,148.5,2|0,1:0|2:0,2:0:0:0:
428,60,185528,2,0,P|379:61|334:42,1,99,8|4,2:0|1:2,2:0:0:0:
196,8,185983,1,2,1:0:0:0:
262,142,186210,5,2,2:0:0:0:
262,134,186324,1,2,2:0:0:0:
262,126,186438,1,8,2:0:0:0:
220,268,186665,1,2,2:0:0:0:
116,152,186892,6,0,P|66:205|64:277,1,148.5,2|0,1:0|2:0,2:0:0:0:
84,324,187347,2,0,P|133:323|178:342,1,99,8|4,2:0|1:2,2:0:0:0:
316,376,187801,1,2,1:0:0:0:
250,242,188028,5,2,2:0:0:0:
250,250,188142,1,2,2:0:0:0:
250,258,188256,1,8,2:0:0:0:
308,124,188483,1,2,2:0:0:0:
248,4,188710,5,2,1:0:0:0:
68,200,189165,1,8,2:0:0:0:
264,380,189619,1,2,1:0:0:0:
444,184,190074,1,8,2:0:0:0:
226,153,190528,6,2,B|100:0|15:55|10:155|208:187|208:187|137:162|106:228|161:268|216:213|216:213|56:340|115:425|218:433|249:230|249:230|229:306|291:335|333:274|276:225|276:225|403:385|488:325|496:222|294:191|294:191|366:216|397:149|341:109|286:164|286:164|447:36|389:-40|286:-48|253:145|253:145|274:71|213:43|171:104|227:153,1,2304,4|4,3:1|2:0,2:0:0:0:
156,188,194392,5,2,2:0:0:0:
116,168,194506,1,0,2:0:0:0:
80,196,194619,1,0,2:0:0:0:
128,324,194847,1,2,2:0:0:0:
240,224,195074,1,4,2:0:0:0:
316,356,195301,5,0,2:0:0:0:
292,308,195415,1,2,2:0:0:0:
328,268,195528,1,4,2:0:0:0:
464,332,195756,1,2,2:0:0:0:
408,224,195983,6,0,B|384:200|386:167|386:167|410:126|410:126|392:64,1,148.5,4|0,2:0|2:0,2:0:0:0:
316,32,196438,6,0,B|289:58|253:55|253:55|208:29|208:29|139:49,1,162,4|0,2:0|2:0,2:0:0:0:
100,116,196892,6,0,B|128:144|126:183|126:183|97:232|97:232|119:308,1,175.5,4|0,2:0|2:0,2:0:0:0:
196,340,197347,6,0,B|229:306|275:309|275:309|332:343|332:343|419:317,1,189,4|0,2:0|2:0,2:0:0:0:
344,252,197801,5,4,2:0:0:0:
263,85,198028,1,4,2:0:0:0:
153,222,198256,1,4,2:0:0:0:
