osu file format v14

[General]
AudioFilename: audio.mp3
AudioLeadIn: 0
PreviewTime: 76479
Countdown: 0
SampleSet: Normal
StackLeniency: 0.7
Mode: 1
LetterboxInBreaks: 0
WidescreenStoryboard: 0

[Editor]
DistanceSpacing: 0.9
BeatDivisor: 6
GridSize: 32
TimelineZoom: 2.999999

[Metadata]
Title:WAVE OF SYNERGY
TitleUnicode:WAVE OF SYNERGY
Artist:Andy James & Angel Vivaldi
ArtistUnicode:Andy James & Angel Vivaldi
Creator:frukoyurdakul
Version:SYNC
Source:
Tags:marathon stream metal
BeatmapID:1423622
BeatmapSetID:672972

[Difficulty]
HPDrainRate:5
CircleSize:2
OverallDifficulty:6.5
ApproachRate:10
SliderMultiplier:1.4
SliderTickRate:1

[Events]
//Background and Video events
0,0,"BG.jpg",0,-25
//Break Periods
//Storyboard Layer 0 (Background)
//Storyboard Layer 1 (Fail)
//Storyboard Layer 2 (Pass)
//Storyboard Layer 3 (Foreground)
//Storyboard Sound Samples

[TimingPoints]
1573,375,4,1,0,10,1,0
1948,-100,4,1,0,12,0,0
2323,-100,4,1,0,14,0,0
2698,-100,4,1,0,16,0,0
3073,-95.2380952380952,4,1,0,18,0,0
3448,-95.2380952380952,4,1,0,20,0,0
3823,-95.2380952380952,4,1,0,22,0,0
4198,-95.2380952380952,4,1,0,24,0,0
4573,-90.9090909090909,4,1,0,26,0,0
4948,-90.9090909090909,4,1,0,27,0,0
5323,-90.9090909090909,4,1,0,29,0,0
5698,-90.9090909090909,4,1,0,31,0,0
6073,-86.9565217391304,4,1,0,33,0,0
6448,-86.9565217391304,4,1,0,35,0,0
6823,-86.9565217391304,4,1,0,37,0,0
7198,-86.9565217391304,4,1,0,39,0,0
7573,-83.3333333333333,4,1,0,41,0,0
7948,-83.3333333333333,4,1,0,43,0,0
8323,-83.3333333333333,4,1,0,45,0,0
8698,-83.3333333333333,4,1,0,47,0,0
9073,-80,4,1,0,49,0,0
9448,-80,4,1,0,51,0,0
9823,-80,4,1,0,53,0,0
10198,-80,4,1,0,55,0,0
10573,-76.9230769230769,4,1,0,56,0,0
10948,-76.9230769230769,4,1,0,58,0,0
11323,-76.9230769230769,4,1,0,60,0,0
11698,-76.9230769230769,4,1,0,62,0,0
12073,-71.4285714285714,4,1,0,64,0,0
12448,-71.4285714285714,4,1,0,66,0,0
12823,-71.4285714285714,4,1,0,68,0,0
13198,-71.4285714285714,4,1,0,70,0,0
13573,-66.6666666666667,4,1,0,90,0,0
25666,-71.4285714285714,4,1,0,70,0,0
25854,-74.0740740740741,4,1,0,70,0,0
25948,-76.9230769230769,4,1,0,70,0,0
26135,-83.3333333333333,4,1,0,70,0,0
26229,-66.6666666666667,4,1,0,90,0,0
49760,-133.333333333333,4,1,0,70,0,0
55291,-100,4,1,0,75,0,0
55760,-133.333333333333,4,1,0,70,0,0
59791,-100,4,1,0,75,0,0
60823,-125,4,1,0,75,0,0
61385,-111.111111111111,4,1,0,75,0,0
70198,-105.263157894737,4,1,0,75,0,0
70573,-100,4,1,0,75,0,0
73666,-100,4,1,0,25,0,0
75448,-100,4,1,0,32,0,0
75541,-100,4,1,0,39,0,0
75635,-100,4,1,0,46,0,0
75729,-100,4,1,0,53,0,0
75823,-100,4,1,0,60,0,0
75916,-100,4,1,0,67,0,0
76010,-100,4,1,0,73,0,0
76104,-80,4,1,0,100,0,0
76385,-100,4,1,0,80,0,0
76573,-100,4,1,0,85,0,1
88198,-102.040816326531,4,1,0,85,0,1
88291,-104.166666666667,4,1,0,85,0,1
88385,-106.382978723404,4,1,0,85,0,1
88479,-108.695652173913,4,1,0,85,0,1
88573,-111.111111111111,4,1,0,85,0,1
100573,-111.111111111111,4,1,0,40,0,0
100760,-166.666666666667,4,1,0,40,0,0
102260,-142.857142857143,4,1,0,50,0,0
102729,-111.111111111111,4,1,0,60,0,0
103104,-83.3333333333333,4,1,0,70,0,0
103479,-66.6666666666667,4,1,0,80,0,0
115666,-71.4285714285714,4,1,0,40,0,0
115807,-74.0740740740741,4,1,0,45,0,0
115901,-76.9230769230769,4,1,0,50,0,0
115994,-80,4,1,0,55,0,0
116088,-83.3333333333333,4,1,0,60,0,0
116229,-66.6666666666667,4,1,0,80,0,0
138916,-66.2251655629139,4,1,0,80,0,0
139010,-65.359477124183,4,1,0,80,0,0
139104,-64.1025641025641,4,1,0,80,0,0
139198,-62.5,4,1,0,80,0,0
139291,-60.6060606060606,4,1,0,80,0,0
139385,-58.4795321637427,4,1,0,80,0,0
139479,-56.1797752808989,4,1,0,80,0,0
139573,-54.054054054054,4,1,0,80,0,0
139666,-25,4,1,0,20,0,0
140979,-133.333333333333,4,1,0,20,0,0
141260,-133.333333333333,4,1,0,22,0,0
141541,-133.333333333333,4,1,0,25,0,0
141729,-133.333333333333,4,1,0,27,0,0
142010,-133.333333333333,4,1,0,30,0,0
142291,-133.333333333333,4,1,0,33,0,0
142479,-133.333333333333,4,1,0,36,0,0
142760,-133.333333333333,4,1,0,40,0,0
143041,-133.333333333333,4,1,0,44,0,0
143229,-133.333333333333,4,1,0,48,0,0
143510,-133.333333333333,4,1,0,51,0,0
143791,-133.333333333333,4,1,0,55,0,0
143979,-133.333333333333,4,1,0,60,0,0
144260,-133.333333333333,4,1,0,64,0,0
144541,-133.333333333333,4,1,0,69,0,0
144729,-133.333333333333,4,1,0,73,0,0
145010,-133.333333333333,4,1,0,77,0,0
145291,-80,4,1,0,85,0,0
145760,-100,4,1,0,60,0,0
149698,-80,4,1,0,85,0,0
150260,-100,4,1,0,75,0,0
163666,-100,4,1,0,25,0,0
165448,-100,4,1,0,32,0,0
165541,-100,4,1,0,39,0,0
165635,-100,4,1,0,46,0,0
165729,-100,4,1,0,53,0,0
165823,-100,4,1,0,60,0,0
165916,-100,4,1,0,67,0,0
166010,-100,4,1,0,73,0,0
166104,-80,4,1,0,100,0,0
166385,-100,4,1,0,80,0,0
166573,-100,4,1,0,85,0,1
178198,-102.040816326531,4,1,0,85,0,1
178291,-104.166666666667,4,1,0,85,0,1
178385,-106.382978723404,4,1,0,85,0,1
178479,-108.695652173913,4,1,0,85,0,1
178573,-111.111111111111,4,1,0,85,0,1
190573,-111.111111111111,4,1,0,80,0,0
196526,-50,4,1,0,20,0,0
198073,-66.6666666666667,4,1,0,24,0,0
198166,-66.6666666666667,4,1,0,28,0,0
198260,-66.6666666666667,4,1,0,32,0,0
198354,-66.6666666666667,4,1,0,35,0,0
198448,-66.6666666666667,4,1,0,39,0,0
198541,-66.6666666666667,4,1,0,43,0,0
198635,-66.6666666666667,4,1,0,47,0,0
198729,-66.6666666666667,4,1,0,51,0,0
198823,-66.6666666666667,4,1,0,55,0,0
198916,-66.6666666666667,4,1,0,58,0,0
199010,-66.6666666666667,4,1,0,62,0,0
199104,-66.6666666666667,4,1,0,66,0,0
199198,-66.6666666666667,4,1,0,70,0,0
199385,-80,4,1,0,80,0,0
247666,-80,4,1,0,20,0,0
249073,-100,4,1,0,20,0,0
250479,-100,4,1,0,80,0,0
250666,-100,4,1,0,20,0,0
252729,-80,4,1,0,100,0,0
253385,-100,4,1,0,85,0,0
253573,-100,4,1,0,85,0,1
265198,-102.040816326531,4,1,0,85,0,1
265291,-104.166666666667,4,1,0,85,0,1
265385,-106.382978723404,4,1,0,85,0,1
265479,-108.695652173913,4,1,0,85,0,1
265573,-111.111111111111,4,1,0,85,0,1
276635,-100,4,1,0,85,0,1
276823,-90.9090909090909,4,1,0,85,0,1
277010,-83.3333333333333,4,1,0,85,0,1
277104,-80,4,1,0,85,0,1
277198,-76.9230769230769,4,1,0,85,0,1
277291,-74.0740740740741,4,1,0,85,0,1
277385,-71.4285714285714,4,1,0,85,0,1
277479,-68.9655172413793,4,1,0,85,0,1
277573,-66.6666666666667,4,1,0,85,0,1
295948,375,4,1,0,85,1,9
295948,-66.6666666666667,4,1,0,85,0,9
296948,357.142857142857,4,1,0,85,1,9
296948,-70.0035001750088,4,1,0,85,0,1
297067,357.142857142857,4,1,0,85,1,1
297067,-70.0035001750088,4,1,0,85,0,1
297186,375,4,1,0,85,1,9
297186,-66.6666666666667,4,1,0,85,0,1
298561,375,4,1,0,85,1,1
298561,-66.6666666666667,4,1,0,85,0,1
298948,375,4,1,0,85,1,9
298948,-66.6666666666667,4,1,0,85,0,9
300073,375,4,1,0,85,1,1
300073,-66.6666666666667,4,1,0,85,0,1
302698,-66.6666666666667,4,1,0,85,0,0
303448,-62.5,4,1,0,85,0,1
303823,-58.8235294117647,4,1,0,85,0,1
304198,-55.5555555555556,4,1,0,85,0,1
304385,-55.5555555555556,4,1,0,85,0,0

[HitObjects]
256,192,1573,12,0,13198,0:0:0:0:
160,288,13573,5,4,0:0:0:0:
160,96,13854,1,0,0:0:0:0:
352,96,13948,1,8,0:0:0:0:
160,96,14135,1,0,0:0:0:0:
352,96,14698,1,8,0:0:0:0:
160,96,14979,1,0,0:0:0:0:
160,96,15073,1,0,0:0:0:0:
160,96,15260,1,0,0:0:0:0:
352,96,15448,1,8,0:0:0:0:
160,96,15823,1,0,0:0:0:0:
160,96,16104,1,0,0:0:0:0:
352,96,16198,1,8,0:0:0:0:
160,96,16385,1,0,0:0:0:0:
160,96,16573,1,0,0:0:0:0:
352,96,16854,1,8,0:0:0:0:
352,96,16948,1,8,0:0:0:0:
352,96,17135,1,8,0:0:0:0:
352,96,17698,1,8,0:0:0:0:
160,96,17979,1,0,0:0:0:0:
352,96,18073,1,8,0:0:0:0:
160,96,18260,1,0,0:0:0:0:
160,96,18354,1,0,0:0:0:0:
352,96,18448,1,8,0:0:0:0:
160,96,18541,1,0,0:0:0:0:
160,96,18635,1,0,0:0:0:0:
160,96,18729,1,0,0:0:0:0:
160,96,18823,1,0,0:0:0:0:
160,96,18916,1,0,0:0:0:0:
160,96,19010,1,0,0:0:0:0:
160,96,19104,1,0,0:0:0:0:
352,96,19198,1,8,0:0:0:0:
160,96,19291,1,0,0:0:0:0:
352,96,19385,1,8,0:0:0:0:
352,96,19479,1,8,0:0:0:0:
160,288,19573,1,4,0:0:0:0:
160,96,19854,1,0,0:0:0:0:
352,96,19948,1,8,0:0:0:0:
160,96,20135,1,0,0:0:0:0:
160,96,20323,1,0,0:0:0:0:
352,96,20698,1,8,0:0:0:0:
160,96,20885,1,0,0:0:0:0:
352,96,20979,1,8,0:0:0:0:
160,96,21073,1,0,0:0:0:0:
160,96,21166,1,0,0:0:0:0:
160,96,21260,1,0,0:0:0:0:
160,96,21354,1,0,0:0:0:0:
352,96,21448,1,8,0:0:0:0:
160,96,21635,1,0,0:0:0:0:
160,96,21729,1,0,0:0:0:0:
160,96,21916,1,0,0:0:0:0:
160,96,22010,1,0,0:0:0:0:
352,96,22198,1,8,0:0:0:0:
352,96,22291,1,8,0:0:0:0:
160,96,22385,1,0,0:0:0:0:
160,96,22573,1,0,0:0:0:0:
160,96,22854,1,0,0:0:0:0:
352,96,22948,1,8,0:0:0:0:
160,96,23135,1,0,0:0:0:0:
352,96,23323,1,8,0:0:0:0:
352,96,23416,1,8,0:0:0:0:
352,96,23698,1,8,0:0:0:0:
160,96,23791,1,0,0:0:0:0:
160,96,23979,1,0,0:0:0:0:
352,96,24073,1,8,0:0:0:0:
160,96,24260,1,0,0:0:0:0:
352,96,24448,1,8,0:0:0:0:
160,96,24541,1,0,0:0:0:0:
160,96,24635,1,0,0:0:0:0:
160,96,24729,1,0,0:0:0:0:
352,96,24823,1,8,0:0:0:0:
352,96,24916,1,8,0:0:0:0:
160,96,25010,1,0,0:0:0:0:
160,96,25104,1,0,0:0:0:0:
352,96,25198,1,8,0:0:0:0:
160,96,25291,1,0,0:0:0:0:
352,96,25385,1,8,0:0:0:0:
352,96,25479,1,8,0:0:0:0:
160,96,25573,1,0,0:0:0:0:
160,96,25760,1,0,0:0:0:0:
352,96,25854,1,8,0:0:0:0:
160,96,25948,1,0,0:0:0:0:
352,96,26135,1,8,0:0:0:0:
160,288,26323,1,4,0:0:0:0:
160,96,26510,1,0,0:0:0:0:
160,96,26604,1,0,0:0:0:0:
352,96,26698,1,8,0:0:0:0:
160,96,26791,1,0,0:0:0:0:
352,96,26885,1,8,0:0:0:0:
160,96,27073,1,0,0:0:0:0:
352,96,27260,1,8,0:0:0:0:
160,96,27448,1,0,0:0:0:0:
352,96,27541,1,8,0:0:0:0:
352,96,27635,1,8,0:0:0:0:
160,96,27729,1,0,0:0:0:0:
352,96,27823,1,8,0:0:0:0:
352,96,28010,1,8,0:0:0:0:
352,96,28104,1,8,0:0:0:0:
160,96,28198,1,0,0:0:0:0:
352,96,28291,1,8,0:0:0:0:
160,96,28385,1,0,0:0:0:0:
160,96,28479,1,0,0:0:0:0:
352,96,28573,1,8,0:0:0:0:
160,96,28760,1,0,0:0:0:0:
352,96,28854,1,8,0:0:0:0:
160,96,28948,1,0,0:0:0:0:
352,96,29135,1,8,0:0:0:0:
160,96,29323,1,0,0:0:0:0:
352,96,29416,1,8,0:0:0:0:
160,96,29510,1,0,0:0:0:0:
160,96,29604,1,0,0:0:0:0:
352,96,29698,1,8,0:0:0:0:
160,96,29791,1,0,0:0:0:0:
352,96,29885,1,8,0:0:0:0:
160,96,30073,1,0,0:0:0:0:
352,96,30166,1,8,0:0:0:0:
160,96,30260,1,0,0:0:0:0:
352,96,30354,1,8,0:0:0:0:
160,96,30541,1,0,0:0:0:0:
352,96,30635,1,8,0:0:0:0:
160,96,30729,1,0,0:0:0:0:
352,96,30823,1,8,0:0:0:0:
160,96,31010,1,0,0:0:0:0:
352,96,31104,1,8,0:0:0:0:
160,96,31198,1,0,0:0:0:0:
160,96,31291,1,0,0:0:0:0:
352,96,31385,1,8,0:0:0:0:
160,96,31479,1,0,0:0:0:0:
352,96,31573,1,8,0:0:0:0:
352,96,31666,1,8,0:0:0:0:
160,96,31760,1,0,0:0:0:0:
160,96,31854,1,0,0:0:0:0:
352,96,31948,1,8,0:0:0:0:
160,96,32041,1,0,0:0:0:0:
160,96,32135,1,0,0:0:0:0:
160,96,32229,1,0,0:0:0:0:
352,288,32323,1,12,0:0:0:0:
352,288,32604,1,12,0:0:0:0:
352,288,32885,1,12,0:0:0:0:
160,96,33073,1,0,0:0:0:0:
352,96,33166,1,8,0:0:0:0:
160,96,33260,1,0,0:0:0:0:
352,96,33448,1,8,0:0:0:0:
160,96,33635,1,0,0:0:0:0:
160,96,33729,1,0,0:0:0:0:
352,96,33823,1,8,0:0:0:0:
160,96,33916,1,0,0:0:0:0:
352,96,34010,1,8,0:0:0:0:
160,96,34198,1,0,0:0:0:0:
352,96,34291,1,8,0:0:0:0:
352,96,34385,1,8,0:0:0:0:
160,96,34479,1,0,0:0:0:0:
352,96,34573,1,8,0:0:0:0:
160,96,34760,1,0,0:0:0:0:
352,96,34854,1,8,0:0:0:0:
160,96,34948,1,0,0:0:0:0:
160,96,35041,1,0,0:0:0:0:
352,96,35135,1,8,0:0:0:0:
160,96,35323,1,0,0:0:0:0:
352,96,35416,1,8,0:0:0:0:
160,96,35510,1,0,0:0:0:0:
352,96,35604,1,8,0:0:0:0:
160,96,35698,1,0,0:0:0:0:
160,96,35791,1,0,0:0:0:0:
352,96,35885,1,8,0:0:0:0:
352,96,36073,1,8,0:0:0:0:
352,96,36135,1,8,0:0:0:0:
160,96,36198,1,0,0:0:0:0:
352,96,36260,1,8,0:0:0:0:
160,96,36323,1,0,0:0:0:0:
160,96,36385,1,0,0:0:0:0:
352,96,36448,1,8,0:0:0:0:
160,96,36510,1,0,0:0:0:0:
160,96,36573,1,0,0:0:0:0:
352,96,36635,1,8,0:0:0:0:
160,96,36698,1,0,0:0:0:0:
160,96,36760,1,0,0:0:0:0:
352,96,36823,1,8,0:0:0:0:
352,96,36916,1,8,0:0:0:0:
160,96,37010,1,0,0:0:0:0:
160,96,37104,1,0,0:0:0:0:
352,96,37198,1,8,0:0:0:0:
352,96,37291,1,8,0:0:0:0:
352,96,37385,1,8,0:0:0:0:
352,96,37479,1,8,0:0:0:0:
160,288,37573,1,4,0:0:0:0:
160,96,37854,1,0,0:0:0:0:
352,96,37948,1,8,0:0:0:0:
160,96,38135,1,0,0:0:0:0:
160,96,38323,1,0,0:0:0:0:
160,96,38604,1,0,0:0:0:0:
352,96,38698,1,8,0:0:0:0:
160,96,38885,1,0,0:0:0:0:
352,96,39073,1,8,0:0:0:0:
160,96,39354,1,0,0:0:0:0:
352,96,39448,1,8,0:0:0:0:
160,96,39635,1,0,0:0:0:0:
352,96,39823,1,8,0:0:0:0:
160,96,40104,1,0,0:0:0:0:
352,96,40198,1,8,0:0:0:0:
352,96,40385,1,8,0:0:0:0:
160,96,40479,1,0,0:0:0:0:
352,96,40573,1,8,0:0:0:0:
352,288,40948,1,12,0:0:0:0:
160,96,41323,1,0,0:0:0:0:
160,96,41604,1,0,0:0:0:0:
352,96,41698,1,8,0:0:0:0:
160,96,41885,1,0,0:0:0:0:
352,96,41979,1,8,0:0:0:0:
160,96,42073,1,0,0:0:0:0:
160,96,42354,1,0,0:0:0:0:
352,96,42448,1,8,0:0:0:0:
160,96,42635,1,0,0:0:0:0:
160,96,42823,1,0,0:0:0:0:
160,96,42916,1,0,0:0:0:0:
160,96,43010,1,0,0:0:0:0:
160,96,43104,1,0,0:0:0:0:
352,96,43198,1,8,0:0:0:0:
160,96,43291,1,0,0:0:0:0:
160,96,43385,1,0,0:0:0:0:
160,288,43573,1,4,0:0:0:0:
160,96,43854,1,0,0:0:0:0:
352,96,43948,1,8,0:0:0:0:
160,96,44135,1,0,0:0:0:0:
160,96,44229,1,0,0:0:0:0:
352,96,44323,1,8,0:0:0:0:
160,96,44416,1,0,0:0:0:0:
160,96,44604,1,0,0:0:0:0:
352,96,44698,1,8,0:0:0:0:
160,96,44791,1,0,0:0:0:0:
352,96,44885,1,8,0:0:0:0:
160,96,45073,1,0,0:0:0:0:
160,96,45354,1,0,0:0:0:0:
352,96,45448,1,8,0:0:0:0:
160,96,45729,1,0,0:0:0:0:
160,96,45823,1,0,0:0:0:0:
160,96,46010,1,0,0:0:0:0:
160,96,46104,1,0,0:0:0:0:
352,96,46198,1,8,0:0:0:0:
160,96,46385,1,0,0:0:0:0:
352,96,46573,1,8,0:0:0:0:
160,96,46760,1,0,0:0:0:0:
160,96,46948,1,0,0:0:0:0:
352,96,47041,1,8,0:0:0:0:
352,96,47135,1,8,0:0:0:0:
160,96,47229,1,0,0:0:0:0:
352,96,47323,1,8,0:0:0:0:
160,96,47416,1,0,0:0:0:0:
160,96,47510,1,0,0:0:0:0:
352,96,47604,1,8,0:0:0:0:
352,96,47698,1,8,0:0:0:0:
160,96,47791,1,0,0:0:0:0:
352,96,47885,1,8,0:0:0:0:
160,96,47948,1,0,0:0:0:0:
160,96,48010,1,0,0:0:0:0:
352,96,48073,1,8,0:0:0:0:
352,96,48135,1,8,0:0:0:0:
160,96,48198,1,0,0:0:0:0:
352,96,48260,1,8,0:0:0:0:
160,96,48323,1,0,0:0:0:0:
160,96,48385,1,0,0:0:0:0:
352,96,48448,1,8,0:0:0:0:
352,96,48510,1,8,0:0:0:0:
160,96,48573,1,0,0:0:0:0:
352,96,48635,1,8,0:0:0:0:
160,96,48698,1,0,0:0:0:0:
160,96,48760,1,0,0:0:0:0:
352,96,48823,1,8,0:0:0:0:
352,96,48885,1,8,0:0:0:0:
160,96,48948,1,0,0:0:0:0:
352,96,49010,1,8,0:0:0:0:
160,96,49073,1,0,0:0:0:0:
160,96,49135,1,0,0:0:0:0:
352,96,49198,1,8,0:0:0:0:
160,96,49260,1,0,0:0:0:0:
160,96,49323,1,0,0:0:0:0:
352,96,49385,1,8,0:0:0:0:
160,288,49573,1,4,0:0:0:0:
160,96,50510,1,0,0:0:0:0:
160,96,50698,1,0,0:0:0:0:
160,96,50885,1,0,0:0:0:0:
352,96,51073,1,8,0:0:0:0:
352,96,51448,1,8,0:0:0:0:
352,96,51635,1,8,0:0:0:0:
160,96,52198,1,0,0:0:0:0:
256,192,52385,2,0,L|224:192,20,26.2500010013581
160,96,55198,1,0,0:0:0:0:
160,288,55385,1,4,0:0:0:0:
160,288,55573,1,4,0:0:0:0:
352,96,56510,1,8,0:0:0:0:
352,96,56698,1,8,0:0:0:0:
160,96,56885,1,0,0:0:0:0:
256,192,57260,2,0,L|224:192,10,26.2500010013581
352,96,58573,1,8,0:0:0:0:
352,96,59323,1,8,0:0:0:0:
160,96,59698,1,0,0:0:0:0:
160,288,59885,1,4,0:0:0:0:
160,288,60073,1,4,0:0:0:0:
352,96,60823,1,8,0:0:0:0:
160,96,61010,1,0,0:0:0:0:
160,96,61104,1,0,0:0:0:0:
352,288,61198,1,12,0:0:0:0:
160,288,61573,1,4,0:0:0:0:
352,96,61948,1,8,0:0:0:0:
160,96,62135,1,0,0:0:0:0:
352,96,62323,1,8,0:0:0:0:
160,96,62510,1,0,0:0:0:0:
160,96,62885,1,0,0:0:0:0:
160,96,63073,1,0,0:0:0:0:
352,96,63448,1,8,0:0:0:0:
160,96,63635,1,0,0:0:0:0:
352,96,63823,1,8,0:0:0:0:
352,96,64198,1,8,0:0:0:0:
352,96,64385,1,8,0:0:0:0:
160,288,64573,1,4,0:0:0:0:
160,96,64948,1,0,0:0:0:0:
160,96,65135,1,0,0:0:0:0:
352,96,65323,1,8,0:0:0:0:
160,96,65510,1,0,0:0:0:0:
160,96,65885,1,0,0:0:0:0:
160,96,66073,1,0,0:0:0:0:
352,96,66448,1,8,0:0:0:0:
160,96,66635,1,0,0:0:0:0:
352,96,66823,1,8,0:0:0:0:
160,96,67010,1,0,0:0:0:0:
352,96,67104,1,8,0:0:0:0:
160,96,67385,1,0,0:0:0:0:
160,288,67573,1,4,0:0:0:0:
160,96,67948,1,0,0:0:0:0:
160,96,68135,1,0,0:0:0:0:
352,96,68323,1,8,0:0:0:0:
160,96,68510,1,0,0:0:0:0:
352,96,69073,1,8,0:0:0:0:
352,96,69198,1,8,0:0:0:0:
160,96,69323,1,0,0:0:0:0:
352,96,69448,1,8,0:0:0:0:
160,96,69573,1,0,0:0:0:0:
160,96,69698,1,0,0:0:0:0:
352,96,69823,1,8,0:0:0:0:
160,96,70198,1,0,0:0:0:0:
160,288,70573,1,4,0:0:0:0:
160,96,70760,1,0,0:0:0:0:
160,96,70854,1,0,0:0:0:0:
352,96,70948,1,8,0:0:0:0:
160,96,71041,1,0,0:0:0:0:
352,96,71135,1,8,0:0:0:0:
352,96,71229,1,8,0:0:0:0:
352,96,71323,1,8,0:0:0:0:
160,96,71416,1,0,0:0:0:0:
352,96,71510,1,8,0:0:0:0:
352,96,71604,1,8,0:0:0:0:
160,96,71698,1,0,0:0:0:0:
352,96,71791,1,8,0:0:0:0:
352,96,71885,1,8,0:0:0:0:
160,96,71979,1,0,0:0:0:0:
160,96,72073,1,0,0:0:0:0:
352,96,72166,1,8,0:0:0:0:
352,96,72260,1,8,0:0:0:0:
160,96,72354,1,0,0:0:0:0:
352,96,72448,1,8,0:0:0:0:
352,96,72541,1,8,0:0:0:0:
160,96,72635,1,0,0:0:0:0:
352,96,72729,1,8,0:0:0:0:
160,96,72823,1,0,0:0:0:0:
160,96,72916,1,0,0:0:0:0:
160,96,73010,1,0,0:0:0:0:
160,96,73104,1,0,0:0:0:0:
352,96,73198,1,8,0:0:0:0:
160,96,73291,1,0,0:0:0:0:
352,96,73385,1,8,0:0:0:0:
352,96,73479,1,8,0:0:0:0:
256,192,73760,12,0,76010,0:0:0:0:
352,288,76198,5,12,0:0:0:0:
160,288,76573,1,4,0:0:0:0:
160,96,76760,1,0,0:0:0:0:
352,96,76948,1,8,0:0:0:0:
160,96,77135,1,0,0:0:0:0:
160,96,77229,1,0,0:0:0:0:
352,96,77323,1,8,0:0:0:0:
160,96,77510,1,0,0:0:0:0:
352,96,77698,1,8,0:0:0:0:
160,96,77885,1,0,0:0:0:0:
160,96,77979,1,0,0:0:0:0:
352,96,78073,1,8,0:0:0:0:
160,96,78260,1,0,0:0:0:0:
160,96,78354,1,0,0:0:0:0:
160,96,78448,1,0,0:0:0:0:
352,96,78635,1,8,0:0:0:0:
160,96,78729,1,0,0:0:0:0:
352,96,78823,1,8,0:0:0:0:
160,96,79010,1,0,0:0:0:0:
352,96,79198,1,8,0:0:0:0:
160,96,79385,1,0,0:0:0:0:
160,96,79479,1,0,0:0:0:0:
352,96,79573,1,8,0:0:0:0:
160,96,79760,1,0,0:0:0:0:
160,96,79854,1,0,0:0:0:0:
160,96,79948,1,0,0:0:0:0:
352,96,80135,1,8,0:0:0:0:
160,96,80323,1,0,0:0:0:0:
160,96,80510,1,0,0:0:0:0:
352,96,80698,1,8,0:0:0:0:
160,96,80885,1,0,0:0:0:0:
160,96,80979,1,0,0:0:0:0:
352,96,81073,1,8,0:0:0:0:
160,96,81260,1,0,0:0:0:0:
352,96,81354,1,8,0:0:0:0:
160,96,81448,1,0,0:0:0:0:
352,96,81635,1,8,0:0:0:0:
352,96,81729,1,8,0:0:0:0:
160,96,81823,1,0,0:0:0:0:
160,96,82010,1,0,0:0:0:0:
352,96,82198,1,8,0:0:0:0:
160,96,82385,1,0,0:0:0:0:
160,96,82479,1,0,0:0:0:0:
352,96,82573,1,8,0:0:0:0:
352,96,82760,1,8,0:0:0:0:
160,96,82948,1,0,0:0:0:0:
352,96,83135,1,8,0:0:0:0:
160,96,83229,1,0,0:0:0:0:
352,96,83323,1,8,0:0:0:0:
160,96,83510,1,0,0:0:0:0:
352,96,83698,1,8,0:0:0:0:
160,96,83885,1,0,0:0:0:0:
160,96,83979,1,0,0:0:0:0:
352,96,84073,1,8,0:0:0:0:
352,96,84260,1,8,0:0:0:0:
160,96,84354,1,0,0:0:0:0:
160,96,84448,1,0,0:0:0:0:
352,96,84635,1,8,0:0:0:0:
160,96,84729,1,0,0:0:0:0:
352,96,84823,1,8,0:0:0:0:
160,96,85010,1,0,0:0:0:0:
352,96,85198,1,8,0:0:0:0:
160,96,85385,1,0,0:0:0:0:
160,96,85479,1,0,0:0:0:0:
352,96,85573,1,8,0:0:0:0:
352,96,85760,1,8,0:0:0:0:
352,96,85854,1,8,0:0:0:0:
160,96,85948,1,0,0:0:0:0:
352,96,86135,1,8,0:0:0:0:
352,96,86323,1,8,0:0:0:0:
160,96,86510,1,0,0:0:0:0:
352,96,86698,1,8,0:0:0:0:
160,96,86885,1,0,0:0:0:0:
160,96,86979,1,0,0:0:0:0:
352,96,87073,1,8,0:0:0:0:
352,96,87260,1,8,0:0:0:0:
160,96,87448,1,0,0:0:0:0:
352,96,87635,1,8,0:0:0:0:
160,96,87823,1,0,0:0:0:0:
160,96,88010,1,0,0:0:0:0:
160,96,88104,1,0,0:0:0:0:
352,96,88198,1,8,0:0:0:0:
352,96,88291,1,8,0:0:0:0:
352,96,88385,1,8,0:0:0:0:
352,96,88479,1,8,0:0:0:0:
160,288,88573,1,4,0:0:0:0:
160,96,88948,1,0,0:0:0:0:
160,96,89135,1,0,0:0:0:0:
352,96,89323,1,8,0:0:0:0:
160,96,89510,1,0,0:0:0:0:
160,96,89885,1,0,0:0:0:0:
352,96,90073,1,8,0:0:0:0:
160,96,90260,1,0,0:0:0:0:
160,96,90635,1,0,0:0:0:0:
352,96,90823,1,8,0:0:0:0:
160,96,91010,1,0,0:0:0:0:
352,96,91198,1,8,0:0:0:0:
160,96,91385,1,0,0:0:0:0:
160,96,91573,1,0,0:0:0:0:
160,96,91948,1,0,0:0:0:0:
160,96,92135,1,0,0:0:0:0:
352,96,92323,1,8,0:0:0:0:
160,96,92510,1,0,0:0:0:0:
160,96,92698,1,0,0:0:0:0:
160,96,93073,1,0,0:0:0:0:
160,96,93260,1,0,0:0:0:0:
352,96,93448,1,8,0:0:0:0:
160,96,93635,1,0,0:0:0:0:
352,96,93823,1,8,0:0:0:0:
160,96,94010,1,0,0:0:0:0:
160,96,94385,1,0,0:0:0:0:
160,96,94573,1,0,0:0:0:0:
352,96,94948,1,8,0:0:0:0:
160,96,95135,1,0,0:0:0:0:
352,96,95323,1,8,0:0:0:0:
160,96,95510,1,0,0:0:0:0:
352,96,95698,1,8,0:0:0:0:
160,96,96073,1,0,0:0:0:0:
160,96,96260,1,0,0:0:0:0:
160,96,96635,1,0,0:0:0:0:
352,96,96823,1,8,0:0:0:0:
160,96,97010,1,0,0:0:0:0:
160,96,97385,1,0,0:0:0:0:
352,96,97573,1,8,0:0:0:0:
352,96,97760,1,8,0:0:0:0:
160,96,97948,1,0,0:0:0:0:
352,96,98135,1,8,0:0:0:0:
352,96,98323,1,8,0:0:0:0:
160,96,98510,1,0,0:0:0:0:
352,96,98698,1,8,0:0:0:0:
352,96,98885,1,8,0:0:0:0:
160,96,99073,1,0,0:0:0:0:
352,96,99260,1,8,0:0:0:0:
352,96,99448,1,8,0:0:0:0:
160,96,99635,1,0,0:0:0:0:
352,96,99823,1,8,0:0:0:0:
352,96,100010,1,8,0:0:0:0:
352,96,100104,1,8,0:0:0:0:
160,96,100198,1,0,0:0:0:0:
352,96,100291,1,8,0:0:0:0:
160,96,100385,1,0,0:0:0:0:
160,96,100479,1,0,0:0:0:0:
160,96,101510,1,0,0:0:0:0:
160,96,101604,1,0,0:0:0:0:
160,96,101698,1,0,0:0:0:0:
352,96,102448,1,8,0:0:0:0:
352,96,102541,1,8,0:0:0:0:
352,96,102635,1,8,0:0:0:0:
352,96,102823,1,8,0:0:0:0:
352,96,102916,1,8,0:0:0:0:
352,96,103010,1,8,0:0:0:0:
352,96,103198,1,8,0:0:0:0:
352,96,103291,1,8,0:0:0:0:
352,96,103385,1,8,0:0:0:0:
160,288,103573,1,4,0:0:0:0:
160,96,103854,1,0,0:0:0:0:
352,96,103948,1,8,0:0:0:0:
160,96,104135,1,0,0:0:0:0:
160,96,104229,1,0,0:0:0:0:
160,96,104323,1,0,0:0:0:0:
160,96,104510,1,0,0:0:0:0:
352,96,104698,1,8,0:0:0:0:
160,96,104791,1,0,0:0:0:0:
160,96,104979,1,0,0:0:0:0:
160,96,105073,1,0,0:0:0:0:
160,96,105260,1,0,0:0:0:0:
352,96,105448,1,8,0:0:0:0:
160,96,105635,1,0,0:0:0:0:
160,96,105729,1,0,0:0:0:0:
352,96,105823,1,8,0:0:0:0:
352,96,105916,1,8,0:0:0:0:
160,96,106104,1,0,0:0:0:0:
352,96,106198,1,8,0:0:0:0:
352,96,106385,1,8,0:0:0:0:
160,96,106479,1,0,0:0:0:0:
352,96,106573,1,8,0:0:0:0:
352,96,106666,1,8,0:0:0:0:
160,96,106854,1,0,0:0:0:0:
352,96,106948,1,8,0:0:0:0:
160,96,107135,1,0,0:0:0:0:
160,96,107229,1,0,0:0:0:0:
352,96,107323,1,8,0:0:0:0:
160,96,107510,1,0,0:0:0:0:
352,96,107698,1,8,0:0:0:0:
160,96,107791,1,0,0:0:0:0:
160,96,107979,1,0,0:0:0:0:
352,96,108073,1,8,0:0:0:0:
160,96,108260,1,0,0:0:0:0:
160,96,108354,1,0,0:0:0:0:
352,96,108448,1,8,0:0:0:0:
160,96,108541,1,0,0:0:0:0:
160,96,108635,1,0,0:0:0:0:
160,96,108729,1,0,0:0:0:0:
160,96,108823,1,0,0:0:0:0:
160,96,108916,1,0,0:0:0:0:
160,96,109010,1,0,0:0:0:0:
160,96,109104,1,0,0:0:0:0:
352,96,109198,1,8,0:0:0:0:
352,96,109291,1,8,0:0:0:0:
160,96,109385,1,0,0:0:0:0:
352,96,109479,1,8,0:0:0:0:
160,288,109573,1,4,0:0:0:0:
160,96,109854,1,0,0:0:0:0:
352,96,109948,1,8,0:0:0:0:
160,96,110135,1,0,0:0:0:0:
352,96,110229,1,8,0:0:0:0:
160,96,110323,1,0,0:0:0:0:
160,96,110510,1,0,0:0:0:0:
352,96,110698,1,8,0:0:0:0:
160,96,110791,1,0,0:0:0:0:
352,96,110979,1,8,0:0:0:0:
160,96,111073,1,0,0:0:0:0:
160,96,111166,1,0,0:0:0:0:
160,96,111260,1,0,0:0:0:0:
160,96,111354,1,0,0:0:0:0:
352,96,111448,1,8,0:0:0:0:
160,96,111635,1,0,0:0:0:0:
160,96,111729,1,0,0:0:0:0:
160,96,111916,1,0,0:0:0:0:
160,96,112010,1,0,0:0:0:0:
352,96,112198,1,8,0:0:0:0:
352,96,112291,1,8,0:0:0:0:
160,96,112385,1,0,0:0:0:0:
352,96,112573,1,8,0:0:0:0:
160,96,112666,1,0,0:0:0:0:
160,96,112854,1,0,0:0:0:0:
352,96,112948,1,8,0:0:0:0:
160,96,113135,1,0,0:0:0:0:
160,96,113229,1,0,0:0:0:0:
352,96,113323,1,8,0:0:0:0:
352,96,113416,1,8,0:0:0:0:
160,96,113604,1,0,0:0:0:0:
352,96,113698,1,8,0:0:0:0:
160,96,113885,1,0,0:0:0:0:
160,96,113979,1,0,0:0:0:0:
352,96,114073,1,8,0:0:0:0:
160,96,114166,1,0,0:0:0:0:
160,96,114354,1,0,0:0:0:0:
352,96,114448,1,8,0:0:0:0:
160,96,114541,1,0,0:0:0:0:
160,96,114635,1,0,0:0:0:0:
160,96,114729,1,0,0:0:0:0:
352,96,114823,1,8,0:0:0:0:
352,96,114916,1,8,0:0:0:0:
160,96,115010,1,0,0:0:0:0:
160,96,115104,1,0,0:0:0:0:
352,96,115198,1,8,0:0:0:0:
160,96,115291,1,0,0:0:0:0:
352,96,115385,1,8,0:0:0:0:
352,96,115479,1,8,0:0:0:0:
160,96,115573,1,0,0:0:0:0:
160,96,115760,1,0,0:0:0:0:
352,96,115854,1,8,0:0:0:0:
160,96,115948,1,0,0:0:0:0:
160,96,116041,1,0,0:0:0:0:
352,96,116135,1,8,0:0:0:0:
160,288,116323,1,4,0:0:0:0:
160,96,116510,1,0,0:0:0:0:
160,96,116604,1,0,0:0:0:0:
160,96,116791,1,0,0:0:0:0:
352,96,116885,1,8,0:0:0:0:
352,96,117073,1,8,0:0:0:0:
160,96,117260,1,0,0:0:0:0:
352,96,117354,1,8,0:0:0:0:
160,96,117448,1,0,0:0:0:0:
160,96,117541,1,0,0:0:0:0:
352,96,117635,1,8,0:0:0:0:
352,96,117823,1,8,0:0:0:0:
160,96,117916,1,0,0:0:0:0:
160,96,118010,1,0,0:0:0:0:
352,96,118104,1,8,0:0:0:0:
352,96,118198,1,8,0:0:0:0:
160,96,118291,1,0,0:0:0:0:
352,96,118385,1,8,0:0:0:0:
352,96,118573,1,8,0:0:0:0:
160,96,118760,1,0,0:0:0:0:
352,96,118854,1,8,0:0:0:0:
160,96,119041,1,0,0:0:0:0:
352,96,119135,1,8,0:0:0:0:
160,96,119229,1,0,0:0:0:0:
352,96,119323,1,8,0:0:0:0:
160,96,119416,1,0,0:0:0:0:
160,96,119510,1,0,0:0:0:0:
352,96,119604,1,8,0:0:0:0:
352,96,119791,1,8,0:0:0:0:
352,96,119885,1,8,0:0:0:0:
160,96,119979,1,0,0:0:0:0:
352,96,120073,1,8,0:0:0:0:
160,96,120260,1,0,0:0:0:0:
352,96,120354,1,8,0:0:0:0:
160,96,120448,1,0,0:0:0:0:
352,96,120541,1,8,0:0:0:0:
352,96,120635,1,8,0:0:0:0:
352,96,120823,1,8,0:0:0:0:
352,96,121010,1,8,0:0:0:0:
352,96,121104,1,8,0:0:0:0:
160,96,121198,1,0,0:0:0:0:
160,96,121291,1,0,0:0:0:0:
352,96,121385,1,8,0:0:0:0:
352,96,121573,1,8,0:0:0:0:
352,96,121666,1,8,0:0:0:0:
160,96,121760,1,0,0:0:0:0:
352,96,121854,1,8,0:0:0:0:
160,96,121948,1,0,0:0:0:0:
160,96,122041,1,0,0:0:0:0:
160,96,122135,1,0,0:0:0:0:
160,96,122229,1,0,0:0:0:0:
352,288,122323,1,12,0:0:0:0:
160,96,122510,1,0,0:0:0:0:
352,96,122604,1,8,0:0:0:0:
160,96,122791,1,0,0:0:0:0:
352,96,122885,1,8,0:0:0:0:
352,96,122979,1,8,0:0:0:0:
160,96,123073,1,0,0:0:0:0:
352,96,123260,1,8,0:0:0:0:
352,96,123354,1,8,0:0:0:0:
160,96,123448,1,0,0:0:0:0:
352,96,123541,1,8,0:0:0:0:
160,96,123635,1,0,0:0:0:0:
160,96,123729,1,0,0:0:0:0:
352,96,123823,1,8,0:0:0:0:
160,96,124010,1,0,0:0:0:0:
352,96,124104,1,8,0:0:0:0:
160,96,124198,1,0,0:0:0:0:
352,96,124291,1,8,0:0:0:0:
160,96,124385,1,0,0:0:0:0:
352,96,124573,1,8,0:0:0:0:
160,96,124635,1,0,0:0:0:0:
352,96,124698,1,8,0:0:0:0:
352,96,124760,1,8,0:0:0:0:
160,96,124823,1,0,0:0:0:0:
160,96,124885,1,0,0:0:0:0:
352,96,124948,1,8,0:0:0:0:
160,96,125010,1,0,0:0:0:0:
352,96,125073,1,8,0:0:0:0:
160,96,125135,1,0,0:0:0:0:
160,96,125198,1,0,0:0:0:0:
160,96,125260,1,0,0:0:0:0:
352,96,125323,1,8,0:0:0:0:
352,96,125385,1,8,0:0:0:0:
160,96,125448,1,0,0:0:0:0:
352,96,125510,1,8,0:0:0:0:
160,96,125573,1,0,0:0:0:0:
160,96,125635,1,0,0:0:0:0:
352,96,125698,1,8,0:0:0:0:
352,96,125760,1,8,0:0:0:0:
160,96,125823,1,0,0:0:0:0:
352,96,125885,1,8,0:0:0:0:
160,96,125948,1,0,0:0:0:0:
160,96,126010,1,0,0:0:0:0:
352,96,126073,1,8,0:0:0:0:
160,96,126135,1,0,0:0:0:0:
352,96,126198,1,8,0:0:0:0:
352,96,126260,1,8,0:0:0:0:
160,96,126323,1,0,0:0:0:0:
160,96,126385,1,0,0:0:0:0:
352,96,126448,1,8,0:0:0:0:
160,96,126510,1,0,0:0:0:0:
352,96,126573,1,8,0:0:0:0:
160,96,126635,1,0,0:0:0:0:
160,96,126698,1,0,0:0:0:0:
160,96,126760,1,0,0:0:0:0:
352,96,126823,1,8,0:0:0:0:
352,96,126916,1,8,0:0:0:0:
160,96,127010,1,0,0:0:0:0:
160,96,127104,1,0,0:0:0:0:
352,96,127198,1,8,0:0:0:0:
352,96,127291,1,8,0:0:0:0:
352,96,127385,1,8,0:0:0:0:
352,96,127479,1,8,0:0:0:0:
160,288,127573,1,4,0:0:0:0:
352,96,127760,1,8,0:0:0:0:
160,96,127854,1,0,0:0:0:0:
352,96,127948,1,8,0:0:0:0:
160,96,128135,1,0,0:0:0:0:
352,96,128229,1,8,0:0:0:0:
160,96,128323,1,0,0:0:0:0:
352,96,128510,1,8,0:0:0:0:
160,96,128604,1,0,0:0:0:0:
352,96,128698,1,8,0:0:0:0:
352,96,128791,1,8,0:0:0:0:
160,96,128885,1,0,0:0:0:0:
352,96,129073,1,8,0:0:0:0:
160,96,129166,1,0,0:0:0:0:
160,96,129260,1,0,0:0:0:0:
352,96,129354,1,8,0:0:0:0:
352,96,129448,1,8,0:0:0:0:
160,96,129635,1,0,0:0:0:0:
352,96,129729,1,8,0:0:0:0:
352,96,129823,1,8,0:0:0:0:
160,96,130010,1,0,0:0:0:0:
160,96,130104,1,0,0:0:0:0:
352,96,130198,1,8,0:0:0:0:
352,96,130291,1,8,0:0:0:0:
160,96,130385,1,0,0:0:0:0:
352,96,130573,1,8,0:0:0:0:
160,96,130666,1,0,0:0:0:0:
352,96,130760,1,8,0:0:0:0:
160,96,130854,1,0,0:0:0:0:
352,96,130948,1,8,0:0:0:0:
160,96,131135,1,0,0:0:0:0:
352,96,131323,1,8,0:0:0:0:
160,96,131416,1,0,0:0:0:0:
352,96,131510,1,8,0:0:0:0:
160,96,131604,1,0,0:0:0:0:
352,96,131698,1,8,0:0:0:0:
352,96,131885,1,8,0:0:0:0:
352,96,132073,1,8,0:0:0:0:
352,96,132166,1,8,0:0:0:0:
160,96,132260,1,0,0:0:0:0:
352,96,132354,1,8,0:0:0:0:
160,96,132448,1,0,0:0:0:0:
352,96,132635,1,8,0:0:0:0:
352,96,132729,1,8,0:0:0:0:
160,96,132823,1,0,0:0:0:0:
352,96,132916,1,8,0:0:0:0:
160,96,133010,1,0,0:0:0:0:
160,96,133104,1,0,0:0:0:0:
352,96,133198,1,8,0:0:0:0:
160,96,133291,1,0,0:0:0:0:
160,96,133385,1,0,0:0:0:0:
352,96,133479,1,8,0:0:0:0:
160,288,133573,1,4,0:0:0:0:
160,96,133760,1,0,0:0:0:0:
352,96,133854,1,8,0:0:0:0:
160,96,133948,1,0,0:0:0:0:
160,96,134135,1,0,0:0:0:0:
352,96,134229,1,8,0:0:0:0:
352,96,134416,1,8,0:0:0:0:
160,96,134510,1,0,0:0:0:0:
352,96,134698,1,8,0:0:0:0:
352,96,134791,1,8,0:0:0:0:
160,96,134979,1,0,0:0:0:0:
160,96,135073,1,0,0:0:0:0:
352,96,135260,1,8,0:0:0:0:
352,96,135354,1,8,0:0:0:0:
160,96,135541,1,0,0:0:0:0:
160,96,135635,1,0,0:0:0:0:
352,96,135823,1,8,0:0:0:0:
352,96,135916,1,8,0:0:0:0:
160,96,136010,1,0,0:0:0:0:
160,96,136104,1,0,0:0:0:0:
352,96,136198,1,8,0:0:0:0:
160,96,136291,1,0,0:0:0:0:
352,96,136385,1,8,0:0:0:0:
352,96,136479,1,8,0:0:0:0:
352,96,136573,1,8,0:0:0:0:
160,96,136666,1,0,0:0:0:0:
160,96,136760,1,0,0:0:0:0:
160,96,136854,1,0,0:0:0:0:
352,96,136948,1,8,0:0:0:0:
160,96,137041,1,0,0:0:0:0:
160,96,137135,1,0,0:0:0:0:
160,96,137229,1,0,0:0:0:0:
352,96,137323,1,8,0:0:0:0:
160,96,137416,1,0,0:0:0:0:
160,96,137510,1,0,0:0:0:0:
352,96,137604,1,8,0:0:0:0:
352,96,137698,1,8,0:0:0:0:
160,96,137791,1,0,0:0:0:0:
160,96,137885,1,0,0:0:0:0:
352,96,137979,1,8,0:0:0:0:
352,96,138073,1,8,0:0:0:0:
160,96,138166,1,0,0:0:0:0:
160,96,138260,1,0,0:0:0:0:
352,96,138354,1,8,0:0:0:0:
352,96,138448,1,8,0:0:0:0:
160,96,138541,1,0,0:0:0:0:
352,96,138635,1,8,0:0:0:0:
352,96,138729,1,8,0:0:0:0:
352,96,138823,1,8,0:0:0:0:
352,96,138916,1,8,0:0:0:0:
160,96,139010,1,0,0:0:0:0:
160,96,139104,1,0,0:0:0:0:
160,96,139198,1,0,0:0:0:0:
160,96,139291,1,0,0:0:0:0:
160,96,139385,1,0,0:0:0:0:
352,96,139479,1,8,0:0:0:0:
160,288,139573,1,4,0:0:0:0:
160,96,141073,5,0,0:0:0:0:
160,96,141354,1,0,0:0:0:0:
160,96,141635,1,0,0:0:0:0:
352,96,141823,1,8,0:0:0:0:
352,96,142104,1,8,0:0:0:0:
160,96,142385,1,0,0:0:0:0:
160,96,142573,1,0,0:0:0:0:
160,96,142854,1,0,0:0:0:0:
352,96,143135,1,8,0:0:0:0:
352,96,143323,1,8,0:0:0:0:
352,96,143604,1,8,0:0:0:0:
160,96,143885,1,0,0:0:0:0:
160,96,144073,1,0,0:0:0:0:
352,96,144354,1,8,0:0:0:0:
160,96,144635,1,0,0:0:0:0:
352,96,144823,1,8,0:0:0:0:
352,96,145104,1,8,0:0:0:0:
160,288,145385,1,4,0:0:0:0:
160,288,145573,1,4,0:0:0:0:
352,96,147823,1,8,0:0:0:0:
352,96,148198,1,8,0:0:0:0:
352,96,149510,1,8,0:0:0:0:
160,288,149885,1,4,0:0:0:0:
160,288,150073,1,4,0:0:0:0:
160,96,151010,1,0,0:0:0:0:
160,96,151104,1,0,0:0:0:0:
352,288,151198,1,12,0:0:0:0:
352,96,151385,1,8,0:0:0:0:
160,288,151573,1,4,0:0:0:0:
352,96,151760,1,8,0:0:0:0:
160,96,152135,1,0,0:0:0:0:
352,96,152323,1,8,0:0:0:0:
160,96,152510,1,0,0:0:0:0:
160,96,152885,1,0,0:0:0:0:
352,96,153260,1,8,0:0:0:0:
160,96,153635,1,0,0:0:0:0:
352,96,153823,1,8,0:0:0:0:
352,96,154010,1,8,0:0:0:0:
160,96,154198,1,0,0:0:0:0:
352,96,154385,1,8,0:0:0:0:
160,288,154573,1,4,0:0:0:0:
160,96,154948,1,0,0:0:0:0:
160,96,155135,1,0,0:0:0:0:
352,96,155323,1,8,0:0:0:0:
160,96,155510,1,0,0:0:0:0:
352,96,155885,1,8,0:0:0:0:
352,96,156260,1,8,0:0:0:0:
160,96,156635,1,0,0:0:0:0:
352,96,156823,1,8,0:0:0:0:
160,96,157010,1,0,0:0:0:0:
352,96,157104,1,8,0:0:0:0:
352,96,157291,1,8,0:0:0:0:
160,96,157385,1,0,0:0:0:0:
160,288,157573,1,4,0:0:0:0:
160,96,158135,1,0,0:0:0:0:
352,96,158323,1,8,0:0:0:0:
160,96,158510,1,0,0:0:0:0:
352,96,158698,1,8,0:0:0:0:
352,96,158885,1,8,0:0:0:0:
352,96,159260,1,8,0:0:0:0:
160,96,159448,1,0,0:0:0:0:
160,96,159635,1,0,0:0:0:0:
352,96,159823,1,8,0:0:0:0:
352,96,160010,1,8,0:0:0:0:
160,96,160385,1,0,0:0:0:0:
160,288,160573,1,4,0:0:0:0:
352,96,160948,1,8,0:0:0:0:
160,96,161135,1,0,0:0:0:0:
352,96,161323,1,8,0:0:0:0:
352,96,161510,1,8,0:0:0:0:
160,96,161698,1,0,0:0:0:0:
160,96,161885,1,0,0:0:0:0:
160,96,162073,1,0,0:0:0:0:
160,96,162166,1,0,0:0:0:0:
160,96,162260,1,0,0:0:0:0:
160,96,162354,1,0,0:0:0:0:
352,96,162448,1,8,0:0:0:0:
160,96,162541,1,0,0:0:0:0:
352,96,162635,1,8,0:0:0:0:
352,96,162729,1,8,0:0:0:0:
352,96,162823,1,8,0:0:0:0:
160,96,162916,1,0,0:0:0:0:
160,96,163010,1,0,0:0:0:0:
160,96,163104,1,0,0:0:0:0:
352,96,163198,1,8,0:0:0:0:
160,96,163291,1,0,0:0:0:0:
352,96,163385,1,8,0:0:0:0:
352,96,163479,1,8,0:0:0:0:
160,96,163573,1,0,0:0:0:0:
256,192,163760,12,0,166010,0:0:0:0:
352,288,166198,5,12,0:0:0:0:
160,288,166573,1,4,0:0:0:0:
160,96,166760,1,0,0:0:0:0:
160,96,166854,1,0,0:0:0:0:
352,96,166948,1,8,0:0:0:0:
160,96,167135,1,0,0:0:0:0:
160,96,167229,1,0,0:0:0:0:
352,96,167323,1,8,0:0:0:0:
160,96,167510,1,0,0:0:0:0:
352,96,167698,1,8,0:0:0:0:
160,96,167885,1,0,0:0:0:0:
160,96,167979,1,0,0:0:0:0:
352,96,168073,1,8,0:0:0:0:
160,96,168260,1,0,0:0:0:0:
160,96,168354,1,0,0:0:0:0:
160,96,168448,1,0,0:0:0:0:
352,96,168635,1,8,0:0:0:0:
160,96,168729,1,0,0:0:0:0:
352,96,168823,1,8,0:0:0:0:
160,96,169010,1,0,0:0:0:0:
160,96,169104,1,0,0:0:0:0:
352,96,169198,1,8,0:0:0:0:
160,96,169385,1,0,0:0:0:0:
160,96,169479,1,0,0:0:0:0:
352,96,169573,1,8,0:0:0:0:
160,96,169760,1,0,0:0:0:0:
160,96,169854,1,0,0:0:0:0:
160,96,169948,1,0,0:0:0:0:
352,96,170135,1,8,0:0:0:0:
160,96,170229,1,0,0:0:0:0:
160,96,170323,1,0,0:0:0:0:
160,96,170510,1,0,0:0:0:0:
352,96,170698,1,8,0:0:0:0:
160,96,170885,1,0,0:0:0:0:
160,96,170979,1,0,0:0:0:0:
352,96,171073,1,8,0:0:0:0:
160,96,171260,1,0,0:0:0:0:
352,96,171354,1,8,0:0:0:0:
160,96,171448,1,0,0:0:0:0:
352,96,171635,1,8,0:0:0:0:
352,96,171729,1,8,0:0:0:0:
160,96,171823,1,0,0:0:0:0:
160,96,172010,1,0,0:0:0:0:
160,96,172104,1,0,0:0:0:0:
352,96,172198,1,8,0:0:0:0:
160,96,172385,1,0,0:0:0:0:
160,96,172479,1,0,0:0:0:0:
352,96,172573,1,8,0:0:0:0:
352,96,172760,1,8,0:0:0:0:
352,96,172854,1,8,0:0:0:0:
160,96,172948,1,0,0:0:0:0:
352,96,173135,1,8,0:0:0:0:
160,96,173229,1,0,0:0:0:0:
352,96,173323,1,8,0:0:0:0:
160,96,173510,1,0,0:0:0:0:
352,96,173698,1,8,0:0:0:0:
160,96,173885,1,0,0:0:0:0:
160,96,173979,1,0,0:0:0:0:
352,96,174073,1,8,0:0:0:0:
352,96,174260,1,8,0:0:0:0:
160,96,174354,1,0,0:0:0:0:
160,96,174448,1,0,0:0:0:0:
352,96,174635,1,8,0:0:0:0:
160,96,174729,1,0,0:0:0:0:
352,96,174823,1,8,0:0:0:0:
160,96,175010,1,0,0:0:0:0:
160,96,175104,1,0,0:0:0:0:
352,96,175198,1,8,0:0:0:0:
160,96,175385,1,0,0:0:0:0:
160,96,175479,1,0,0:0:0:0:
352,96,175573,1,8,0:0:0:0:
352,96,175760,1,8,0:0:0:0:
352,96,175854,1,8,0:0:0:0:
160,96,175948,1,0,0:0:0:0:
352,96,176135,1,8,0:0:0:0:
160,96,176229,1,0,0:0:0:0:
352,96,176323,1,8,0:0:0:0:
160,96,176510,1,0,0:0:0:0:
352,96,176698,1,8,0:0:0:0:
160,96,176885,1,0,0:0:0:0:
160,96,176979,1,0,0:0:0:0:
352,96,177073,1,8,0:0:0:0:
352,96,177260,1,8,0:0:0:0:
160,96,177448,1,0,0:0:0:0:
352,96,177635,1,8,0:0:0:0:
160,96,177823,1,0,0:0:0:0:
160,96,178010,1,0,0:0:0:0:
160,96,178104,1,0,0:0:0:0:
352,96,178198,1,8,0:0:0:0:
352,96,178291,1,8,0:0:0:0:
352,96,178385,1,8,0:0:0:0:
352,96,178479,1,8,0:0:0:0:
160,288,178573,1,4,0:0:0:0:
160,96,178948,1,0,0:0:0:0:
160,96,179135,1,0,0:0:0:0:
352,96,179323,1,8,0:0:0:0:
160,96,179510,1,0,0:0:0:0:
160,96,179885,1,0,0:0:0:0:
352,96,180073,1,8,0:0:0:0:
160,96,180260,1,0,0:0:0:0:
160,96,180635,1,0,0:0:0:0:
352,96,180823,1,8,0:0:0:0:
160,96,181010,1,0,0:0:0:0:
352,96,181198,1,8,0:0:0:0:
160,96,181385,1,0,0:0:0:0:
160,96,181573,1,0,0:0:0:0:
160,96,181948,1,0,0:0:0:0:
160,96,182135,1,0,0:0:0:0:
352,96,182323,1,8,0:0:0:0:
160,96,182510,1,0,0:0:0:0:
160,96,182698,1,0,0:0:0:0:
160,96,183073,1,0,0:0:0:0:
160,96,183260,1,0,0:0:0:0:
352,96,183448,1,8,0:0:0:0:
160,96,183635,1,0,0:0:0:0:
352,96,183823,1,8,0:0:0:0:
160,96,184010,1,0,0:0:0:0:
352,96,184198,1,8,0:0:0:0:
160,96,184385,1,0,0:0:0:0:
160,96,184573,1,0,0:0:0:0:
352,96,184948,1,8,0:0:0:0:
160,96,185135,1,0,0:0:0:0:
352,96,185323,1,8,0:0:0:0:
160,96,185510,1,0,0:0:0:0:
352,96,185698,1,8,0:0:0:0:
160,96,186073,1,0,0:0:0:0:
160,96,186260,1,0,0:0:0:0:
352,96,186448,1,8,0:0:0:0:
160,96,186635,1,0,0:0:0:0:
352,96,186823,1,8,0:0:0:0:
160,96,187010,1,0,0:0:0:0:
160,96,187385,1,0,0:0:0:0:
352,96,187573,1,8,0:0:0:0:
352,96,187760,1,8,0:0:0:0:
160,96,187948,1,0,0:0:0:0:
352,96,188135,1,8,0:0:0:0:
352,96,188323,1,8,0:0:0:0:
160,96,188510,1,0,0:0:0:0:
352,96,188698,1,8,0:0:0:0:
352,96,188885,1,8,0:0:0:0:
160,96,189073,1,0,0:0:0:0:
352,96,189260,1,8,0:0:0:0:
352,96,189448,1,8,0:0:0:0:
160,96,189635,1,0,0:0:0:0:
352,96,189823,1,8,0:0:0:0:
352,96,190010,1,8,0:0:0:0:
352,96,190104,1,8,0:0:0:0:
160,96,190198,1,0,0:0:0:0:
352,96,190291,1,8,0:0:0:0:
160,96,190385,1,0,0:0:0:0:
160,96,190479,1,0,0:0:0:0:
352,96,190573,1,8,0:0:0:0:
352,96,190666,1,8,0:0:0:0:
352,96,190760,1,8,0:0:0:0:
352,96,191510,1,8,0:0:0:0:
352,96,191604,1,8,0:0:0:0:
352,96,191698,1,8,0:0:0:0:
352,96,192448,1,8,0:0:0:0:
352,96,192541,1,8,0:0:0:0:
160,96,192635,1,0,0:0:0:0:
160,96,192729,1,0,0:0:0:0:
352,96,192823,1,8,0:0:0:0:
352,96,192916,1,8,0:0:0:0:
160,96,193010,1,0,0:0:0:0:
160,96,193104,1,0,0:0:0:0:
352,96,193198,1,8,0:0:0:0:
352,96,193291,1,8,0:0:0:0:
352,96,193385,1,8,0:0:0:0:
352,96,193573,1,8,0:0:0:0:
352,96,194323,1,8,0:0:0:0:
352,96,194416,1,8,0:0:0:0:
352,96,194510,1,8,0:0:0:0:
352,96,195260,1,8,0:0:0:0:
352,96,195354,1,8,0:0:0:0:
352,96,195448,1,8,0:0:0:0:
160,96,195635,1,0,0:0:0:0:
352,96,195823,1,8,0:0:0:0:
352,96,195916,1,8,0:0:0:0:
352,96,196010,1,8,0:0:0:0:
352,96,196198,1,8,0:0:0:0:
352,96,196291,1,8,0:0:0:0:
352,96,196385,1,8,0:0:0:0:
352,96,196479,1,8,0:0:0:0:
256,192,196573,12,0,199198,0:0:0:0:
160,96,199573,5,0,0:0:0:0:
160,96,199666,1,0,0:0:0:0:
160,96,199760,1,0,0:0:0:0:
352,96,200323,1,8,0:0:0:0:
160,96,200510,1,0,0:0:0:0:
160,96,200604,1,0,0:0:0:0:
160,96,200698,1,0,0:0:0:0:
352,96,201448,1,8,0:0:0:0:
160,96,201541,1,0,0:0:0:0:
352,96,201635,1,8,0:0:0:0:
352,96,201823,1,8,0:0:0:0:
352,96,201916,1,8,0:0:0:0:
160,96,202010,1,0,0:0:0:0:
352,96,202198,1,8,0:0:0:0:
160,96,202291,1,0,0:0:0:0:
352,96,202385,1,8,0:0:0:0:
160,96,203135,1,0,0:0:0:0:
160,96,203229,1,0,0:0:0:0:
352,288,203323,1,12,0:0:0:0:
352,96,203604,1,8,0:0:0:0:
160,96,203698,1,0,0:0:0:0:
160,96,204260,1,0,0:0:0:0:
160,96,204354,1,0,0:0:0:0:
160,96,204448,1,0,0:0:0:0:
352,96,204823,1,8,0:0:0:0:
160,96,204916,1,0,0:0:0:0:
160,96,205010,1,0,0:0:0:0:
352,96,205104,1,8,0:0:0:0:
160,96,205198,1,0,0:0:0:0:
352,96,205385,1,8,0:0:0:0:
160,288,205573,1,4,0:0:0:0:
160,96,205760,1,0,0:0:0:0:
352,96,205948,1,8,0:0:0:0:
160,96,206041,1,0,0:0:0:0:
160,96,206229,1,0,0:0:0:0:
352,96,206323,1,8,0:0:0:0:
160,96,206510,1,0,0:0:0:0:
160,96,206604,1,0,0:0:0:0:
160,96,206698,1,0,0:0:0:0:
160,96,207447,1,0,0:0:0:0:
352,96,207541,1,8,0:0:0:0:
160,96,207635,1,0,0:0:0:0:
352,96,207823,1,8,0:0:0:0:
160,96,207916,1,0,0:0:0:0:
160,96,208010,1,0,0:0:0:0:
352,96,208198,1,8,0:0:0:0:
160,96,208291,1,0,0:0:0:0:
352,96,208385,1,8,0:0:0:0:
352,96,208948,1,8,0:0:0:0:
160,96,209041,1,0,0:0:0:0:
352,96,209135,1,8,0:0:0:0:
352,288,209323,1,12,0:0:0:0:
160,96,209510,1,0,0:0:0:0:
352,96,209698,1,8,0:0:0:0:
352,96,209760,1,8,0:0:0:0:
352,96,209823,1,8,0:0:0:0:
160,96,209885,1,0,0:0:0:0:
352,96,210260,1,8,0:0:0:0:
352,96,210448,1,8,0:0:0:0:
352,96,210510,1,8,0:0:0:0:
160,96,210573,1,0,0:0:0:0:
160,96,210635,1,0,0:0:0:0:
160,96,210698,1,0,0:0:0:0:
160,96,210760,1,0,0:0:0:0:
352,96,210823,1,8,0:0:0:0:
160,96,210916,1,0,0:0:0:0:
160,96,211010,1,0,0:0:0:0:
352,288,211198,1,12,0:0:0:0:
160,288,211573,1,4,0:0:0:0:
160,96,211760,1,0,0:0:0:0:
352,96,211854,1,8,0:0:0:0:
160,96,211948,1,0,0:0:0:0:
352,96,212041,1,8,0:0:0:0:
352,96,212135,1,8,0:0:0:0:
160,96,212229,1,0,0:0:0:0:
352,96,212323,1,8,0:0:0:0:
352,96,212416,1,8,0:0:0:0:
160,96,212510,1,0,0:0:0:0:
352,96,212604,1,8,0:0:0:0:
160,96,212698,1,0,0:0:0:0:
160,96,212791,1,0,0:0:0:0:
352,96,212885,1,8,0:0:0:0:
160,96,212979,1,0,0:0:0:0:
160,96,213073,1,0,0:0:0:0:
352,96,213166,1,8,0:0:0:0:
352,96,213260,1,8,0:0:0:0:
160,96,213354,1,0,0:0:0:0:
352,96,213448,1,8,0:0:0:0:
352,96,213541,1,8,0:0:0:0:
160,96,213635,1,0,0:0:0:0:
352,96,213729,1,8,0:0:0:0:
352,96,213823,1,8,0:0:0:0:
160,96,213916,1,0,0:0:0:0:
352,96,214010,1,8,0:0:0:0:
160,96,214104,1,0,0:0:0:0:
160,96,214198,1,0,0:0:0:0:
352,96,214291,1,8,0:0:0:0:
160,96,214385,1,0,0:0:0:0:
352,96,214479,1,8,0:0:0:0:
160,96,214573,1,0,0:0:0:0:
160,96,214666,1,0,0:0:0:0:
352,96,214760,1,8,0:0:0:0:
160,96,214854,1,0,0:0:0:0:
352,96,214948,1,8,0:0:0:0:
160,96,215041,1,0,0:0:0:0:
160,96,215135,1,0,0:0:0:0:
352,96,215229,1,8,0:0:0:0:
160,96,215323,1,0,0:0:0:0:
352,96,215416,1,8,0:0:0:0:
160,96,215510,1,0,0:0:0:0:
160,96,215604,1,0,0:0:0:0:
352,96,215698,1,8,0:0:0:0:
160,96,215791,1,0,0:0:0:0:
352,96,215885,1,8,0:0:0:0:
160,96,215979,1,0,0:0:0:0:
160,96,216073,1,0,0:0:0:0:
352,96,216166,1,8,0:0:0:0:
160,96,216260,1,0,0:0:0:0:
352,96,216354,1,8,0:0:0:0:
160,96,216448,1,0,0:0:0:0:
160,96,216541,1,0,0:0:0:0:
352,96,216635,1,8,0:0:0:0:
352,96,216823,1,8,0:0:0:0:
160,96,216963,1,0,0:0:0:0:
352,96,217010,1,8,0:0:0:0:
352,96,217198,1,8,0:0:0:0:
160,96,217338,1,0,0:0:0:0:
352,96,217385,1,8,0:0:0:0:
256,192,217573,2,8,L|192:192,4,43.75
352,96,218323,1,8,0:0:0:0:
160,96,218510,1,0,0:0:0:0:
256,192,218698,2,4,L|192:192,6,43.75
352,96,219448,1,8,0:0:0:0:
352,96,219541,1,8,0:0:0:0:
160,96,219635,1,0,0:0:0:0:
352,96,219729,1,8,0:0:0:0:
160,96,219823,1,0,0:0:0:0:
160,96,219916,1,0,0:0:0:0:
352,96,220010,1,8,0:0:0:0:
352,96,220104,1,8,0:0:0:0:
160,96,220198,1,0,0:0:0:0:
352,96,220291,1,8,0:0:0:0:
160,96,220385,1,0,0:0:0:0:
160,96,220479,1,0,0:0:0:0:
352,96,220573,1,8,0:0:0:0:
160,96,220666,1,0,0:0:0:0:
352,96,220760,1,8,0:0:0:0:
352,96,220854,1,8,0:0:0:0:
160,96,220948,1,0,0:0:0:0:
352,96,221041,1,8,0:0:0:0:
160,96,221135,1,0,0:0:0:0:
160,96,221229,1,0,0:0:0:0:
352,96,221323,1,8,0:0:0:0:
160,96,221416,1,0,0:0:0:0:
352,96,221510,1,8,0:0:0:0:
160,96,221604,1,0,0:0:0:0:
160,96,221698,1,0,0:0:0:0:
352,96,221791,1,8,0:0:0:0:
160,96,221885,1,0,0:0:0:0:
160,96,221979,1,0,0:0:0:0:
352,96,222073,1,8,0:0:0:0:
160,96,222135,1,0,0:0:0:0:
160,96,222198,1,0,0:0:0:0:
352,96,222260,1,8,0:0:0:0:
160,96,222323,1,0,0:0:0:0:
160,96,222385,1,0,0:0:0:0:
352,96,222448,1,8,0:0:0:0:
352,96,222510,1,8,0:0:0:0:
352,96,222573,1,8,0:0:0:0:
160,96,222635,1,0,0:0:0:0:
160,96,222698,1,0,0:0:0:0:
160,96,222760,1,0,0:0:0:0:
352,96,222823,1,8,0:0:0:0:
352,96,222916,1,8,0:0:0:0:
160,96,223010,1,0,0:0:0:0:
352,288,223198,1,12,0:0:0:0:
160,288,223573,1,4,0:0:0:0:
160,96,223760,1,0,0:0:0:0:
352,96,224323,1,8,0:0:0:0:
160,96,224510,1,0,0:0:0:0:
160,96,224604,1,0,0:0:0:0:
160,96,224698,1,0,0:0:0:0:
160,96,225448,1,0,0:0:0:0:
160,96,225541,1,0,0:0:0:0:
160,96,225635,1,0,0:0:0:0:
352,96,225823,1,8,0:0:0:0:
352,96,225916,1,8,0:0:0:0:
160,96,226010,1,0,0:0:0:0:
352,96,226198,1,8,0:0:0:0:
160,96,226291,1,0,0:0:0:0:
160,96,226385,1,0,0:0:0:0:
160,96,227135,1,0,0:0:0:0:
160,96,227229,1,0,0:0:0:0:
352,288,227323,1,12,0:0:0:0:
352,96,227698,1,8,0:0:0:0:
160,96,227885,1,0,0:0:0:0:
160,96,227979,1,0,0:0:0:0:
352,96,228073,1,8,0:0:0:0:
160,96,228260,1,0,0:0:0:0:
160,96,228354,1,0,0:0:0:0:
160,96,228448,1,0,0:0:0:0:
352,96,228635,1,8,0:0:0:0:
352,96,228823,1,8,0:0:0:0:
352,96,228916,1,8,0:0:0:0:
160,96,229010,1,0,0:0:0:0:
352,288,229198,1,12,0:0:0:0:
160,288,229573,1,4,0:0:0:0:
160,96,229760,1,0,0:0:0:0:
352,96,230323,1,8,0:0:0:0:
160,96,230510,1,0,0:0:0:0:
160,96,230604,1,0,0:0:0:0:
160,96,230698,1,0,0:0:0:0:
160,96,231073,1,0,0:0:0:0:
352,96,231448,1,8,0:0:0:0:
160,96,231541,1,0,0:0:0:0:
160,96,231635,1,0,0:0:0:0:
352,96,231823,1,8,0:0:0:0:
352,96,231916,1,8,0:0:0:0:
160,96,232010,1,0,0:0:0:0:
352,96,232198,1,8,0:0:0:0:
160,96,232291,1,0,0:0:0:0:
160,96,232385,1,0,0:0:0:0:
160,96,232760,1,0,0:0:0:0:
352,96,232948,1,8,0:0:0:0:
160,96,233135,1,0,0:0:0:0:
160,96,233229,1,0,0:0:0:0:
352,288,233323,1,12,0:0:0:0:
352,96,233510,1,8,0:0:0:0:
160,96,233698,1,0,0:0:0:0:
352,96,233885,1,8,0:0:0:0:
160,96,234073,1,0,0:0:0:0:
352,96,234260,1,8,0:0:0:0:
160,96,234354,1,0,0:0:0:0:
352,96,234448,1,8,0:0:0:0:
160,96,234635,1,0,0:0:0:0:
352,96,234823,1,8,0:0:0:0:
352,96,234916,1,8,0:0:0:0:
160,96,235010,1,0,0:0:0:0:
352,288,235198,1,12,0:0:0:0:
160,96,235385,1,0,0:0:0:0:
160,288,235573,1,4,0:0:0:0:
256,192,235760,2,0,L|192:192,4,43.75
352,96,236323,1,8,0:0:0:0:
160,96,236416,1,0,0:0:0:0:
160,96,236510,1,0,0:0:0:0:
160,96,236604,1,0,0:0:0:0:
352,96,236698,1,8,0:0:0:0:
352,96,236791,1,8,0:0:0:0:
160,96,236885,1,0,0:0:0:0:
352,96,236979,1,8,0:0:0:0:
352,96,237073,1,8,0:0:0:0:
160,96,237166,1,0,0:0:0:0:
352,96,237260,1,8,0:0:0:0:
160,96,237354,1,0,0:0:0:0:
352,96,237448,1,8,0:0:0:0:
352,96,237541,1,8,0:0:0:0:
160,96,237635,1,0,0:0:0:0:
352,96,237729,1,8,0:0:0:0:
160,96,237823,1,0,0:0:0:0:
352,96,237916,1,8,0:0:0:0:
160,96,238010,1,0,0:0:0:0:
352,96,238104,1,8,0:0:0:0:
352,96,238198,1,8,0:0:0:0:
160,96,238291,1,0,0:0:0:0:
352,96,238385,1,8,0:0:0:0:
352,96,238573,1,8,0:0:0:0:
352,96,238666,1,8,0:0:0:0:
160,96,238760,1,0,0:0:0:0:
352,96,238948,1,8,0:0:0:0:
160,96,239135,1,0,0:0:0:0:
160,96,239229,1,0,0:0:0:0:
352,288,239323,1,12,0:0:0:0:
256,192,239510,2,0,L|192:192,6,43.75
160,96,240260,1,0,0:0:0:0:
160,96,240354,1,0,0:0:0:0:
160,96,240448,1,0,0:0:0:0:
352,96,240823,1,8,0:0:0:0:
160,96,240916,1,0,0:0:0:0:
160,96,241010,1,0,0:0:0:0:
352,288,241198,1,12,0:0:0:0:
160,288,241573,1,4,0:0:0:0:
160,96,241760,1,0,0:0:0:0:
352,96,242323,1,8,0:0:0:0:
352,96,242510,1,8,0:0:0:0:
160,96,242604,1,0,0:0:0:0:
160,96,242698,1,0,0:0:0:0:
352,96,242885,1,8,0:0:0:0:
352,96,243448,1,8,0:0:0:0:
352,96,243541,1,8,0:0:0:0:
352,96,243635,1,8,0:0:0:0:
160,96,243729,1,0,0:0:0:0:
352,96,243823,1,8,0:0:0:0:
160,96,243916,1,0,0:0:0:0:
352,96,244010,1,8,0:0:0:0:
352,96,244104,1,8,0:0:0:0:
160,96,244198,1,0,0:0:0:0:
160,96,244291,1,0,0:0:0:0:
160,96,244385,1,0,0:0:0:0:
160,96,244479,1,0,0:0:0:0:
352,96,244573,1,8,0:0:0:0:
352,96,244666,1,8,0:0:0:0:
160,96,244760,1,0,0:0:0:0:
160,96,244854,1,0,0:0:0:0:
352,96,244948,1,8,0:0:0:0:
352,96,245135,1,8,0:0:0:0:
352,96,245323,1,8,0:0:0:0:
352,96,245385,1,8,0:0:0:0:
160,96,245448,1,0,0:0:0:0:
352,96,245510,1,8,0:0:0:0:
160,96,245573,1,0,0:0:0:0:
160,96,245635,1,0,0:0:0:0:
352,96,245698,1,8,0:0:0:0:
352,96,245760,1,8,0:0:0:0:
160,96,245823,1,0,0:0:0:0:
352,96,245885,1,8,0:0:0:0:
160,96,245948,1,0,0:0:0:0:
160,96,246010,1,0,0:0:0:0:
352,96,246073,1,8,0:0:0:0:
160,96,246135,1,0,0:0:0:0:
160,96,246198,1,0,0:0:0:0:
352,96,246260,1,8,0:0:0:0:
352,96,246323,1,8,0:0:0:0:
160,96,246385,1,0,0:0:0:0:
352,96,246448,1,8,0:0:0:0:
160,96,246510,1,0,0:0:0:0:
160,96,246573,1,0,0:0:0:0:
352,96,246635,1,8,0:0:0:0:
352,96,246698,1,8,0:0:0:0:
160,96,246760,1,0,0:0:0:0:
352,96,246823,1,8,0:0:0:0:
160,96,246885,1,0,0:0:0:0:
160,96,246948,1,0,0:0:0:0:
352,96,247010,1,8,0:0:0:0:
352,96,247073,1,8,0:0:0:0:
160,96,247135,1,0,0:0:0:0:
352,96,247198,1,8,0:0:0:0:
352,96,247260,1,8,0:0:0:0:
160,96,247323,1,0,0:0:0:0:
352,96,247385,1,8,0:0:0:0:
352,96,247448,1,8,0:0:0:0:
160,96,247510,1,0,0:0:0:0:
352,96,247573,1,8,0:0:0:0:
256,192,247760,12,0,250385,0:0:0:0:
160,288,250573,5,4,0:0:0:0:
256,192,250760,12,4,252635,0:0:0:0:
160,288,252823,5,4,0:0:0:0:
160,288,253573,1,4,0:0:0:0:
160,96,253760,1,0,0:0:0:0:
160,96,253854,1,0,0:0:0:0:
352,96,253948,1,8,0:0:0:0:
160,96,254135,1,0,0:0:0:0:
160,96,254229,1,0,0:0:0:0:
352,96,254323,1,8,0:0:0:0:
352,96,254416,1,8,0:0:0:0:
160,96,254510,1,0,0:0:0:0:
352,96,254698,1,8,0:0:0:0:
160,96,254885,1,0,0:0:0:0:
160,96,254979,1,0,0:0:0:0:
352,96,255073,1,8,0:0:0:0:
160,96,255260,1,0,0:0:0:0:
160,96,255354,1,0,0:0:0:0:
160,96,255448,1,0,0:0:0:0:
352,96,255635,1,8,0:0:0:0:
160,96,255729,1,0,0:0:0:0:
352,96,255823,1,8,0:0:0:0:
352,96,255916,1,8,0:0:0:0:
160,96,256010,1,0,0:0:0:0:
352,96,256198,1,8,0:0:0:0:
160,96,256385,1,0,0:0:0:0:
160,96,256479,1,0,0:0:0:0:
352,96,256573,1,8,0:0:0:0:
160,96,256760,1,0,0:0:0:0:
160,96,256854,1,0,0:0:0:0:
160,96,256948,1,0,0:0:0:0:
160,96,257041,1,0,0:0:0:0:
352,96,257135,1,8,0:0:0:0:
160,96,257323,1,0,0:0:0:0:
160,96,257510,1,0,0:0:0:0:
160,96,257604,1,0,0:0:0:0:
352,96,257698,1,8,0:0:0:0:
160,96,257885,1,0,0:0:0:0:
160,96,257979,1,0,0:0:0:0:
352,96,258073,1,8,0:0:0:0:
160,96,258260,1,0,0:0:0:0:
352,96,258354,1,8,0:0:0:0:
160,96,258448,1,0,0:0:0:0:
352,96,258635,1,8,0:0:0:0:
352,96,258729,1,8,0:0:0:0:
160,96,258823,1,0,0:0:0:0:
160,96,259010,1,0,0:0:0:0:
160,96,259104,1,0,0:0:0:0:
352,96,259198,1,8,0:0:0:0:
160,96,259385,1,0,0:0:0:0:
160,96,259479,1,0,0:0:0:0:
352,96,259573,1,8,0:0:0:0:
352,96,259760,1,8,0:0:0:0:
160,96,259948,1,0,0:0:0:0:
160,96,260041,1,0,0:0:0:0:
352,96,260135,1,8,0:0:0:0:
160,96,260229,1,0,0:0:0:0:
352,96,260323,1,8,0:0:0:0:
160,96,260510,1,0,0:0:0:0:
160,96,260604,1,0,0:0:0:0:
352,96,260698,1,8,0:0:0:0:
160,96,260885,1,0,0:0:0:0:
160,96,260979,1,0,0:0:0:0:
352,96,261073,1,8,0:0:0:0:
352,96,261260,1,8,0:0:0:0:
160,96,261448,1,0,0:0:0:0:
160,96,261541,1,0,0:0:0:0:
352,96,261635,1,8,0:0:0:0:
160,96,261729,1,0,0:0:0:0:
352,96,261823,1,8,0:0:0:0:
160,96,262010,1,0,0:0:0:0:
160,96,262104,1,0,0:0:0:0:
352,96,262198,1,8,0:0:0:0:
160,96,262385,1,0,0:0:0:0:
160,96,262479,1,0,0:0:0:0:
352,96,262573,1,8,0:0:0:0:
352,96,262760,1,8,0:0:0:0:
352,96,262854,1,8,0:0:0:0:
160,96,262948,1,0,0:0:0:0:
352,96,263135,1,8,0:0:0:0:
160,96,263229,1,0,0:0:0:0:
352,96,263323,1,8,0:0:0:0:
352,96,263416,1,8,0:0:0:0:
160,96,263510,1,0,0:0:0:0:
352,96,263698,1,8,0:0:0:0:
160,96,263885,1,0,0:0:0:0:
160,96,263979,1,0,0:0:0:0:
352,96,264073,1,8,0:0:0:0:
352,96,264260,1,8,0:0:0:0:
160,96,264448,1,0,0:0:0:0:
352,96,264635,1,8,0:0:0:0:
160,96,264823,1,0,0:0:0:0:
160,96,265010,1,0,0:0:0:0:
160,96,265104,1,0,0:0:0:0:
352,96,265198,1,8,0:0:0:0:
352,96,265291,1,8,0:0:0:0:
352,96,265385,1,8,0:0:0:0:
352,96,265479,1,8,0:0:0:0:
160,288,265573,1,4,0:0:0:0:
160,96,265948,1,0,0:0:0:0:
160,96,266135,1,0,0:0:0:0:
352,96,266323,1,8,0:0:0:0:
160,96,266510,1,0,0:0:0:0:
160,96,266885,1,0,0:0:0:0:
352,96,267073,1,8,0:0:0:0:
160,96,267260,1,0,0:0:0:0:
160,96,267635,1,0,0:0:0:0:
352,96,267823,1,8,0:0:0:0:
160,96,268010,1,0,0:0:0:0:
352,96,268198,1,8,0:0:0:0:
160,96,268385,1,0,0:0:0:0:
160,96,268573,1,0,0:0:0:0:
160,96,268948,1,0,0:0:0:0:
160,96,269135,1,0,0:0:0:0:
352,96,269323,1,8,0:0:0:0:
160,96,269510,1,0,0:0:0:0:
160,96,269698,1,0,0:0:0:0:
160,96,270073,1,0,0:0:0:0:
160,96,270260,1,0,0:0:0:0:
352,96,270448,1,8,0:0:0:0:
160,96,270635,1,0,0:0:0:0:
352,96,270823,1,8,0:0:0:0:
160,96,271010,1,0,0:0:0:0:
352,96,271198,1,8,0:0:0:0:
160,96,271385,1,0,0:0:0:0:
160,96,271573,1,0,0:0:0:0:
352,96,271948,1,8,0:0:0:0:
160,96,272135,1,0,0:0:0:0:
352,96,272323,1,8,0:0:0:0:
160,96,272510,1,0,0:0:0:0:
352,96,272698,1,8,0:0:0:0:
160,96,273073,1,0,0:0:0:0:
160,96,273260,1,0,0:0:0:0:
352,96,273448,1,8,0:0:0:0:
160,96,273635,1,0,0:0:0:0:
352,96,273823,1,8,0:0:0:0:
160,96,274010,1,0,0:0:0:0:
160,96,274385,1,0,0:0:0:0:
352,96,274573,1,8,0:0:0:0:
352,96,274760,1,8,0:0:0:0:
160,96,274948,1,0,0:0:0:0:
352,96,275135,1,8,0:0:0:0:
352,96,275323,1,8,0:0:0:0:
160,96,275510,1,0,0:0:0:0:
352,96,275698,1,8,0:0:0:0:
352,96,275885,1,8,0:0:0:0:
160,96,276073,1,0,0:0:0:0:
352,96,276260,1,8,0:0:0:0:
352,96,276448,1,8,0:0:0:0:
160,96,276635,1,0,0:0:0:0:
352,96,276823,1,8,0:0:0:0:
352,96,277010,1,8,0:0:0:0:
352,96,277104,1,8,0:0:0:0:
160,96,277198,1,0,0:0:0:0:
352,96,277291,1,8,0:0:0:0:
160,96,277385,1,0,0:0:0:0:
160,96,277479,1,0,0:0:0:0:
352,96,277573,1,8,0:0:0:0:
352,96,277635,1,8,0:0:0:0:
352,96,277698,1,8,0:0:0:0:
352,96,277760,1,8,0:0:0:0:
160,96,277823,1,0,0:0:0:0:
160,96,277885,1,0,0:0:0:0:
352,96,277948,1,8,0:0:0:0:
352,96,278010,1,8,0:0:0:0:
352,96,278073,1,8,0:0:0:0:
160,96,278135,1,0,0:0:0:0:
160,96,278198,1,0,0:0:0:0:
160,96,278260,1,0,0:0:0:0:
352,96,278323,1,8,0:0:0:0:
352,96,278385,1,8,0:0:0:0:
160,96,278448,1,0,0:0:0:0:
160,96,278510,1,0,0:0:0:0:
160,96,278573,1,0,0:0:0:0:
160,96,278635,1,0,0:0:0:0:
352,96,278698,1,8,0:0:0:0:
352,96,278760,1,8,0:0:0:0:
352,96,278823,1,8,0:0:0:0:
160,96,278885,1,0,0:0:0:0:
160,96,278948,1,0,0:0:0:0:
160,96,279010,1,0,0:0:0:0:
352,96,279073,1,8,0:0:0:0:
352,96,279135,1,8,0:0:0:0:
352,96,279198,1,8,0:0:0:0:
352,96,279260,1,8,0:0:0:0:
160,96,279323,1,0,0:0:0:0:
160,96,279385,1,0,0:0:0:0:
352,96,279448,1,8,0:0:0:0:
352,96,279510,1,8,0:0:0:0:
352,96,279573,1,8,0:0:0:0:
160,96,279635,1,0,0:0:0:0:
160,96,279698,1,0,0:0:0:0:
160,96,279760,1,0,0:0:0:0:
352,96,279823,1,8,0:0:0:0:
352,96,279885,1,8,0:0:0:0:
160,96,279948,1,0,0:0:0:0:
160,96,280010,1,0,0:0:0:0:
160,96,280073,1,0,0:0:0:0:
160,96,280135,1,0,0:0:0:0:
352,96,280198,1,8,0:0:0:0:
352,96,280260,1,8,0:0:0:0:
352,96,280323,1,8,0:0:0:0:
160,96,280385,1,0,0:0:0:0:
160,96,280448,1,0,0:0:0:0:
160,96,280510,1,0,0:0:0:0:
352,96,280573,1,8,0:0:0:0:
352,96,280760,1,8,0:0:0:0:
352,96,280823,1,8,0:0:0:0:
352,96,280885,1,8,0:0:0:0:
160,96,280948,1,0,0:0:0:0:
160,96,281010,1,0,0:0:0:0:
160,96,281073,1,0,0:0:0:0:
352,96,281135,1,8,0:0:0:0:
352,96,281323,1,8,0:0:0:0:
352,96,281385,1,8,0:0:0:0:
160,96,281448,1,0,0:0:0:0:
160,96,281510,1,0,0:0:0:0:
160,96,281573,1,0,0:0:0:0:
160,96,281635,1,0,0:0:0:0:
352,96,281698,1,8,0:0:0:0:
352,96,281885,1,8,0:0:0:0:
160,96,281948,1,0,0:0:0:0:
160,96,282010,1,0,0:0:0:0:
160,96,282073,1,0,0:0:0:0:
160,96,282135,1,0,0:0:0:0:
160,96,282198,1,0,0:0:0:0:
352,96,282260,1,8,0:0:0:0:
160,96,282448,1,0,0:0:0:0:
160,96,282510,1,0,0:0:0:0:
160,96,282573,1,0,0:0:0:0:
160,96,282635,1,0,0:0:0:0:
160,96,282698,1,0,0:0:0:0:
160,96,282760,1,0,0:0:0:0:
352,96,282823,1,8,0:0:0:0:
160,96,283010,1,0,0:0:0:0:
352,96,283198,1,8,0:0:0:0:
160,96,283385,1,0,0:0:0:0:
160,96,283573,1,0,0:0:0:0:
160,96,283948,1,0,0:0:0:0:
160,96,284135,1,0,0:0:0:0:
352,96,284323,1,8,0:0:0:0:
160,96,284385,1,0,0:0:0:0:
160,96,284448,1,0,0:0:0:0:
160,96,284510,1,0,0:0:0:0:
160,96,284573,1,0,0:0:0:0:
160,96,284635,1,0,0:0:0:0:
352,96,284698,1,8,0:0:0:0:
352,96,284760,1,8,0:0:0:0:
160,96,284823,1,0,0:0:0:0:
160,96,284885,1,0,0:0:0:0:
160,96,284948,1,0,0:0:0:0:
160,96,285010,1,0,0:0:0:0:
352,96,285073,1,8,0:0:0:0:
160,96,285135,1,0,0:0:0:0:
160,96,285198,1,0,0:0:0:0:
352,96,285260,1,8,0:0:0:0:
352,96,285323,1,8,0:0:0:0:
160,96,285385,1,0,0:0:0:0:
352,96,285448,1,8,0:0:0:0:
352,96,285510,1,8,0:0:0:0:
160,96,285573,1,0,0:0:0:0:
160,96,285635,1,0,0:0:0:0:
160,96,285698,1,0,0:0:0:0:
160,96,285760,1,0,0:0:0:0:
352,96,285823,1,8,0:0:0:0:
352,96,285885,1,8,0:0:0:0:
352,96,285948,1,8,0:0:0:0:
160,96,286010,1,0,0:0:0:0:
160,96,286073,1,0,0:0:0:0:
160,96,286135,1,0,0:0:0:0:
352,96,286198,1,8,0:0:0:0:
352,96,286260,1,8,0:0:0:0:
352,96,286323,1,8,0:0:0:0:
160,96,286385,1,0,0:0:0:0:
160,96,286448,1,0,0:0:0:0:
160,96,286510,1,0,0:0:0:0:
352,96,286573,1,8,0:0:0:0:
160,96,286948,1,0,0:0:0:0:
352,96,287135,1,8,0:0:0:0:
352,96,287322,1,8,0:0:0:0:
352,96,287416,1,8,0:0:0:0:
160,96,287510,1,0,0:0:0:0:
160,96,287698,1,0,0:0:0:0:
352,96,287885,1,8,0:0:0:0:
352,96,288260,1,8,0:0:0:0:
352,96,288448,1,8,0:0:0:0:
160,96,288635,1,0,0:0:0:0:
352,96,288823,1,8,0:0:0:0:
352,96,289010,1,8,0:0:0:0:
352,96,289104,1,8,0:0:0:0:
160,96,289198,1,0,0:0:0:0:
352,96,289291,1,8,0:0:0:0:
352,96,289385,1,8,0:0:0:0:
352,96,289479,1,8,0:0:0:0:
160,288,289573,1,4,0:0:0:0:
160,96,289760,1,0,0:0:0:0:
160,96,289854,1,0,0:0:0:0:
352,96,289948,1,8,0:0:0:0:
160,96,290041,1,0,0:0:0:0:
160,96,290135,1,0,0:0:0:0:
160,96,290229,1,0,0:0:0:0:
352,96,290323,1,8,0:0:0:0:
352,96,290416,1,8,0:0:0:0:
160,96,290510,1,0,0:0:0:0:
352,96,290604,1,8,0:0:0:0:
352,96,290698,1,8,0:0:0:0:
352,96,290791,1,8,0:0:0:0:
160,96,290885,1,0,0:0:0:0:
160,96,290979,1,0,0:0:0:0:
352,96,291073,1,8,0:0:0:0:
160,96,291166,1,0,0:0:0:0:
160,96,291260,1,0,0:0:0:0:
160,96,291354,1,0,0:0:0:0:
352,96,291448,1,8,0:0:0:0:
352,96,291541,1,8,0:0:0:0:
160,96,291635,1,0,0:0:0:0:
352,96,291729,1,8,0:0:0:0:
352,96,291823,1,8,0:0:0:0:
352,96,291916,1,8,0:0:0:0:
160,96,292010,1,0,0:0:0:0:
352,96,292104,1,8,0:0:0:0:
352,96,292198,1,8,0:0:0:0:
160,96,292291,1,0,0:0:0:0:
352,96,292385,1,8,0:0:0:0:
160,96,292479,1,0,0:0:0:0:
352,96,292573,1,8,0:0:0:0:
160,96,292666,1,0,0:0:0:0:
160,96,292760,1,0,0:0:0:0:
352,96,292854,1,8,0:0:0:0:
352,96,292948,1,8,0:0:0:0:
160,96,293041,1,0,0:0:0:0:
160,96,293135,1,0,0:0:0:0:
352,96,293229,1,8,0:0:0:0:
352,96,293323,1,8,0:0:0:0:
160,96,293416,1,0,0:0:0:0:
352,96,293510,1,8,0:0:0:0:
160,96,293604,1,0,0:0:0:0:
352,96,293698,1,8,0:0:0:0:
352,96,293791,1,8,0:0:0:0:
352,96,293885,1,8,0:0:0:0:
160,96,293979,1,0,0:0:0:0:
352,96,294073,1,8,0:0:0:0:
352,96,294166,1,8,0:0:0:0:
160,96,294260,1,0,0:0:0:0:
352,96,294354,1,8,0:0:0:0:
160,96,294448,1,0,0:0:0:0:
160,96,294541,1,0,0:0:0:0:
352,96,294635,1,8,0:0:0:0:
160,96,294729,1,0,0:0:0:0:
352,96,294823,1,8,0:0:0:0:
352,96,294916,1,8,0:0:0:0:
352,96,295010,1,8,0:0:0:0:
160,96,295104,1,0,0:0:0:0:
352,96,295198,1,8,0:0:0:0:
160,96,295291,1,0,0:0:0:0:
352,96,295385,1,8,0:0:0:0:
352,96,295479,1,8,0:0:0:0:
352,96,295573,1,8,0:0:0:0:
352,96,295948,1,8,0:0:0:0:
352,96,296073,1,8,0:0:0:0:
160,96,296198,1,0,0:0:0:0:
352,96,296323,1,8,0:0:0:0:
160,96,296448,1,0,0:0:0:0:
160,96,296573,1,0,0:0:0:0:
160,96,296698,1,0,0:0:0:0:
352,96,296823,1,8,0:0:0:0:
160,96,296948,1,0,0:0:0:0:
160,96,297067,1,0,0:0:0:0:
352,96,297186,1,8,0:0:0:0:
160,96,297311,1,0,0:0:0:0:
352,96,297436,1,8,0:0:0:0:
352,96,297561,1,8,0:0:0:0:
352,96,297686,1,8,0:0:0:0:
160,96,297811,1,0,0:0:0:0:
352,96,297936,1,8,0:0:0:0:
160,96,298061,1,0,0:0:0:0:
352,96,298186,1,8,0:0:0:0:
160,96,298311,1,0,0:0:0:0:
352,96,298436,1,8,0:0:0:0:
352,96,298561,1,8,0:0:0:0:
160,96,298948,1,0,0:0:0:0:
160,96,299135,1,0,0:0:0:0:
160,96,299229,1,0,0:0:0:0:
352,96,299323,1,8,0:0:0:0:
352,96,299416,1,8,0:0:0:0:
352,96,299510,1,8,0:0:0:0:
160,96,299604,1,0,0:0:0:0:
352,96,299698,1,8,0:0:0:0:
352,96,299791,1,8,0:0:0:0:
160,96,299885,1,0,0:0:0:0:
160,96,299979,1,0,0:0:0:0:
352,96,300073,1,8,0:0:0:0:
160,96,300166,1,0,0:0:0:0:
352,96,300260,1,8,0:0:0:0:
160,96,300354,1,0,0:0:0:0:
352,96,300448,1,8,0:0:0:0:
352,96,300541,1,8,0:0:0:0:
160,96,300635,1,0,0:0:0:0:
352,96,300729,1,8,0:0:0:0:
352,96,300823,1,8,0:0:0:0:
160,96,300916,1,0,0:0:0:0:
352,96,301010,1,8,0:0:0:0:
352,96,301104,1,8,0:0:0:0:
160,96,301198,1,0,0:0:0:0:
160,96,301291,1,0,0:0:0:0:
160,96,301385,1,0,0:0:0:0:
160,96,301479,1,0,0:0:0:0:
352,96,301573,1,8,0:0:0:0:
352,96,301666,1,8,0:0:0:0:
160,96,301760,1,0,0:0:0:0:
160,96,301854,1,0,0:0:0:0:
352,96,301948,1,8,0:0:0:0:
352,96,302041,1,8,0:0:0:0:
160,96,302135,1,0,0:0:0:0:
160,96,302229,1,0,0:0:0:0:
352,96,302323,1,8,0:0:0:0:
160,96,302416,1,0,0:0:0:0:
352,96,302510,1,8,0:0:0:0:
352,96,302604,1,8,0:0:0:0:
352,96,302698,1,8,0:0:0:0:
352,96,303448,1,8,0:0:0:0:
352,96,303541,1,8,0:0:0:0:
352,96,303635,1,8,0:0:0:0:
352,96,303823,1,8,0:0:0:0:
352,96,303916,1,8,0:0:0:0:
352,96,304010,1,8,0:0:0:0:
352,96,304198,1,8,0:0:0:0:
352,96,304291,1,8,0:0:0:0:
352,96,304385,1,8,0:0:0:0:
