osu file format v14

[General]
AudioFilename: audio.mp3
AudioLeadIn: 0
PreviewTime: 363
Countdown: 0
SampleSet: Soft
StackLeniency: 0.6
Mode: 0
LetterboxInBreaks: 0
WidescreenStoryboard: 0

[Editor]
Bookmarks: 13163,25963,38763,51563,64363,70363,79963,89963,96363,109163,120363,121963,134763,147563,158763,160363,173163,198763,211029,211563,223563,224363,237163,243563,249963,262763,275563,288363,313963,326763,339563,365163,377963,390763,401963,403563,416363,419563,422763,425963,427963
DistanceSpacing: 0.1
BeatDivisor: 4
GridSize: 4
TimelineZoom: 6.500001

[Metadata]
Title:Skyless (feat. Jeff Loomis)
TitleUnicode:Skyless (feat. Jeff Loomis)
Artist:Andy Gillion
ArtistUnicode:Andy Gillion
Creator:NiniDialga
Version:Hope
Source:
Tags:mappers guild mpg 66samus sam symphonic never after Pisapou fa metal instrumental neverafter paulicelli piano featured artist
BeatmapID:3933443
BeatmapSetID:1907038

[Difficulty]
HPDrainRate:4.5
CircleSize:4.2
OverallDifficulty:9.5
ApproachRate:9.8
SliderMultiplier:2.1
SliderTickRate:1

[Events]
//Background and Video events
0,0,"ouia.jpg",0,0
//Break Periods
2,93363,95884
2,282163,287884
//Storyboard Layer 0 (Background)
//Storyboard Layer 1 (Fail)
//Storyboard Layer 2 (Pass)
//Storyboard Layer 3 (Foreground)
//Storyboard Layer 4 (Overlay)
//Storyboard Sound Samples

[TimingPoints]
363,266.666666666667,6,2,0,43,1,0
38763,-222.222222222221,6,2,1,63,0,0
49963,-200,6,2,1,63,0,0
51563,-100,6,2,1,73,0,0
57963,-90.9090909090909,6,2,1,73,0,0
64363,-83.3333333333333,6,2,1,83,0,1
75829,-90.9090909090909,6,2,1,83,0,1
75963,-111.111111111111,6,2,1,83,0,1
76096,-125,6,2,1,83,0,1
76229,-142.857142857143,6,2,1,83,0,1
76363,-83.3333333333333,6,2,1,83,0,1
89963,-83.3333333333333,6,2,1,53,0,0
96363,-90.9090909090909,6,2,1,63,0,0
109163,-83.3333333333333,6,2,1,63,0,0
120363,-83.3333333333333,6,2,1,43,0,0
121963,-71.4285714285714,6,2,1,83,0,1
122029,-71.4285714285714,6,2,1,5,0,1
122096,-71.4285714285714,6,2,1,83,0,1
122163,-71.4285714285714,6,2,1,5,0,1
122229,-71.4285714285714,6,2,1,83,0,1
123363,-71.4285714285714,6,2,1,5,0,1
123429,-71.4285714285714,6,2,1,83,0,1
123496,-71.4285714285714,6,2,1,5,0,1
123563,-71.4285714285714,6,2,1,83,0,1
124163,-71.4285714285714,6,2,1,5,0,1
124229,-71.4285714285714,6,2,1,83,0,1
124296,-71.4285714285714,6,2,1,5,0,1
124363,-71.4285714285714,6,2,1,83,0,1
124963,-71.4285714285714,6,2,1,83,0,1
125029,-71.4285714285714,6,2,1,83,0,1
125096,-71.4285714285714,6,2,1,5,0,1
125163,-71.4285714285714,6,2,1,83,0,1
126563,-71.4285714285714,6,2,1,5,0,1
126629,-71.4285714285714,6,2,1,83,0,1
126696,-71.4285714285714,6,2,1,5,0,1
126763,-71.4285714285714,6,2,1,83,0,1
127363,-71.4285714285714,6,2,1,5,0,1
127429,-71.4285714285714,6,2,1,83,0,1
127496,-71.4285714285714,6,2,1,5,0,1
127563,-71.4285714285714,6,2,1,83,0,1
127629,-71.4285714285714,6,2,1,5,0,1
127696,-71.4285714285714,6,2,1,83,0,1
127896,-71.4285714285714,6,2,1,5,0,1
127963,-71.4285714285714,6,2,1,83,0,1
128029,-71.4285714285714,6,2,1,5,0,1
128096,-71.4285714285714,6,2,1,83,0,1
128163,-71.4285714285714,6,2,1,5,0,1
128229,-71.4285714285714,6,2,1,83,0,1
128296,-71.4285714285714,6,2,1,5,0,1
128363,-68.9655172413793,6,2,1,83,0,1
129763,-68.9655172413793,6,2,1,5,0,1
129829,-68.9655172413793,6,2,1,83,0,1
129896,-68.9655172413793,6,2,1,5,0,1
129963,-68.9655172413793,6,2,1,83,0,1
133963,-100,6,2,1,83,0,0
134496,-83.3333333333333,6,2,1,83,0,0
134763,-83.3333333333333,6,2,1,83,0,1
147563,-100,6,2,1,73,0,0
153963,-90.9090909090909,6,2,1,73,0,0
160363,-100,6,2,1,73,0,0
166763,-90.9090909090909,6,2,1,73,0,0
173163,-83.3333333333333,6,2,1,83,0,1
198763,-71.4285714285714,6,2,1,73,0,0
222763,-71.4285714285714,6,2,1,73,0,0
224363,-83.3333333333333,6,2,1,73,0,1
237163,-83.3333333333333,6,2,1,83,0,0
239296,-83.3333333333333,6,2,1,53,0,0
240363,-83.3333333333333,6,2,1,83,0,0
242496,-83.3333333333333,6,2,1,53,0,0
243563,-83.3333333333333,6,2,1,83,0,0
245696,-83.3333333333333,6,2,1,63,0,0
246763,-83.3333333333333,6,2,1,83,0,0
248896,-83.3333333333333,6,2,1,53,0,0
249963,-83.3333333333333,6,2,1,83,0,0
252096,-83.3333333333333,6,2,1,63,0,0
253163,-83.3333333333333,6,2,1,83,0,0
255296,-83.3333333333333,6,2,1,63,0,0
256363,-83.3333333333333,6,2,1,83,0,0
258496,-83.3333333333333,6,2,1,73,0,0
259563,-83.3333333333333,6,2,1,83,0,0
261696,-83.3333333333333,6,2,1,73,0,0
262763,-76.9230769230769,6,2,1,83,0,1
264896,-76.9230769230769,6,2,1,83,0,1
265963,-76.9230769230769,6,2,1,83,0,1
268229,-76.9230769230769,6,2,1,83,0,1
269163,-76.9230769230769,6,2,1,83,0,1
271296,-76.9230769230769,6,2,1,83,0,1
272363,-76.9230769230769,6,2,1,83,0,1
274496,-76.9230769230769,6,2,1,83,0,1
275029,-76.9230769230769,6,2,1,83,0,1
275563,-598.802395209581,6,2,1,63,0,0
288363,-250,6,2,1,43,0,0
296629,-250,6,2,1,43,0,0
296896,-166.666666666667,6,2,1,43,0,0
297229,-125,6,2,1,43,0,0
297363,-125,6,2,1,43,0,0
297696,-142.857142857143,6,2,1,43,0,0
297963,-166.666666666667,6,2,1,43,0,0
300496,-250.000000000001,6,2,1,43,0,0
302007,-250.000000000001,6,2,1,43,0,0
302396,-166.666666666667,6,2,1,43,0,0
302807,-125,6,2,1,43,0,0
304629,-166.666666666667,6,2,1,43,0,0
305163,-250.000000000001,6,2,1,43,0,0
312363,-166.666666666667,6,2,1,43,0,0
313563,-166.666666666667,6,2,1,63,0,0
313963,-83.3333333333333,6,2,1,73,0,0
326763,-80,6,2,1,73,0,0
339563,-76.9230769230769,6,2,1,73,0,1
364629,-76.9230769230769,6,2,1,73,0,0
365163,-71.4285714285714,6,2,1,83,0,1
365229,-71.4285714285714,6,2,1,5,0,1
365296,-71.4285714285714,6,2,1,83,0,1
365363,-71.4285714285714,6,2,1,5,0,1
365429,-71.4285714285714,6,2,1,83,0,1
366563,-71.4285714285714,6,2,1,5,0,1
366629,-71.4285714285714,6,2,1,83,0,1
366696,-71.4285714285714,6,2,1,5,0,1
366763,-71.4285714285714,6,2,1,83,0,1
367363,-71.4285714285714,6,2,1,5,0,1
367429,-71.4285714285714,6,2,1,83,0,1
367496,-71.4285714285714,6,2,1,5,0,1
367563,-71.4285714285714,6,2,1,83,0,1
368163,-71.4285714285714,6,2,1,83,0,1
368229,-71.4285714285714,6,2,1,83,0,1
368296,-71.4285714285714,6,2,1,5,0,1
368363,-71.4285714285714,6,2,1,83,0,1
369763,-71.4285714285714,6,2,1,5,0,1
369829,-71.4285714285714,6,2,1,83,0,1
369896,-71.4285714285714,6,2,1,5,0,1
369963,-71.4285714285714,6,2,1,83,0,1
370563,-71.4285714285714,6,2,1,5,0,1
370629,-71.4285714285714,6,2,1,83,0,1
370696,-71.4285714285714,6,2,1,5,0,1
370763,-71.4285714285714,6,2,1,83,0,1
370829,-71.4285714285714,6,2,1,5,0,1
370896,-71.4285714285714,6,2,1,83,0,1
371096,-71.4285714285714,6,2,1,5,0,1
371163,-71.4285714285714,6,2,1,83,0,1
371229,-71.4285714285714,6,2,1,5,0,1
371296,-71.4285714285714,6,2,1,83,0,1
371363,-71.4285714285714,6,2,1,5,0,1
371429,-71.4285714285714,6,2,1,83,0,1
371496,-71.4285714285714,6,2,1,5,0,1
371563,-71.4285714285714,6,2,1,83,0,1
372963,-71.4285714285714,6,2,1,83,0,1
373029,-71.4285714285714,6,2,1,83,0,1
373096,-71.4285714285714,6,2,1,5,0,1
373163,-71.4285714285714,6,2,1,83,0,1
379296,-83.3333333333333,6,2,1,83,0,1
390763,-100,6,2,1,83,0,0
397163,-90.9090909090909,6,2,1,83,0,0
403563,-100,6,2,1,83,0,0
409963,-90.9090909090909,6,2,1,83,0,0
416363,-71.4285714285714,6,2,1,83,0,1
418496,-71.4285714285714,6,2,1,63,0,0
419563,-71.4285714285714,6,2,1,83,0,1
421696,-71.4285714285714,6,2,1,63,0,0
422763,-71.4285714285714,6,2,1,83,0,1
424896,-71.4285714285714,6,2,1,63,0,0
425963,-71.4285714285714,6,2,1,83,0,1
427963,-181.818181818181,6,2,1,83,0,0

[Colours]
Combo1 : 255,128,140
Combo2 : 109,205,228
Combo3 : 255,228,121
Combo4 : 156,228,146

[HitObjects]
279,120,38763,6,0,B|299:106|306:59|257:0|194:29|177:55|177:55|178:62|178:62|145:99|172:158|218:164|218:164|219:171|219:171|273:174|293:136|293:136|348:62|447:98|437:152|437:152|434:160|434:160|507:222|447:303|447:303|444:228|338:179|292:245|292:245|344:212|384:245,1,1086.74996683502,4|0,0:0|0:0,0:0:0:0:
347,339,41963,6,0,B|375:348|414:338|451:268|357:216|289:239|243:296|264:381|264:381|216:293|268:238|268:238|274:239|274:239|275:234|275:234|281:235|281:235|283:230|283:230|289:229|289:229|290:224|290:224|295:224|295:224|297:219|297:219|303:218|303:218|306:212|306:212|312:209|312:209|314:203|314:203|368:123|355:37|269:-43|152:-44|92:52|96:154|171:212|254:184|268:121|228:90,1,1086.74996683502,6|0,1:2|0:0,0:0:0:0:
113,228,45163,6,0,B|48:174|-25:217|-25:217|14:156|90:131|217:195|196:316|196:316|328:231|316:39|206:-67|-3:-33|-6:160|125:173|148:102,1,1086.74996683502,4|0,0:0|0:0,0:0:0:0:
215,33,48363,6,0,B|261:14|329:38|347:89|347:89|343:93|343:93|361:146|433:177|482:155|516:107|516:107|509:94|509:94|458:156|397:114,1,519.749984138489,4|0,0:0|0:0,0:0:0:0:
264,109,49963,6,0,B|103:118|46:311|133:402|221:432|346:398|313:253|213:288,1,577.5,4|0,0:0|0:0,0:0:0:0:
395,221,51563,5,6,1:2:0:0:
334,163,51696,1,8,2:2:0:0:
512,64,51829,1,0,1:1:0:0:
477,140,51963,1,10,2:2:0:0:
284,97,52096,6,0,B|336:81|336:81|341:81|341:81|387:65,1,105,2|8,1:2|2:2,0:0:0:0:
182,269,52363,2,0,B|139:289|139:289|135:293|135:293|83:317,1,105,2|8,1:2|2:2,0:0:0:0:
32,164,52629,1,0,1:1:0:0:
88,226,52763,1,10,2:2:0:0:
197,0,52896,6,0,B|218:41|218:41|199:106,1,105,2|10,1:2|2:2,0:0:0:0:
354,262,53163,2,0,B|326:197|326:197|336:157,1,105,2|8,1:2|2:2,0:0:0:0:
494,15,53429,1,0,1:2:0:0:
341,153,53563,1,10,2:2:0:0:
281,93,53696,1,0,1:1:0:0:
339,32,53829,1,8,2:2:0:0:
295,309,53963,6,0,B|352:298|352:298|357:299|357:299|407:290,1,105,2|8,1:2|2:2,0:0:0:0:
205,97,54229,2,0,B|177:89|177:89|152:106,1,52.5,0|0,1:1|0:0,0:0:0:0:
19,182,54363,2,0,B|102:169|102:169|152:186|152:186|230:171,1,210,14|10,2:2|2:2,0:0:0:0:
100,252,54763,5,6,1:2:0:0:
41,312,54896,1,8,2:2:0:0:
55,74,55029,1,0,1:1:0:0:
100,144,55163,1,8,2:2:0:0:
238,0,55296,6,0,B|187:10|187:10|182:12|182:12|128:22,1,105,2|8,1:2|2:2,0:0:0:0:
392,114,55563,2,0,B|445:104|445:104|449:106|449:106|507:95,1,105,2|8,1:2|2:2,0:0:0:0:
356,251,55829,1,0,1:1:0:0:
303,185,55963,1,8,2:2:0:0:
171,342,56096,6,0,B|231:327|231:327|236:328|236:328|289:315,1,105,2|8,1:2|2:2,0:0:0:0:
103,140,56363,2,0,B|52:150|52:150|46:153|46:153|-15:165,1,105,2|8,1:2|2:2,0:0:0:0:
256,0,56629,1,0,1:1:0:0:
308,65,56763,1,8,2:2:0:0:
220,244,56896,6,0,B|209:193|209:193|210:189|210:189|199:141,1,105,2|8,1:2|2:2,0:0:0:0:
324,350,57163,2,0,B|340:299|340:299|340:293|340:293|355:250,1,105,6|8,1:2|2:2,0:0:0:0:
354,239,57363,1,0,1:2:0:0:
352,228,57429,1,0,1:1:0:0:
219,333,57563,1,8,2:2:0:0:
478,184,57696,1,2,1:2:0:0:
468,179,57763,1,0,1:2:0:0:
458,175,57829,1,10,2:2:0:0:
294,38,57963,5,6,1:2:0:0:
352,124,58096,1,8,2:2:0:0:
155,228,58229,1,0,1:1:0:0:
184,126,58363,1,8,2:2:0:0:
219,333,58496,6,0,B|182:323|182:323|148:332|148:332|102:319,1,115.50000352478,2|8,1:2|2:2,0:0:0:0:
398,201,58763,2,0,B|445:191|445:191|475:199|475:199|520:190,1,115.50000352478,2|8,1:2|2:2,0:0:0:0:
269,175,59029,1,0,1:1:0:0:
310,283,59163,1,8,2:2:0:0:
409,35,59296,6,0,B|368:29|368:29|336:41|336:41|277:32,1,115.50000352478,2|8,1:2|2:2,0:0:0:0:
42,205,59563,2,0,B|83:210|83:210|115:199|115:199|174:208,1,115.50000352478,2|8,1:2|2:2,0:0:0:0:
179,384,59829,1,0,1:1:0:0:
126,280,59963,1,8,2:2:0:0:
391,261,60096,6,0,B|363:269|363:269|332:258,1,57.7500017623902,2|0,1:2|0:0,0:0:0:0:
127,115,60229,2,0,B|157:111|157:111|185:121,1,57.7500017623902,10|0,2:2|0:0,0:0:0:0:
256,313,60363,2,0,B|245:223|245:223|265:173|265:173|259:81,1,231.000007049561,6|2,1:2|1:2,0:0:0:0:
395,7,60763,5,10,2:2:0:0:
464,94,60896,1,2,1:2:0:0:
292,194,61029,1,10,2:2:0:0:
370,363,61163,5,6,1:2:0:0:
463,295,61296,1,8,2:2:0:0:
193,135,61429,1,0,1:1:0:0:
292,194,61563,1,10,2:2:0:0:
132,318,61696,6,0,B|95:306|95:306|56:316|56:316|5:299,1,115.50000352478,2|10,1:2|2:2,0:0:0:0:
355,136,61963,2,0,B|391:148|391:148|431:138|431:138|482:155,1,115.50000352478,2|8,1:2|2:2,0:0:0:0:
263,82,62229,1,0,1:1:0:0:
292,194,62363,1,8,2:2:0:0:
387,22,62496,6,0,B|345:12|345:12|312:17|312:17|268:6,1,115.50000352478,2|8,1:2|2:2,0:0:0:0:
272,274,62763,2,0,B|318:284|318:284|343:303|343:303|394:313,1,115.50000352478,6|8,1:2|2:2,0:0:0:0:
465,149,63029,1,0,1:1:0:0:
409,223,63163,1,8,2:2:0:0:
150,208,63296,6,0,B|180:219|180:219|211:209,1,57.7500017623902,2|0,0:0|0:0,0:0:0:0:
387,22,63429,2,0,B|357:15|357:15|325:25,1,57.7500017623902,10|0,0:0|0:0,0:0:0:0:
0,13,63563,5,10,1:2:0:0:
30,68,63629,1,8,2:2:0:0:
88,94,63696,1,0,1:1:0:0:
148,73,63763,1,0,1:1:0:0:
170,14,63829,1,0,1:1:0:0:
160,6,63896,1,0,1:1:0:0:
149,0,63963,2,0,B|149:32|149:32|151:37|151:37|152:68,1,57.7500017623902,10|0,2:3|0:0,0:0:0:0:
199,217,64096,1,10,2:3:0:0:
187,215,64163,1,8,2:3:0:0:
175,212,64229,1,6,2:3:0:0:
163,210,64296,1,4,2:3:0:0:
150,208,64363,5,6,1:2:0:0:
360,139,64496,1,0,0:0:0:0:
431,200,64629,1,2,2:2:0:0:
369,259,64763,1,0,0:0:0:0:
288,97,64896,1,2,1:2:0:0:
370,53,65029,1,2,1:2:0:0:
472,369,65163,5,10,2:2:0:0:
369,259,65296,1,2,2:2:0:0:
209,333,65429,1,2,1:2:0:0:
291,384,65563,1,0,1:1:0:0:
170,228,65696,1,2,1:2:0:0:
0,307,65829,1,0,1:1:0:0:
89,62,65963,5,2,1:2:0:0:
224,124,66096,1,0,0:0:0:0:
283,62,66229,1,2,1:2:0:0:
151,0,66363,1,2,1:2:0:0:
319,145,66496,1,2,1:2:0:0:
380,84,66629,1,2,1:2:0:0:
438,374,66763,5,10,2:2:0:0:
266,269,66896,1,2,1:2:0:0:
186,329,67029,1,2,1:2:0:0:
247,378,67163,1,2,1:2:0:0:
171,242,67296,2,0,B|113:262|113:262|108:267|108:267|48:288,1,125.999996154785,2|2,1:2|1:2,0:0:0:0:
444,36,67563,5,6,1:2:0:0:
362,206,67696,1,0,1:1:0:0:
425,279,67829,1,2,2:2:0:0:
473,186,67963,1,0,1:1:0:0:
304,280,68096,1,2,2:2:0:0:
359,357,68229,1,2,1:2:0:0:
183,114,68363,5,10,2:2:0:0:
362,206,68496,1,0,0:0:0:0:
411,137,68629,1,2,1:2:0:0:
334,9,68763,1,0,1:1:0:0:
231,211,68896,1,2,1:2:0:0:
304,280,69029,1,2,1:2:0:0:
181,28,69163,6,0,B|119:35|119:35|113:38|113:38|48:46,1,125.999996154785,2|0,1:2|0:0,0:0:0:0:
373,201,69429,2,0,B|437:219|437:219|441:222|441:222|500:236,1,125.999996154785,2|0,1:2|0:0,0:0:0:0:
264,365,69696,5,2,1:2:0:0:
126,246,69829,1,2,2:2:0:0:
323,84,69963,1,10,2:2:0:0:
262,145,70096,1,2,1:2:0:0:
147,73,70229,1,2,1:2:0:0:
218,8,70363,2,0,B|240:139|240:139|244:142|244:142|268:267,1,251.999992309571,2|0,1:2|1:1,0:0:0:0:
126,246,70763,5,6,1:2:0:0:
325,306,70896,1,0,0:0:0:0:
370,228,71029,1,2,1:2:0:0:
243,338,71163,1,0,1:1:0:0:
214,128,71296,1,2,1:2:0:0:
289,72,71429,1,2,1:2:0:0:
479,284,71563,5,10,2:2:0:0:
309,160,71696,1,2,1:2:0:0:
244,225,71829,1,2,1:2:0:0:
393,359,71963,1,0,1:1:0:0:
324,294,72096,1,2,1:2:0:0:
110,383,72229,1,2,1:2:0:0:
51,193,72363,5,2,1:2:0:0:
130,135,72496,1,2,2:2:0:0:
244,225,72629,1,2,1:2:0:0:
125,302,72763,1,0,1:1:0:0:
44,98,72896,1,2,1:2:0:0:
114,50,73029,1,2,1:2:0:0:
334,41,73163,5,10,2:2:0:0:
130,135,73296,1,0,1:1:0:0:
326,244,73429,1,2,2:2:0:0:
214,361,73563,5,2,1:2:0:0:
211,354,73629,1,2,2:2:0:0:
211,347,73696,1,2,2:2:0:0:
208,340,73763,1,2,2:2:0:0:
207,333,73829,2,0,B|199:304|199:304|195:296|195:296|187:259,1,62.9999980773926,2|2,1:2|2:2,0:0:0:0:
51,193,73963,5,6,1:2:0:0:
114,50,74096,1,0,1:1:0:0:
52,0,74229,1,2,1:2:0:0:
0,85,74363,1,0,1:1:0:0:
210,147,74496,1,2,1:2:0:0:
259,68,74629,1,2,1:2:0:0:
417,293,74763,5,10,2:2:0:0:
294,142,74896,1,0,0:0:0:0:
368,58,75029,1,2,1:2:0:0:
491,135,75163,1,0,1:1:0:0:
342,213,75296,1,2,1:2:0:0:
259,68,75429,1,2,1:2:0:0:
39,184,75563,5,2,1:2:0:0:
189,279,75696,1,0,0:0:0:0:
259,68,75829,5,2,1:2:0:0:
178,126,75963,1,6,2:3:0:0:
342,213,76096,1,10,2:3:0:0:
164,357,76229,1,10,2:3:0:0:
359,46,76363,5,10,2:2:0:0:
456,312,76496,1,10,2:2:0:0:
512,148,76629,1,10,1:3:0:0:
476,118,76763,1,10,1:3:0:0:
439,119,76896,1,6,2:3:0:0:
430,130,77029,1,6,2:3:0:0:
138,65,77163,5,6,1:2:0:0:
255,205,77296,1,0,0:0:0:0:
212,281,77429,1,2,1:2:0:0:
125,173,77563,1,0,1:1:0:0:
283,94,77696,1,2,1:2:0:0:
206,7,77829,1,2,1:2:0:0:
36,162,77963,5,8,2:2:0:0:
212,281,78096,1,2,1:2:0:0:
255,205,78229,1,2,2:2:0:0:
400,254,78363,1,0,1:1:0:0:
194,92,78496,1,2,1:2:0:0:
293,9,78629,1,2,1:2:0:0:
492,151,78763,5,0,1:1:0:0:
366,352,78896,1,2,1:2:0:0:
311,258,79029,1,2,1:2:0:0:
393,170,79163,1,2,1:2:0:0:
265,344,79296,1,2,1:2:0:0:
182,289,79429,1,2,1:2:0:0:
273,103,79563,5,10,2:2:0:0:
119,233,79696,1,0,0:0:0:0:
68,0,79829,1,2,1:2:0:0:
372,76,79963,2,0,B|327:28|228:52|280:100|208:137|144:85,1,251.999992309571,2|0,1:2|1:1,0:0:0:0:
480,292,80363,5,6,1:2:0:0:
350,163,80496,1,0,0:0:0:0:
447,42,80629,1,2,1:2:0:0:
512,127,80763,1,0,1:1:0:0:
307,19,80896,1,2,1:2:0:0:
235,66,81029,1,2,1:2:0:0:
0,1,81163,5,10,2:2:0:0:
117,179,81296,1,0,0:0:0:0:
192,139,81429,1,2,1:2:0:0:
131,36,81563,1,0,1:1:0:0:
190,317,81696,1,2,1:2:0:0:
112,261,81829,1,0,1:1:0:0:
325,145,81963,5,2,1:2:0:0:
422,324,82096,1,0,0:0:0:0:
494,268,82229,1,2,1:2:0:0:
439,131,82363,1,0,1:1:0:0:
331,368,82496,1,2,1:2:0:0:
278,296,82629,1,0,1:1:0:0:
498,59,82763,5,10,2:2:0:0:
201,156,82896,1,2,1:2:0:0:
494,268,83029,1,2,1:2:0:0:
331,57,83163,2,0,B|354:26|331:-20|260:-38|202:65|302:141,1,251.999992309571,2|0,1:2|1:1,0:0:0:0:
422,324,83563,5,6,1:2:0:0:
344,139,83696,1,0,1:1:0:0:
422,94,83829,1,2,1:2:0:0:
234,11,83963,1,0,1:1:0:0:
333,227,84096,1,2,1:2:0:0:
416,189,84229,1,2,1:2:0:0:
215,365,84363,5,8,2:2:0:0:
269,170,84496,1,2,2:2:0:0:
199,101,84629,1,2,1:2:0:0:
129,211,84763,1,0,1:1:0:0:
298,77,84896,1,0,1:1:0:0:
234,11,85029,1,2,1:2:0:0:
345,263,85163,6,0,B|410:255|410:255|417:255|417:255|483:247,1,125.999996154785,2|0,1:2|0:0,0:0:0:0:
124,124,85429,2,0,B|81:119|81:119|73:121|73:121|-6:111,1,125.999996154785,2|0,1:2|1:1,0:0:0:0:
393,91,85696,5,2,1:2:0:0:
259,303,85829,1,0,1:1:0:0:
210,217,85963,1,10,2:2:0:0:
345,263,86096,1,2,2:2:0:0:
83,55,86229,6,0,B|137:46|137:46|146:48|146:48|221:34,1,125.999996154785,2|0,1:2|1:1,0:0:0:0:
125,314,86496,2,0,B|70:323|70:323|64:327|64:327|-3:339,1,125.999996154785,2|2,1:2|1:2,0:0:0:0:
282,0,86763,5,6,1:2:0:0:
319,183,86896,1,0,0:0:0:0:
403,150,87029,1,2,1:2:0:0:
292,78,87163,1,0,1:1:0:0:
375,353,87296,1,2,1:2:0:0:
441,308,87429,1,2,1:2:0:0:
202,241,87563,5,10,2:2:0:0:
292,78,87696,1,0,1:1:0:0:
206,27,87829,1,2,2:2:0:0:
116,134,87963,1,0,1:1:0:0:
364,13,88096,1,2,1:2:0:0:
426,82,88229,1,2,1:2:0:0:
375,353,88363,5,2,1:2:0:0:
279,167,88496,1,2,1:2:0:0:
360,131,88629,1,2,1:2:0:0:
155,290,88763,2,0,B|128:263|96:272|96:272|161:241|198:270|179:285|220:318|272:290,1,251.999992309571,4|0,1:1|1:1,0:0:0:0:
416,270,89163,5,10,2:2:0:0:
59,186,89296,1,10,2:2:0:0:
360,131,89429,1,10,2:2:0:0:
122,49,89563,5,10,2:2:0:0:
437,0,89696,1,10,2:2:0:0:
312,224,89829,1,10,2:2:0:0:
202,110,89963,5,6,1:2:0:0:
256,192,90029,12,0,93163,0:0:0:0:
43,335,96363,5,6,1:2:0:0:
157,212,96496,1,0,1:1:0:0:
218,384,96629,1,0,1:1:0:0:
218,384,96763,1,0,0:0:0:0:
55,152,96896,2,0,B|33:190|33:190|59:272,1,115.50000352478,2|0,1:2|1:1,0:0:0:0:
0,86,97163,2,0,B|66:67|66:67|110:87,2,115.50000352478,10|0|0,2:2|0:0|0:0,0:0:0:0:
216,142,97563,5,0,1:1:0:0:
216,142,97696,2,0,B|270:150|270:150|290:144|290:144|329:150,1,115.50000352478,2|0,1:2|1:1,0:0:0:0:
260,71,97963,1,2,2:2:0:0:
337,226,98096,1,0,1:1:0:0:
449,51,98229,1,0,1:1:0:0:
449,51,98363,1,0,1:1:0:0:
498,283,98496,2,0,B|453:245|404:260|404:260|380:300|339:295,1,173.250005287171,2|0,2:2|0:0,0:0:0:0:
261,237,98763,5,10,2:2:0:0:
378,366,98896,1,10,1:3:0:0:
358,111,99029,1,10,1:3:0:0:
257,341,99163,5,6,1:3:0:0:
449,191,99296,1,6,1:3:0:0:
323,27,99429,1,6,1:3:0:0:
73,103,99563,5,6,1:2:0:0:
194,203,99696,1,0,1:1:0:0:
246,4,99829,1,0,1:1:0:0:
246,4,99963,1,0,0:0:0:0:
159,115,100096,2,0,B|143:50|143:50|167:6,1,115.50000352478,2|0,1:2|1:1,0:0:0:0:
38,184,100363,2,0,B|106:203|106:203|130:249,2,115.50000352478,10|0|0,2:2|0:0|0:0,0:0:0:0:
239,322,100763,5,0,1:1:0:0:
239,322,100896,2,0,B|291:315|291:315|318:322|318:322|360:315,1,115.50000352478,2|0,1:2|1:1,0:0:0:0:
341,237,101163,1,2,2:2:0:0:
290,181,101296,1,2,1:2:0:0:
412,105,101429,1,2,1:2:0:0:
239,0,101563,5,2,1:2:0:0:
364,164,101696,1,2,2:2:0:0:
469,39,101829,1,2,2:2:0:0:
179,126,101963,5,10,2:2:0:0:
348,29,102096,1,10,1:3:0:0:
348,29,102229,1,10,1:3:0:0:
238,295,102363,5,6,1:3:0:0:
95,101,102496,1,6,1:3:0:0:
239,0,102629,1,6,1:3:0:0:
300,241,102763,5,6,1:2:0:0:
72,218,102896,1,0,1:1:0:0:
258,84,103029,1,0,1:1:0:0:
258,84,103163,1,0,0:0:0:0:
201,375,103296,2,0,B|223:345|223:345|210:262,1,115.50000352478,2|0,1:2|1:1,0:0:0:0:
317,137,103563,2,0,B|288:170|288:170|301:247,2,115.50000352478,10|0|0,2:2|0:0|0:0,0:0:0:0:
421,323,103963,5,2,1:2:0:0:
421,323,104096,2,0,B|414:270|414:270|420:247|420:247|411:195,1,115.50000352478,2|0,1:2|1:1,0:0:0:0:
470,131,104363,1,2,2:2:0:0:
342,239,104496,1,0,1:1:0:0:
311,59,104629,1,0,1:1:0:0:
311,59,104763,1,0,1:1:0:0:
245,165,104896,2,0,B|133:181|133:181|177:172|194:149,1,173.250005287171,2|0,2:2|0:0,0:0:0:0:
132,107,105163,5,10,2:2:0:0:
188,260,105296,1,10,1:3:0:0:
230,34,105429,1,10,1:3:0:0:
68,260,105563,5,6,1:3:0:0:
330,140,105696,1,6,1:3:0:0:
135,19,105829,1,6,1:3:0:0:
133,330,105963,5,6,1:2:0:0:
245,165,106096,1,0,1:1:0:0:
396,273,106229,1,0,1:1:0:0:
396,273,106363,1,0,0:0:0:0:
255,361,106496,2,0,B|249:284|249:284|217:248,1,115.50000352478,2|0,1:2|1:1,0:0:0:0:
108,101,106763,2,0,B|130:138|130:138|112:216,2,115.50000352478,10|0|0,2:2|0:0|0:0,0:0:0:0:
398,85,107163,5,0,1:1:0:0:
398,85,107296,2,0,B|346:78|346:78|329:81|329:81|281:75,1,115.50000352478,2|0,1:2|1:1,0:0:0:0:
240,7,107563,1,2,2:2:0:0:
275,82,107696,1,2,1:2:0:0:
147,159,107829,1,2,1:2:0:0:
305,307,107963,5,2,1:2:0:0:
383,217,108096,1,10,2:2:0:0:
337,207,108163,1,0,1:2:0:0:
292,198,108229,1,2,1:2:0:0:
455,153,108363,1,10,2:2:0:0:
378,44,108496,1,8,1:3:0:0:
375,56,108562,1,8,1:3:0:0:
373,68,108629,1,8,1:3:0:0:
275,82,108763,1,10,1:3:0:0:
217,25,108896,1,6,1:3:0:0:
126,251,109029,1,6,1:3:0:0:
0,115,109163,6,0,L|136:95,1,125.999996154785,6|0,1:2|1:1,0:0:0:0:
381,228,109429,1,0,1:1:0:0:
318,271,109563,1,2,2:2:0:0:
211,122,109696,1,0,1:1:0:0:
315,4,109829,1,0,1:1:0:0:
512,219,109963,6,0,L|245:171,1,251.999992309571,10|0,2:2|0:0,0:0:0:0:
407,73,110363,1,2,1:2:0:0:
229,255,110496,1,0,1:1:0:0:
128,132,110629,1,0,1:1:0:0:
399,310,110763,2,0,L|139:256,1,251.999992309571,6|0,2:2|1:1,0:0:0:0:
210,362,111163,1,2,1:2:0:0:
238,42,111296,2,0,B|291:22|291:22|246:153,1,188.999994232178
184,194,111563,5,10,2:2:0:0:
229,255,111696,1,8,1:3:0:0:
401,190,111829,1,8,1:3:0:0:
322,335,111963,5,6,1:3:0:0:
228,131,112096,1,4,1:3:0:0:
452,41,112229,1,4,1:3:0:0:
512,243,112363,6,0,L|373:212,1,125.999996154785,6|0,1:2|1:1,0:0:0:0:
341,57,112629,1,0,1:1:0:0:
399,105,112763,1,2,2:2:0:0:
206,244,112896,1,0,1:1:0:0:
94,148,113029,1,0,1:1:0:0:
20,312,113163,6,0,L|273:273,1,251.999992309571,10|0,2:2|0:0,0:0:0:0:
184,373,113563,1,2,1:2:0:0:
325,193,113696,1,0,1:1:0:0:
214,108,113829,1,0,1:1:0:0:
345,289,113963,1,6,2:2:0:0:
404,236,114096,1,0,1:1:0:0:
507,287,114229,1,0,1:1:0:0:
392,116,114363,5,2,1:2:0:0:
435,345,114496,1,0,1:1:0:0:
512,76,114629,1,0,1:1:0:0:
241,230,114763,5,10,2:2:0:0:
470,160,114896,1,8,1:3:0:0:
470,160,115029,1,8,1:3:0:0:
191,91,115163,5,6,1:3:0:0:
327,219,115296,1,4,1:3:0:0:
271,304,115429,1,4,1:3:0:0:
36,219,115563,6,0,L|169:199,1,125.999996154785,6|0,1:2|1:1,0:0:0:0:
307,54,115829,1,0,1:1:0:0:
264,116,115963,1,2,2:2:0:0:
385,268,116096,1,0,1:1:0:0:
217,189,116229,1,0,1:1:0:0:
452,99,116363,6,0,L|416:366,1,251.999992309571,10|0,2:2|0:0,0:0:0:0:
505,319,116763,1,2,1:2:0:0:
327,219,116896,1,0,1:1:0:0:
177,298,117029,1,0,1:1:0:0:
13,84,117163,2,0,L|268:116,1,251.999992309571,6|0,2:2|1:1,0:0:0:0:
123,197,117563,5,2,1:2:0:0:
338,43,117696,2,0,B|365:86|365:86|326:219,1,188.999994232178
347,296,117963,5,10,2:2:0:0:
261,256,118096,1,8,1:3:0:0:
152,364,118229,1,8,1:3:0:0:
420,358,118363,5,6,1:3:0:0:
219,142,118496,1,4,1:3:0:0:
507,86,118629,1,4,1:3:0:0:
338,43,118763,6,0,L|355:205,1,125.999996154785,6|0,1:2|1:1,0:0:0:0:
419,245,119029,1,0,1:1:0:0:
360,293,119163,1,2,2:2:0:0:
134,164,119296,1,0,1:1:0:0:
237,50,119429,1,0,1:1:0:0:
87,297,119563,5,10,2:2:0:0:
53,70,119696,1,0,1:1:0:0:
225,222,119829,1,0,1:1:0:0:
461,87,119963,1,2,1:2:0:0:
416,78,120029,1,0,1:1:0:0:
371,71,120096,1,0,1:1:0:0:
326,64,120163,1,0,1:1:0:0:
282,57,120229,1,0,1:1:0:0:
237,50,120296,1,0,1:1:0:0:
168,78,120363,5,10,2:2:0:0:
427,50,121963,6,0,B|400:66|400:66|397:70|397:70|364:91,1,73.4999977569581,6|0,1:2|0:0,0:0:0:0:
239,295,122096,2,0,B|269:277|269:277|273:277|273:277|306:259,1,73.4999977569581,10|0,2:2|0:0,0:0:0:0:
123,27,122229,2,0,B|105:63|105:63|147:170,1,146.999995513916,2|8,1:2|2:2,0:0:0:0:
377,376,122496,1,0,1:1:0:0:
113,275,122629,1,8,2:2:0:0:
404,233,122763,1,0,1:1:0:0:
191,367,122896,1,8,2:2:0:0:
231,82,123029,1,0,1:1:0:0:
304,261,123163,1,8,2:2:0:0:
358,29,123296,6,0,B|391:38|391:38|393:40|393:40|429:51,1,73.4999977569581,2|0,1:2|0:0,0:0:0:0:
153,180,123429,2,0,B|191:195|191:195|196:195|196:195|231:208,1,73.4999977569581,10|0,2:2|0:0,0:0:0:0:
377,376,123563,2,0,B|386:307|386:307|394:294|394:294|405:225,1,146.999995513916,2|8,1:2|2:2,0:0:0:0:
358,29,123829,1,0,1:1:0:0:
479,188,123963,1,8,2:2:0:0:
206,282,124096,6,0,B|181:272|181:272|176:272|176:272|131:256,1,73.4999977569581,2|0,1:2|0:0,0:0:0:0:
439,125,124229,2,0,B|410:117|410:117|405:118|405:118|365:107,1,73.4999977569581,10|0,2:2|0:0,0:0:0:0:
174,17,124363,2,0,B|151:56|151:56|192:157,1,146.999995513916,6|8,1:2|2:2,0:0:0:0:
300,334,124629,1,0,1:1:0:0:
113,224,124763,1,8,2:2:0:0:
286,119,124896,6,0,B|272:161|272:161|273:164|273:164|258:205,1,73.4999977569581,2|0,1:2|1:2,0:0:0:0:
399,362,125029,2,0,B|409:324|409:324|408:320|408:320|416:288,1,73.4999977569581,10|0,2:2|0:0,0:0:0:0:
495,37,125163,2,0,B|467:16|467:16|350:40,1,146.999995513916,6|8,1:2|2:2,0:0:0:0:
258,260,125429,1,0,1:1:0:0:
442,96,125563,1,8,2:2:0:0:
462,354,125696,1,0,1:1:0:0:
352,184,125829,1,8,2:2:0:0:
512,201,125963,1,0,1:1:0:0:
378,318,126096,1,8,2:2:0:0:
355,101,126229,1,0,1:1:0:0:
430,182,126363,1,8,2:2:0:0:
179,273,126496,6,0,B|151:268|151:268|146:269|146:269|104:260,1,73.4999977569581,2|0,1:2|0:0,0:0:0:0:
282,39,126629,2,0,B|249:33|249:33|244:34|244:34|201:26,1,73.4999977569581,10|0,2:2|0:0,0:0:0:0:
13,140,126763,2,0,B|82:154|82:154|95:153|95:153|162:165,1,146.999995513916,6|8,1:2|2:2,0:0:0:0:
279,365,127029,1,0,1:1:0:0:
168,181,127163,1,8,2:2:0:0:
422,37,127296,6,0,B|417:74|417:74|418:78|418:78|413:118,1,73.4999977569581,2|0,1:2|0:0,0:0:0:0:
251,214,127429,2,0,B|254:253|254:253|257:259|257:259|259:297,1,73.4999977569581,10|0,2:2|0:0,0:0:0:0:
494,312,127563,2,0,B|489:346|489:346|491:350|491:350|484:387,1,73.4999977569581,2|0,1:2|0:0,0:0:0:0:
430,182,127696,1,8,2:2:0:0:
426,195,127762,1,8,2:2:0:0:
422,209,127829,2,0,B|415:238|415:238|416:245|416:245|406:286,1,73.4999977569581,8|0,2:2|0:0,0:0:0:0:
168,181,127963,2,0,B|173:213|173:213|175:218|175:218|181:262,1,73.4999977569581,0|0,1:1|0:0,0:0:0:0:
328,125,128096,6,0,B|299:120|299:120|291:120|291:120|256:114,1,73.4999977569581,10|0,1:3|0:0,0:0:0:0:
212,34,128229,2,0,B|247:31|247:31|251:28|251:28|284:26,1,73.4999977569581,6|0,1:3|0:0,0:0:0:0:
125,319,128363,2,0,B|157:339|157:339|275:307,1,152.250004646301,6|8,1:2|2:2,0:0:0:0:
239,144,128629,1,0,1:1:0:0:
360,345,128763,1,8,2:2:0:0:
431,76,128896,1,0,1:1:0:0:
248,237,129029,1,8,2:2:0:0:
298,21,129163,1,0,1:1:0:0:
400,185,129296,1,8,2:2:0:0:
168,181,129429,1,0,1:1:0:0:
328,125,129563,1,8,2:2:0:0:
254,340,129696,6,0,B|286:335|286:335|289:336|289:336|334:331,1,76.1250023231507,2|0,1:2|0:0,0:0:0:0:
163,75,129829,2,0,B|200:69|200:69|204:69|204:69|242:63,1,76.1250023231507,10|0,2:2|0:0,0:0:0:0:
0,276,129963,2,0,B|68:265|68:265|93:273|93:273|154:262,1,152.250004646301,6|8,1:2|2:2,0:0:0:0:
408,343,130229,1,0,1:1:0:0:
239,144,130363,1,8,2:2:0:0:
483,80,130496,1,0,1:1:0:0:
282,216,130629,1,8,2:2:0:0:
512,254,130763,6,0,B|476:237|476:237|360:275,1,152.250004646301,2|8,1:2|2:2,0:0:0:0:
198,216,131029,1,0,1:1:0:0:
355,0,131163,2,0,B|386:40|386:40|361:149,1,152.250004646301,14|0,2:2|1:1,0:0:0:0:
198,216,131429,1,8,2:2:0:0:
43,47,131563,6,0,B|94:38|94:38|132:55|132:55|194:42,1,152.250004646301,6|8,1:2|2:2,0:0:0:0:
144,318,131829,1,0,1:1:0:0:
85,118,131963,1,8,2:2:0:0:
392,131,132096,6,0,B|338:121|338:121|301:127|301:127|238:112,1,152.250004646301,6|8,1:2|2:2,0:0:0:0:
363,318,132363,2,0,B|421:331|421:331|458:325|458:325|512:335,1,152.250004646301,6|8,1:2|2:2,0:0:0:0:
178,174,132629,1,0,1:1:0:0:
301,384,132763,1,8,2:2:0:0:
460,65,132896,6,0,B|421:41|421:41|303:59,1,152.250004646301,6|8,1:2|2:2,0:0:0:0:
104,98,133163,5,6,1:2:0:0:
240,320,133296,1,10,2:2:0:0:
398,210,133429,1,2,1:2:0:0:
94,360,133563,5,10,2:2:0:0:
283,149,133696,1,2,1:2:0:0:
437,296,133829,1,10,2:2:0:0:
436,146,133963,5,2,1:2:0:0:
378,97,134029,1,8,2:2:0:0:
311,104,134096,1,10,2:2:0:0:
283,149,134163,1,8,2:2:0:0:
290,190,134229,1,10,2:2:0:0:
317,206,134296,1,8,2:2:0:0:
330,210,134363,2,0,B|347:192|347:192|341:155,1,52.5,2|0,1:2|1:1,0:0:0:0:
309,2,134496,1,10,1:3:0:0:
315,2,134563,1,8,1:3:0:0:
321,1,134629,1,6,1:3:0:0:
327,0,134696,1,4,1:3:0:0:
333,0,134763,2,0,B|361:3|361:3|367:5|367:5|406:10,1,62.9999980773926,6|0,1:2|0:0,0:0:0:0:
496,159,134896,2,0,B|470:154|470:154|462:149|462:149|426:144,1,62.9999980773926,2|0,1:2|0:0,0:0:0:0:
51,168,135029,5,2,1:2:0:0:
83,130,135095,1,0,0:0:0:0:
132,121,135162,1,0,1:1:0:0:
176,144,135228,1,0,0:0:0:0:
195,190,135295,1,0,1:1:0:0:
183,237,135363,1,0,0:0:0:0:
184,286,135429,1,0,1:1:0:0:
214,326,135496,1,0,0:0:0:0:
261,341,135562,1,0,1:1:0:0:
308,326,135629,1,0,0:0:0:0:
339,287,135696,1,0,1:1:0:0:
341,237,135762,1,0,0:0:0:0:
315,196,135829,1,0,1:1:0:0:
280,160,135895,1,0,0:0:0:0:
276,112,135962,1,0,1:1:0:0:
304,72,136028,1,0,0:0:0:0:
352,59,136096,2,0,B|357:86|357:86|355:92|355:92|361:121,1,62.9999980773926,2|0,1:2|0:0,0:0:0:0:
485,172,136229,2,0,B|479:141|479:141|475:137|475:137|470:110,1,62.9999980773926,2|0,1:2|0:0,0:0:0:0:
135,31,136363,5,14,1:2:0:0:
85,34,136429,1,0,0:0:0:0:
45,63,136496,1,0,1:1:0:0:
27,110,136562,1,0,0:0:0:0:
37,158,136629,1,0,1:1:0:0:
71,194,136696,1,0,0:0:0:0:
119,206,136762,1,0,1:1:0:0:
166,190,136829,1,0,0:0:0:0:
197,151,136896,2,0,B|169:140|169:140|164:140|164:140|138:131,1,62.9999980773926,2|0,1:2|0:0,0:0:0:0:
236,287,137029,2,0,B|266:272|266:272|267:270|267:270|292:258,1,62.9999980773926,2|0,1:2|0:0,0:0:0:0:
497,47,137163,5,6,1:2:0:0:
448,18,137229,1,0,0:0:0:0:
392,21,137296,1,0,1:1:0:0:
347,54,137362,1,0,0:0:0:0:
327,106,137429,1,0,1:1:0:0:
338,160,137496,1,0,0:0:0:0:
378,200,137562,1,0,1:1:0:0:
432,212,137629,1,0,0:0:0:0:
485,190,137696,2,0,B|452:179|452:179|446:179|446:179|422:172,1,62.9999980773926,2|8,1:2|2:2,0:0:0:0:
305,235,137829,2,0,B|276:227|276:227|271:228|271:228|239:218,1,62.9999980773926,2|8,1:2|2:2,0:0:0:0:
54,80,137963,5,6,1:2:0:0:
11,111,138029,1,0,0:0:0:0:
0,160,138096,1,0,1:1:0:0:
23,206,138162,1,0,0:0:0:0:
71,224,138229,1,0,1:1:0:0:
120,207,138296,1,0,0:0:0:0:
145,162,138363,1,0,1:1:0:0:
139,112,138429,1,0,0:0:0:0:
163,67,138496,1,0,1:1:0:0:
209,46,138562,1,0,0:0:0:0:
261,54,138629,1,0,1:1:0:0:
297,91,138696,1,0,0:0:0:0:
305,143,138763,1,0,1:1:0:0:
290,192,138829,1,0,0:0:0:0:
305,242,138896,1,0,1:1:0:0:
346,275,138962,1,0,0:0:0:0:
397,279,139029,1,0,1:1:0:0:
443,255,139096,1,0,0:0:0:0:
467,209,139162,1,0,1:1:0:0:
462,157,139229,1,0,0:0:0:0:
429,118,139296,2,0,B|404:128|404:128|398:132|398:132|365:144,1,62.9999980773926,2|0,1:2|0:0,0:0:0:0:
209,38,139429,2,0,B|239:29|239:29|243:26|243:26|279:16,1,62.9999980773926,2|0,1:2|0:0,0:0:0:0:
104,361,139563,5,6,1:2:0:0:
60,326,139629,1,0,0:0:0:0:
37,274,139696,1,0,1:0:0:0:
41,218,139762,1,0,0:0:0:0:
71,170,139829,1,0,1:0:0:0:
119,142,139896,1,0,0:0:0:0:
175,140,139962,1,0,1:0:0:0:
226,164,140029,1,0,0:0:0:0:
260,209,140096,2,0,B|231:227|231:227|226:232|226:232|194:251,1,62.9999980773926,2|0,1:2|0:0,0:0:0:0:
169,343,140229,2,0,B|144:353|144:353|140:357|140:357|111:371,1,62.9999980773926,2|0,1:2|0:0,0:0:0:0:
298,44,140363,5,6,1:2:0:0:
344,3,140429,1,8,2:2:0:0:
405,0,140496,1,8,2:2:0:0:
455,36,140562,1,0,0:0:0:0:
471,96,140629,1,8,1:2:0:0:
446,152,140696,1,0,0:0:0:0:
392,181,140762,1,8,1:2:0:0:
331,168,140829,1,0,0:0:0:0:
292,121,140896,2,0,B|321:113|321:113|328:113|328:113|356:106,1,62.9999980773926,10|8,1:3|2:3,0:0:0:0:
512,280,141029,2,0,B|480:277|480:277|476:275|476:275|443:272,1,62.9999980773926,6|4,1:3|2:3,0:0:0:0:
130,283,141163,5,6,1:2:0:0:
128,276,141229,1,0,1:1:0:0:
126,269,141296,1,0,1:1:0:0:
124,262,141363,1,0,1:1:0:0:
122,255,141429,1,0,1:1:0:0:
120,248,141496,1,0,1:1:0:0:
119,241,141563,5,0,1:1:0:0:
147,176,141629,1,0,1:1:0:0:
214,154,141696,1,0,1:1:0:0:
276,187,141762,1,0,1:1:0:0:
294,255,141829,1,0,1:1:0:0:
335,312,141895,1,0,1:1:0:0:
404,323,141962,1,0,1:1:0:0:
461,281,142028,1,0,1:1:0:0:
471,211,142095,1,0,1:1:0:0:
429,155,142163,1,0,1:1:0:0:
379,105,142229,1,0,1:1:0:0:
392,37,142296,1,0,1:1:0:0:
455,8,142362,1,0,1:1:0:0:
512,44,142429,1,0,1:1:0:0:
512,112,142496,2,0,B|481:102|481:102|476:102|476:102|443:92,1,62.9999980773926,2|0,1:2|1:1,0:0:0:0:
296,107,142629,2,0,B|265:96|265:96|261:96|261:96|235:88,1,62.9999980773926,2|0,1:2|1:1,0:0:0:0:
66,186,142763,5,14,1:2:0:0:
22,130,142829,1,0,1:1:0:0:
30,60,142896,1,0,1:1:0:0:
86,16,142962,1,0,1:1:0:0:
156,24,143029,1,0,1:1:0:0:
199,80,143096,1,0,1:1:0:0:
191,150,143163,1,0,1:1:0:0:
152,210,143229,1,0,1:1:0:0:
159,280,143296,1,0,1:1:0:0:
207,332,143362,1,0,1:1:0:0:
278,343,143429,1,0,1:1:0:0:
340,308,143496,1,0,1:1:0:0:
367,243,143563,5,6,1:2:0:0:
319,228,143629,1,0,1:1:0:0:
271,210,143696,1,0,1:1:0:0:
222,193,143763,1,0,1:1:0:0:
173,179,143829,2,0,B|152:171|152:171|147:171|147:171|112:159,1,62.9999980773926,0|0,1:1|1:1,0:0:0:0:
459,0,143963,5,6,1:2:0:0:
511,43,144029,1,0,1:1:0:0:
509,112,144096,1,0,1:1:0:0:
462,162,144162,1,0,1:1:0:0:
392,167,144229,2,0,B|365:156|365:156|360:156|360:156|326:143,1,62.9999980773926,0|0,1:1|1:1,0:0:0:0:
48,195,144363,5,14,1:2:0:0:
10,146,144429,1,0,1:1:0:0:
9,84,144496,1,0,1:1:0:0:
44,33,144562,1,0,1:1:0:0:
102,13,144629,1,0,1:1:0:0:
162,30,144696,1,0,1:1:0:0:
199,80,144762,1,0,1:1:0:0:
201,142,144829,1,0,1:1:0:0:
163,192,144896,5,10,1:2:0:0:
156,191,144963,1,0,1:1:0:0:
149,189,145029,1,0,1:1:0:0:
142,189,145096,1,0,1:1:0:0:
135,188,145163,5,14,1:2:0:0:
98,238,145229,1,0,1:1:0:0:
95,300,145296,1,0,1:1:0:0:
126,354,145362,1,0,1:1:0:0:
181,382,145429,1,0,1:1:0:0:
243,376,145496,1,0,1:1:0:0:
291,337,145562,1,0,1:1:0:0:
311,278,145629,1,0,1:1:0:0:
287,220,145696,5,10,1:2:0:0:
280,219,145763,1,0,1:1:0:0:
273,218,145829,1,0,1:1:0:0:
266,217,145896,1,0,1:1:0:0:
259,216,145963,5,14,1:2:0:0:
245,226,146029,1,0,1:1:0:0:
235,261,146096,1,2,1:2:0:0:
256,301,146163,1,0,1:1:0:0:
308,313,146229,1,2,1:2:0:0:
357,279,146296,1,0,1:1:0:0:
355,211,146363,1,2,1:2:0:0:
305,160,146429,1,0,1:1:0:0:
283,91,146496,1,10,2:2:0:0:
318,24,146563,1,8,2:2:0:0:
392,15,146629,1,10,2:2:0:0:
454,57,146696,1,8,2:2:0:0:
449,132,146763,5,10,2:2:0:0:
394,119,146829,1,8,2:2:0:0:
338,107,146896,1,10,2:3:0:0:
283,91,146963,1,8,2:3:0:0:
249,62,147029,5,10,2:3:0:0:
237,66,147096,1,8,2:3:0:0:
225,71,147163,1,10,2:3:0:0:
214,77,147229,1,8,2:3:0:0:
202,81,147296,2,0,B|175:75|175:75|168:71|168:71|129:63,3,62.9999980773926,6|4|6|4,2:3|2:3|2:3|2:3,0:0:0:0:
42,114,147563,5,6,1:2:0:0:
1,40,147696,1,8,2:2:0:0:
44,266,147829,1,0,1:1:0:0:
105,208,147963,1,8,2:2:0:0:
246,373,148096,6,0,B|195:366|195:366|190:362|190:362|143:356,1,105,2|8,1:2|2:2,0:0:0:0:
0,185,148363,2,0,B|50:191|50:191|56:194|56:194|104:200,1,105,2|8,1:2|2:2,0:0:0:0:
108,13,148629,1,0,1:1:0:0:
154,83,148763,1,8,2:2:0:0:
339,24,148896,6,0,B|303:6|303:6|233:22,1,105,2|8,1:2|2:2,0:0:0:0:
327,228,149163,2,0,B|364:245|364:245|434:222,1,105,6|8,1:2|2:2,0:0:0:0:
512,36,149429,1,0,1:1:0:0:
347,150,149563,1,10,2:2:0:0:
288,90,149696,1,0,1:1:0:0:
339,24,149829,1,8,2:2:0:0:
65,189,149963,6,0,B|120:182|120:182|126:184|126:184|180:177,1,105,2|8,1:2|2:2,0:0:0:0:
376,349,150229,2,0,B|388:375|388:375|407:347,1,52.5,0|0,1:1|0:0,0:0:0:0:
450,286,150363,2,0,B|372:271|372:271|317:289|317:289|238:273,1,210,10|8,2:2|2:2,0:0:0:0:
268,129,150763,5,6,1:2:0:0:
310,201,150896,1,8,2:2:0:0:
434,50,151029,1,0,1:1:0:0:
398,126,151163,1,8,2:2:0:0:
175,56,151296,6,0,B|225:49|225:49|233:50|233:50|287:41,1,105,2|8,1:2|2:2,0:0:0:0:
103,225,151563,2,0,B|57:232|57:232|49:231|49:231|0:238,1,105,2|8,1:2|2:2,0:0:0:0:
159,359,151829,1,0,1:1:0:0:
190,279,151963,1,8,2:2:0:0:
378,352,152096,6,0,B|329:342|329:342|321:343|321:343|264:331,1,105,2|8,1:2|2:2,0:0:0:0:
398,126,152363,2,0,B|448:135|448:135|456:134|456:134|504:143,1,105,6|8,1:2|2:2,0:0:0:0:
319,168,152629,1,0,1:1:0:0:
350,246,152763,1,8,2:2:0:0:
210,0,152896,6,0,B|223:49|223:49|223:54|223:54|237:104,1,105,2|8,1:2|2:2,0:0:0:0:
76,149,153163,2,0,B|69:205|69:205|71:210|71:210|65:257,1,105,2|8,1:2|2:2,0:0:0:0:
231,379,153429,1,0,1:1:0:0:
176,314,153563,1,8,2:2:0:0:
278,163,153696,1,10,1:3:0:0:
319,168,153763,1,8,2:3:0:0:
359,174,153829,1,6,1:3:0:0:
400,181,153896,1,4,2:3:0:0:
441,187,153963,5,6,1:2:0:0:
500,102,154096,1,8,2:2:0:0:
307,1,154229,1,0,1:1:0:0:
360,92,154363,1,8,2:2:0:0:
194,204,154496,6,0,B|180:154|180:154|190:133|190:133|178:85,1,115.50000352478,2|8,1:2|2:2,0:0:0:0:
356,259,154763,2,0,B|365:298|365:298|355:319|355:319|369:369,1,115.50000352478,2|8,1:2|2:2,0:0:0:0:
175,375,155029,1,0,1:1:0:0:
258,311,155163,1,8,2:2:0:0:
113,136,155296,6,0,B|73:131|73:131|41:139|41:139|-9:131,1,115.50000352478,2|8,1:2|2:2,0:0:0:0:
303,46,155563,2,0,B|352:51|352:51|371:64|371:64|418:70,1,115.50000352478,6|8,1:2|2:2,0:0:0:0:
228,129,155829,1,0,1:1:0:0:
187,32,155963,1,8,2:2:0:0:
128,306,156096,6,0,B|155:310|155:310|182:298,1,57.7500017623902,2|0,1:2|0:0,0:0:0:0:
386,195,156229,2,0,B|353:188|353:188|330:197,1,57.7500017623902,10|0,2:2|0:0,0:0:0:0:
272,357,156363,2,0,B|272:291|272:291|240:234|240:234|245:121,1,231.000007049561,2|0,1:2|1:1,0:0:0:0:
414,75,156763,5,10,2:2:0:0:
331,127,156896,1,2,1:2:0:0:
187,32,157029,1,10,2:2:0:0:
0,147,157163,5,6,1:2:0:0:
60,62,157296,1,8,2:2:0:0:
128,306,157429,1,0,1:1:0:0:
80,212,157563,1,8,2:2:0:0:
251,106,157696,6,0,B|244:156|244:156|251:172|251:172|246:219,1,115.50000352478,2|8,1:2|2:2,0:0:0:0:
426,365,157963,2,0,B|430:317|430:317|423:301|423:301|430:251,1,115.50000352478,2|8,1:2|2:2,0:0:0:0:
332,54,158229,1,0,1:1:0:0:
401,132,158363,1,8,2:2:0:0:
281,288,158496,2,0,B|235:279|235:279|211:288|211:288|155:278,1,115.50000352478,2|8,1:2|2:2,0:0:0:0:
172,122,158763,5,6,1:2:0:0:
175,132,158829,1,0,0:0:0:0:
178,143,158896,1,0,1:1:0:0:
183,153,158963,1,0,1:1:0:0:
169,183,159029,5,8,2:2:0:0:
220,172,159096,1,0,0:0:0:0:
272,162,159163,1,8,2:2:0:0:
321,153,159229,1,0,0:0:0:0:
372,144,159296,5,10,1:3:0:0:
377,127,159363,1,8,2:3:0:0:
382,110,159429,1,10,2:3:0:0:
388,93,159496,1,8,2:3:0:0:
358,55,159563,5,6,1:3:0:0:
354,44,159629,1,4,2:3:0:0:
350,32,159696,1,4,2:3:0:0:
346,20,159763,1,4,2:3:0:0:
342,9,159829,6,0,B|371:5|371:5|378:7|378:7|407:1,1,57.7500017623902,8|4,1:3|2:3,0:0:0:0:
254,78,159963,2,0,B|230:82|230:82|225:80|225:80|197:86,1,57.7500017623902,10|4,2:3|2:3,0:0:0:0:
104,25,160096,2,0,B|137:19|137:19|144:19|144:19|178:12,3,57.7500017623902,6|4|6|4,1:3|2:3|2:3|2:3,0:0:0:0:
27,238,160363,5,6,1:2:0:0:
71,309,160496,1,8,2:2:0:0:
224,155,160629,1,0,1:1:0:0:
162,212,160763,1,8,2:2:0:0:
244,360,160896,6,0,B|292:370|292:370|295:374|295:374|344:384,1,105,2|8,1:2|2:2,0:0:0:0:
512,230,161163,2,0,B|463:220|463:220|460:216|460:216|411:205,1,105,2|8,1:2|2:2,0:0:0:0:
324,37,161429,1,0,1:1:0:0:
354,115,161563,1,8,2:2:0:0:
240,253,161696,6,0,B|214:184|214:184|227:142,1,105,2|10,1:2|2:2,0:0:0:0:
84,0,161963,2,0,B|63:36|63:36|90:106,1,105,6|8,1:2|2:2,0:0:0:0:
61,309,162229,1,0,1:1:0:0:
199,181,162363,1,10,2:2:0:0:
240,253,162496,1,0,1:1:0:0:
187,318,162629,1,8,2:2:0:0:
512,184,162763,6,0,B|460:171|460:171|448:172|448:172|404:161,1,105,2|8,1:2|2:2,0:0:0:0:
203,10,163029,2,0,B|231:-4|231:-4|236:27,1,52.5,0|0,1:1|0:0,0:0:0:0:
85,95,163163,2,0,B|158:81|158:81|201:99|201:99|291:81,1,210,10|8,2:2|2:2,0:0:0:0:
205,284,163563,5,6,1:2:0:0:
151,219,163696,1,8,2:2:0:0:
365,79,163829,1,0,1:1:0:0:
330,156,163963,1,8,2:2:0:0:
409,310,164096,6,0,B|459:315|459:315|466:319|466:319|512:324,1,105,2|8,1:2|2:2,0:0:0:0:
319,167,164363,2,0,B|272:161|272:161|265:157|265:157|215:152,1,105,2|8,1:2|2:2,0:0:0:0:
117,17,164629,1,0,1:1:0:0:
161,88,164763,1,8,2:2:0:0:
67,264,164896,6,0,B|57:214|57:214|60:208|60:208|51:157,1,105,2|8,1:2|2:2,0:0:0:0:
211,373,165163,2,0,B|223:316|223:316|221:310|221:310|232:264,1,105,6|8,1:2|2:2,0:0:0:0:
392,232,165429,1,0,1:1:0:0:
318,274,165563,1,8,2:2:0:0:
240,55,165696,6,0,B|285:64|285:64|291:69|291:69|349:80,1,105,2|8,1:2|2:2,0:0:0:0:
125,187,165963,2,0,B|74:177|74:177|68:172|68:172|23:163,1,105,2|8,1:2|2:2,0:0:0:0:
126,325,166229,1,0,1:1:0:0:
181,261,166363,1,8,2:2:0:0:
417,329,166496,1,10,1:3:0:0:
370,348,166562,1,8,2:3:0:0:
325,325,166629,1,6,1:3:0:0:
318,274,166695,1,4,2:3:0:0:
358,239,166763,5,6,1:2:0:0:
265,191,166896,1,8,2:2:0:0:
487,76,167029,1,0,1:1:0:0:
388,110,167163,1,8,2:2:0:0:
212,0,167296,6,0,B|224:49|224:49|216:72|216:72|229:126,1,115.50000352478,2|8,1:2|2:2,0:0:0:0:
126,325,167563,2,0,B|141:277|141:277|131:250|131:250|143:207,1,115.50000352478,2|8,1:2|2:2,0:0:0:0:
298,364,167829,1,0,1:1:0:0:
230,284,167963,1,8,2:2:0:0:
463,153,168096,6,0,B|473:200|473:200|464:219|464:219|476:275,1,115.50000352478,2|8,1:2|2:2,0:0:0:0:
287,0,168363,2,0,B|278:43|278:43|288:66|288:66|278:113,1,115.50000352478,6|8,1:2|2:2,0:0:0:0:
95,113,168629,1,0,1:1:0:0:
189,67,168763,1,8,2:2:0:0:
404,186,168896,6,0,B|369:179|369:179|340:189,1,57.7500017623902,2|0,1:2|0:0,0:0:0:0:
153,280,169029,2,0,B|183:290|183:290|213:276,1,57.7500017623902,10|0,2:2|0:0,0:0:0:0:
291,339,169163,2,0,B|299:274|299:274|261:197|261:197|275:105,1,231.000007049561,2|0,1:2|1:1,0:0:0:0:
91,0,169563,5,10,2:2:0:0:
189,67,169696,1,6,1:2:0:0:
26,212,169829,1,10,2:2:0:0:
218,362,169963,5,6,1:2:0:0:
153,280,170096,1,8,2:2:0:0:
404,186,170229,1,0,1:1:0:0:
303,216,170363,1,8,2:2:0:0:
444,382,170496,6,0,B|449:333|449:333|437:303|437:303|444:261,1,115.50000352478,2|8,1:2|2:2,0:0:0:0:
323,2,170763,2,0,B|318:48|318:48|327:74|327:74|321:121,1,115.50000352478,2|8,1:2|2:2,0:0:0:0:
160,16,171029,1,0,1:1:0:0:
236,87,171163,1,8,2:2:0:0:
78,247,171296,6,0,B|86:199|86:199|74:174|74:174|82:130,1,115.50000352478,2|8,1:2|2:2,0:0:0:0:
243,384,171563,2,0,B|237:339|237:339|220:320|220:320|215:275,1,115.50000352478,6|8,1:2|2:2,0:0:0:0:
404,186,171829,1,0,1:1:0:0:
330,260,171963,1,12,2:2:0:0:
137,115,172096,5,2,1:2:0:0:
187,101,172163,1,0,1:2:0:0:
236,87,172229,1,2,1:2:0:0:
320,135,172363,1,10,2:2:0:0:
100,291,172496,1,8,2:2:0:0:
94,280,172563,1,8,2:2:0:0:
88,270,172629,1,8,2:2:0:0:
172,217,172763,1,10,2:2:0:0:
375,284,172896,1,10,1:3:0:0:
364,278,172963,1,0,1:2:0:0:
353,272,173029,1,6,1:3:0:0:
342,266,173096,1,0,1:2:0:0:
330,260,173163,5,6,1:2:0:0:
386,88,173296,1,0,1:1:0:0:
458,64,173429,1,2,1:2:0:0:
512,178,173563,1,0,1:1:0:0:
312,59,173696,1,2,1:2:0:0:
249,105,173829,1,2,1:2:0:0:
57,0,173963,5,8,2:2:0:0:
155,138,174096,1,2,1:2:0:0:
110,209,174229,1,2,2:2:0:0:
0,135,174363,1,0,1:1:0:0:
199,214,174496,1,2,1:2:0:0:
158,286,174629,1,0,1:1:0:0:
35,384,174763,5,6,1:2:0:0:
240,284,174896,1,0,1:1:0:0:
316,315,175029,1,2,1:2:0:0:
313,170,175163,1,2,1:2:0:0:
378,383,175296,1,0,1:1:0:0:
439,328,175429,1,2,1:2:0:0:
384,115,175563,5,10,2:2:0:0:
234,194,175696,1,0,0:0:0:0:
163,146,175829,1,2,1:2:0:0:
259,73,175963,1,0,1:1:0:0:
149,228,176096,2,0,B|95:216|95:216|87:216|87:216|22:203,1,125.999996154785,2|0,1:2|1:1,0:0:0:0:
380,384,176363,5,6,1:2:0:0:
337,185,176496,1,0,0:0:0:0:
384,115,176629,1,2,1:2:0:0:
470,223,176763,1,0,1:1:0:0:
315,69,176896,1,2,1:2:0:0:
389,30,177029,1,2,1:2:0:0:
64,164,177163,5,8,2:2:0:0:
238,78,177296,1,2,1:2:0:0:
174,25,177429,1,2,1:2:0:0:
218,202,177563,1,0,1:1:0:0:
68,83,177696,1,2,1:2:0:0:
0,117,177829,1,2,1:2:0:0:
172,278,177963,6,0,B|225:287|225:287|231:292|231:292|299:302,1,125.999996154785,6|0,1:2|1:1,0:0:0:0:
174,25,178229,2,0,B|111:15|111:15|104:17|104:17|41:6,1,125.999996154785,2|0,1:2|1:1,0:0:0:0:
218,202,178496,5,2,1:2:0:0:
337,0,178629,1,2,1:2:0:0:
317,258,178763,1,10,2:2:0:0:
251,98,178896,1,2,1:2:0:0:
478,57,179029,1,2,1:2:0:0:
512,146,179163,2,0,B|395:121|395:121|389:118|389:118|259:91,1,251.999992309571,2|0,2:2|0:0,0:0:0:0:
76,5,179563,5,6,1:2:0:0:
148,117,179696,1,0,1:1:0:0:
28,237,179829,1,2,1:2:0:0:
59,146,179963,1,0,1:1:0:0:
118,290,180096,1,2,1:2:0:0:
54,348,180229,1,2,1:2:0:0:
309,380,180363,5,8,2:2:0:0:
179,230,180496,1,2,1:2:0:0:
237,153,180629,1,2,1:2:0:0:
334,269,180763,1,0,1:1:0:0:
423,84,180896,1,2,1:2:0:0:
344,25,181029,1,0,1:1:0:0:
403,211,181163,5,6,1:2:0:0:
179,230,181296,1,2,2:2:0:0:
148,137,181429,1,2,1:2:0:0:
243,282,181563,1,2,1:2:0:0:
163,50,181696,1,2,1:2:0:0:
71,104,181829,1,0,1:1:0:0:
58,301,181963,5,10,2:2:0:0:
270,189,182096,1,2,2:2:0:0:
334,269,182229,1,2,1:2:0:0:
197,354,182363,1,2,1:2:0:0:
124,242,182496,2,0,B|191:262|191:262|195:262|195:262|244:279,1,125.999996154785,0|2,1:1|1:2,0:0:0:0:
414,348,182763,5,6,1:2:0:0:
355,181,182896,1,0,0:0:0:0:
426,134,183029,1,2,1:2:0:0:
507,239,183163,1,0,1:1:0:0:
334,269,183296,1,2,1:2:0:0:
270,189,183429,1,2,1:2:0:0:
203,0,183563,5,8,2:2:0:0:
355,181,183696,1,2,1:2:0:0:
249,274,183829,1,2,1:2:0:0:
101,163,183963,1,0,1:1:0:0:
329,52,184096,1,2,1:2:0:0:
426,134,184229,1,0,1:1:0:0:
271,365,184363,5,6,1:2:0:0:
89,249,184496,1,2,1:2:0:0:
208,112,184629,5,10,1:3:0:0:
277,178,184763,1,10,1:3:0:0:
160,313,184896,1,4,1:3:0:0:
20,166,185029,1,6,1:3:0:0:
404,289,185163,5,8,2:2:0:0:
329,52,185296,1,10,2:2:0:0:
410,0,185429,1,8,1:3:0:0:
469,77,185563,1,10,1:3:0:0:
430,108,185696,1,6,1:3:0:0:
414,91,185829,1,4,1:3:0:0:
159,0,185963,5,6,1:2:0:0:
201,186,186096,1,0,0:0:0:0:
132,249,186229,1,2,1:2:0:0:
23,106,186363,1,0,1:1:0:0:
240,267,186496,1,2,1:2:0:0:
299,192,186629,1,2,1:2:0:0:
441,359,186763,5,8,2:2:0:0:
376,146,186896,1,2,1:2:0:0:
451,93,187029,1,2,1:2:0:0:
512,227,187163,1,0,0:0:0:0:
361,56,187296,1,2,1:2:0:0:
291,107,187429,1,0,1:1:0:0:
353,302,187563,5,6,1:2:0:0:
212,146,187696,1,2,2:2:0:0:
361,56,187829,1,2,1:2:0:0:
512,227,187963,1,2,1:2:0:0:
271,309,188096,1,2,1:2:0:0:
356,384,188229,1,0,1:1:0:0:
239,49,188363,5,10,2:2:0:0:
140,284,188496,1,2,1:2:0:0:
0,130,188629,1,2,1:2:0:0:
411,88,188763,2,0,B|357:40|280:72|320:110|260:158|184:109,1,251.999992309571,2|0,1:2|0:0,0:0:0:0:
8,247,189163,5,6,1:2:0:0:
204,340,189296,1,0,1:1:0:0:
266,268,189429,1,2,1:2:0:0:
159,197,189563,1,0,1:1:0:0:
289,379,189696,1,2,1:2:0:0:
350,305,189829,1,2,1:2:0:0:
241,105,189963,5,10,2:2:0:0:
443,249,190096,1,0,0:0:0:0:
501,166,190229,1,2,1:2:0:0:
368,49,190363,1,0,1:1:0:0:
159,197,190496,1,2,1:2:0:0:
83,139,190629,1,0,1:1:0:0:
213,6,190763,5,6,1:2:0:0:
264,232,190896,1,0,0:0:0:0:
164,308,191029,1,2,1:2:0:0:
358,384,191163,1,0,1:1:0:0:
159,197,191296,1,2,1:2:0:0:
241,105,191429,1,2,1:2:0:0:
415,251,191563,5,10,2:2:0:0:
154,113,191696,1,2,1:2:0:0:
406,22,191829,1,2,1:2:0:0:
333,305,191963,5,2,1:2:0:0:
332,298,192029,1,2,2:2:0:0:
331,291,192096,1,2,2:2:0:0:
330,284,192163,1,2,2:2:0:0:
329,277,192229,2,0,B|319:254|319:254|319:249|319:249|305:216,1,62.9999980773926,2|2,2:2|2:2,0:0:0:0:
130,0,192363,5,6,1:2:0:0:
242,185,192496,1,0,1:1:0:0:
170,236,192629,1,2,1:2:0:0:
76,139,192763,1,0,1:1:0:0:
163,324,192896,1,2,1:2:0:0:
94,381,193029,1,2,1:2:0:0:
0,275,193163,5,8,2:2:0:0:
162,139,193296,1,2,1:2:0:0:
242,185,193429,1,2,1:2:0:0:
306,24,193563,1,0,1:1:0:0:
297,272,193696,1,2,1:2:0:0:
375,228,193829,1,2,1:2:0:0:
233,101,193963,5,6,1:2:0:0:
460,185,194096,1,0,0:0:0:0:
507,108,194229,1,2,1:2:0:0:
387,5,194363,1,0,1:1:0:0:
447,267,194496,1,2,1:2:0:0:
375,228,194629,1,0,1:1:0:0:
182,364,194763,6,0,B|244:353|244:353|249:354|249:354|324:341,2,125.999996154785,10|2|2,2:2|1:2|1:2,0:0:0:0:
162,60,195163,2,0,B|142:110|142:110|185:183,2,125.999996154785,10|2|2,2:2|1:2|1:2,0:0:0:0:
375,228,195563,5,6,1:2:0:0:
286,135,195696,1,0,0:0:0:0:
95,242,195829,1,2,1:2:0:0:
229,340,195963,1,0,1:1:0:0:
98,147,196096,1,2,1:2:0:0:
6,223,196229,1,2,1:2:0:0:
0,33,196363,5,8,2:2:0:0:
196,141,196496,1,2,1:2:0:0:
291,50,196629,1,2,1:2:0:0:
407,198,196763,5,0,1:1:0:0:
184,43,196896,1,2,1:2:0:0:
98,147,197029,1,2,1:2:0:0:
312,365,197163,5,12,2:2:0:0:
179,231,197296,1,10,2:2:0:0:
226,215,197363,1,8,2:2:0:0:
273,201,197429,1,8,2:2:0:0:
423,89,197563,1,10,2:2:0:0:
330,265,197696,1,8,2:2:0:0:
446,337,197829,1,10,2:2:0:0:
512,227,197963,5,8,1:3:0:0:
438,245,198096,1,10,2:3:0:0:
387,188,198229,1,6,1:3:0:0:
96,146,198363,5,6,2:3:0:0:
148,110,198496,1,6,1:3:0:0:
205,134,198629,1,6,2:3:0:0:
350,298,198763,6,0,B|386:257|450:264|450:264|346:157|248:288|248:288|247:279|247:279|188:331|86:319|30:259|30:259|99:287|158:245,1,734.999977569581,6|0,1:2|1:1,0:0:0:0:
162,241,199496,1,0,0:0:0:0:
166,235,199563,5,10,2:2:0:0:
65,44,199696,1,0,1:1:0:0:
262,0,199829,5,2,1:2:0:0:
37,128,199963,1,0,1:1:0:0:
248,246,200096,5,2,1:2:0:0:
213,167,200229,1,0,1:1:0:0:
512,89,200363,6,0,B|466:193|290:74|381:-13|381:-13|445:16|488:73|394:237|250:180|327:92|216:39|137:131,1,734.999977569581,6|0,1:2|1:1,0:0:0:0:
109,356,201163,5,10,2:2:0:0:
162,272,201296,1,0,1:1:0:0:
314,363,201429,5,2,1:2:0:0:
105,206,201563,1,0,1:1:0:0:
347,125,201696,5,2,1:2:0:0:
226,357,201829,1,0,1:1:0:0:
149,71,201963,6,0,B|120:39|61:50|61:50|153:1|264:39|200:83|303:139|384:60,1,440.999986541749,6|0,1:2|1:2,0:0:0:0:
309,10,202429,2,0,B|291:41|291:41|332:147,1,146.999995513916,2|0,0:0|0:0,0:0:0:0:
471,202,202629,2,0,B|482:228|482:228|470:282,1,73.4999977569581,2|0,1:2|0:0,0:0:0:0:
226,357,202763,2,0,B|262:309|262:309|212:148,1,220.499993270874,10|0,2:2|0:0,0:0:0:0:
93,113,203029,6,0,B|56:162|56:162|296:111,1,293.999991027832,2|0,1:2|1:2,0:0:0:0:
430,20,203363,1,2,0:0:0:0:
416,15,203429,2,0,B|371:69|371:69|452:286,1,293.999991027832,2|0,1:1|1:1,0:0:0:0:
231,276,203829,5,0,1:1:0:0:
305,229,203963,1,0,1:1:0:0:
394,327,204096,1,0,1:1:0:0:
512,217,204229,1,0,1:1:0:0:
343,74,204363,6,0,B|429:98|429:98|483:76,2,146.999995513916,12|0|0,2:2|1:1|1:1,0:0:0:0:
184,61,204763,2,0,B|91:88|91:88|49:61,1,146.999995513916,12|0,2:2|1:1,0:0:0:0:
269,0,205029,1,8,2:2:0:0:
155,370,205163,6,0,B|93:209|93:209|133:146|199:169,1,293.999991027832,6|0,1:2|1:1,0:0:0:0:
362,298,205563,2,0,B|308:291|308:291|278:300|278:300|202:286,2,146.999995513916,2|0|0,1:2|1:1|1:1,0:0:0:0:
443,105,205963,2,0,B|483:79|483:79|465:186,1,146.999995513916,8|0,2:2|1:1,0:0:0:0:
28,93,206229,6,0,B|88:37|202:81|129:116|233:169|294:114,1,293.999991027832,2|0,1:2|1:1,0:0:0:0:
349,71,206563,1,2,2:2:0:0:
350,56,206629,2,0,P|229:75|296:187,1,293.999991027832,2|0,1:2|1:1,0:0:0:0:
465,220,207029,5,0,1:1:0:0:
350,300,207163,1,0,1:1:0:0:
248,195,207296,1,0,1:1:0:0:
173,235,207429,1,0,1:1:0:0:
221,13,207563,6,0,P|151:48|144:117,1,146.999995513916,10|0,2:2|1:1,0:0:0:0:
42,255,207829,2,0,P|104:219|174:236,1,146.999995513916,2|0,1:2|1:1,0:0:0:0:
284,360,208096,2,0,P|336:387|422:275,1,220.499993270874,2|0,1:2|0:0,0:0:0:0:
512,163,208363,6,0,B|427:123|427:123|324:156|324:156|228:106,2,293.999991027832,6|0|2,1:2|1:1|1:2,0:0:0:0:
354,291,209029,1,2,1:2:0:0:
337,298,209096,1,2,0:0:0:0:
303,273,209163,5,10,2:2:0:0:
271,0,209296,1,0,1:1:0:0:
362,161,209429,5,2,1:2:0:0:
150,237,209563,1,0,1:1:0:0:
88,47,209696,5,2,1:2:0:0:
252,129,209829,1,0,1:1:0:0:
140,341,209963,6,0,B|101:273|14:274|14:274|202:255|202:255|301:336|301:336|510:312,1,661.499979812623,6|0,1:2|0:0,0:0:0:0:
508,128,210763,5,8,1:3:0:0:
429,288,210896,1,8,2:3:0:0:
299,74,211029,1,8,2:3:0:0:
364,138,211163,1,4,1:3:0:0:
254,250,211296,1,4,2:3:0:0:
189,197,211429,1,4,2:3:0:0:
108,28,211563,6,0,B|72:69|8:62|8:62|112:169|210:38|210:38|211:47|211:47|270:-5|372:7|425:70|425:70|355:29|297:77,1,734.999977569581,6|2,1:2|1:2,0:0:0:0:
298,82,212296,1,0,0:0:0:0:
296,89,212363,5,10,2:2:0:0:
189,312,212496,1,0,1:1:0:0:
370,370,212629,5,2,1:2:0:0:
161,223,212763,1,0,1:1:0:0:
462,221,212896,5,2,1:2:0:0:
387,281,213029,1,0,1:1:0:0:
296,89,213163,6,0,B|303:-33|441:-5|446:78|381:166|239:150|78:133|136:14|136:14|248:33|159:195,1,734.999977569581,6|0,1:2|1:1,0:0:0:0:
143,358,213963,5,10,2:2:0:0:
197,253,214096,1,0,1:1:0:0:
287,384,214229,5,2,1:2:0:0:
90,198,214363,1,0,1:1:0:0:
403,104,214496,5,2,1:2:0:0:
78,295,214629,1,0,1:1:0:0:
487,305,214763,6,0,B|411:379|308:323|372:279|261:241|169:290|169:290|228:279|257:311,1,440.999986541749,6|2,1:2|1:2,0:0:0:0:
153,371,215229,2,0,B|139:357|139:357|120:219,1,146.999995513916,2|0,1:2|0:0,0:0:0:0:
46,127,215429,2,0,B|66:108|66:108|61:51,1,73.4999977569581,2|0,1:2|0:0,0:0:0:0:
327,35,215563,2,0,B|286:70|286:70|320:252,1,220.499993270874,8|0,2:2|0:0,0:0:0:0:
444,272,215829,6,0,B|387:212|281:237|331:295|245:343|164:268,1,293.999991027832,2|0,1:2|1:1,0:0:0:0:
23,202,216163,1,0,0:0:0:0:
36,210,216229,2,0,B|123:200,1,73.4999977569581,2|0,1:2|0:0,0:0:0:0:
370,133,216363,6,0,B|329:114|329:114|226:133,1,146.999995513916,12|0,2:2|1:1,0:0:0:0:
64,357,216629,1,0,1:1:0:0:
205,250,216763,1,0,1:1:0:0:
286,330,216896,1,0,1:1:0:0:
225,384,217029,1,0,1:1:0:0:
367,208,217163,6,0,B|438:197|438:197|448:199|448:199|518:187,2,146.999995513916,12|0|0,2:2|1:1|1:1,0:0:0:0:
122,186,217563,5,8,2:2:0:0:
248,148,217696,1,0,1:1:0:0:
372,105,217829,1,8,2:2:0:0:
301,0,217963,6,0,B|243:54|243:54|310:278,1,293.999991027832,6|0,1:2|1:1,0:0:0:0:
223,384,218363,2,0,B|196:279|196:279|149:258,2,146.999995513916,2|0|2,1:2|1:1|1:2,0:0:0:0:
372,105,218763,6,0,B|341:143|341:143|378:246,1,146.999995513916,8|0,2:2|1:1,0:0:0:0:
408,357,219029,1,2,1:2:0:0:
272,210,219163,1,0,1:1:0:0:
140,312,219296,1,2,1:2:0:0:
223,384,219429,1,2,1:2:0:0:
107,98,219563,5,4,1:2:0:0:
302,283,219696,1,0,1:1:0:0:
324,76,219829,1,0,1:1:0:0:
223,303,219963,1,0,1:1:0:0:
195,10,220096,1,0,1:1:0:0:
272,210,220229,1,0,1:1:0:0:
480,61,220363,6,0,B|421:66|421:66|396:60|396:60|334:64,1,146.999995513916,10|0,2:2|1:1,0:0:0:0:
107,98,220629,2,0,B|169:108|169:108|185:115|185:115|262:128,1,146.999995513916,2|0,1:2|1:1,0:0:0:0:
431,348,220896,2,0,B|409:291|409:291|406:266|406:266|382:210,1,146.999995513916,2|0,1:2|1:1,0:0:0:0:
105,313,221163,6,0,B|74:261|24:261|24:261|100:183|236:250|151:295|263:343|336:276,1,440.999986541749,6|0,1:2|1:1,0:0:0:0:
251,142,221696,2,0,B|260:181|260:181|257:185|257:185|265:216,1,73.4999977569581,2|0,1:2|0:0,0:0:0:0:
401,38,221829,2,0,B|395:75|395:75|399:81|399:81|394:112,1,73.4999977569581,2|0,1:2|0:0,0:0:0:0:
137,0,221963,6,0,B|148:60|148:60|146:67|146:67|165:154,1,146.999995513916,10|0,2:2|1:1,0:0:0:0:
458,179,222229,2,0,B|442:245|442:245|443:251|443:251|427:328,1,146.999995513916,2|0,1:2|1:1,0:0:0:0:
67,171,222496,2,0,B|86:243|86:243|85:250|85:250|105:313,1,146.999995513916,2|0,1:2|1:1,0:0:0:0:
300,85,222763,2,0,B|455:196|512:72|497:-13|373:-55|241:45|327:101|173:180|85:78|85:78|146:118|206:88,1,734.999977569581,6|0,1:2|1:1,0:0:0:0:
213,342,223563,5,10,2:2:0:0:
200,350,223629,1,8,2:2:0:0:
156,352,223696,1,8,2:2:0:0:
123,312,223763,1,8,2:2:0:0:
138,250,223829,1,10,2:2:0:0:
208,232,223896,1,8,2:2:0:0:
263,280,223963,1,10,2:2:0:0:
335,281,224029,1,8,2:2:0:0:
396,241,224096,1,10,2:3:0:0:
392,180,224163,1,8,2:3:0:0:
357,153,224229,1,6,2:3:0:0:
319,161,224296,1,4,2:3:0:0:
317,176,224363,5,6,1:2:0:0:
323,176,224429,1,0,1:1:0:0:
329,177,224496,1,0,1:1:0:0:
335,178,224562,1,0,1:1:0:0:
341,179,224629,1,0,1:1:0:0:
348,180,224696,1,0,1:1:0:0:
354,181,224762,1,0,1:1:0:0:
360,182,224829,1,0,1:1:0:0:
366,182,224896,1,0,1:1:0:0:
373,183,224962,1,0,1:1:0:0:
379,184,225029,1,0,1:1:0:0:
385,185,225096,1,0,1:1:0:0:
391,187,225163,2,0,B|416:190|416:190|423:193|423:193|461:197,5,62.9999980773926,8|0|0|0|0|0,2:2|1:1|1:1|1:1|1:1|1:1,0:0:0:0:
504,109,225563,2,0,B|476:107|476:107|469:104|469:104|431:99,1,62.9999980773926,2|0,1:2|1:1,0:0:0:0:
333,23,225696,2,0,B|365:27|365:27|370:30|370:30|399:34,1,62.9999980773926,2|0,1:2|1:1,0:0:0:0:
504,126,225829,2,0,B|475:122|475:122|469:123|469:123|434:117,1,62.9999980773926,2|0,1:2|1:1,0:0:0:0:
136,310,225963,5,14,0:0:0:0:
57,293,226029,1,0,1:2:0:0:
14,227,226096,1,0,1:2:0:0:
30,148,226162,1,0,1:2:0:0:
97,105,226229,1,0,1:2:0:0:
175,122,226296,1,0,1:2:0:0:
218,189,226363,1,0,1:2:0:0:
274,246,226429,1,0,1:2:0:0:
354,253,226496,1,0,1:2:0:0:
420,207,226562,1,0,1:2:0:0:
440,129,226629,1,0,1:2:0:0:
406,57,226696,1,0,1:2:0:0:
333,23,226763,2,0,B|326:50|326:50|326:57|326:57|316:96,5,62.9999980773926,8|0|0|0|0|0,0:0|1:0|1:0|1:0|1:0|1:0,0:0:0:0:
190,345,227163,2,0,B|195:311|195:311|198:305|198:305|202:283,3,62.9999980773926,2|0|0|0,1:2|1:1|1:1|1:1,0:0:0:0:
108,43,227429,2,0,B|102:68|102:68|103:73|103:73|97:104,1,62.9999980773926,2|0,1:2|1:1,0:0:0:0:
392,196,227563,5,14,2:2:0:0:
372,203,227629,1,0,1:1:0:0:
338,193,227696,1,0,1:1:0:0:
314,144,227763,1,0,1:1:0:0:
250,117,227829,1,2,1:2:0:0:
181,144,227896,1,2,1:2:0:0:
171,221,227963,5,2,1:2:0:0:
234,192,228029,1,2,1:2:0:0:
236,138,228096,1,2,1:2:0:0:
201,102,228163,1,0,1:1:0:0:
202,64,228229,1,0,1:1:0:0:
219,53,228296,1,0,1:1:0:0:
231,59,228363,6,0,B|261:64|261:64|267:67|267:67|302:74,3,62.9999980773926,10|0|2|0,2:2|1:1|1:2|1:1,0:0:0:0:
60,143,228629,2,0,B|29:135|29:135|24:137|24:137|-10:128,3,62.9999980773926,2|0|2|0,1:2|1:1|1:2|1:1,0:0:0:0:
105,318,228896,2,0,B|130:322|130:322|138:326|138:326|171:331,3,62.9999980773926,2|0|2|0,1:2|1:1|1:2|1:1,0:0:0:0:
405,181,229163,5,14,2:2:0:0:
443,117,229229,1,0,1:1:0:0:
402,63,229296,1,2,1:2:0:0:
341,68,229363,1,0,1:1:0:0:
307,111,229429,1,2,1:2:0:0:
262,130,229496,1,0,1:1:0:0:
215,121,229563,1,2,1:2:0:0:
192,82,229629,1,0,1:1:0:0:
204,50,229696,1,2,1:2:0:0:
223,41,229763,1,0,1:1:0:0:
239,43,229829,1,2,1:2:0:0:
246,52,229896,1,0,1:1:0:0:
246,62,229963,6,0,B|250:33|250:33|249:23|249:23|252:-6,5,62.9999980773926,10|0|0|0|0|0,2:2|1:1|1:1|1:1|1:1|1:1,0:0:0:0:
0,149,230363,2,0,B|7:178|7:178|10:181|10:181|15:209,1,62.9999980773926,8|0,2:2|1:1,0:0:0:0:
126,336,230496,2,0,B|133:304|133:304|132:297|132:297|137:274,1,62.9999980773926,10|0,2:2|1:1,0:0:0:0:
270,137,230629,2,0,B|265:156|265:156|267:162|267:162|260:198,1,62.9999980773926,10|0,2:2|1:1,0:0:0:0:
387,368,230763,6,0,B|394:336|394:336|392:332|392:332|399:301,1,62.9999980773926,14|0,2:2|1:1,0:0:0:0:
415,40,230896,1,0,1:1:0:0:
367,55,230962,1,0,1:1:0:0:
348,102,231029,1,0,1:1:0:0:
360,152,231096,1,0,1:1:0:0:
400,184,231163,1,0,1:1:0:0:
446,204,231229,1,0,1:1:0:0:
470,250,231296,1,0,1:1:0:0:
460,298,231362,1,0,1:1:0:0:
429,319,231429,1,0,1:1:0:0:
406,316,231496,1,0,1:1:0:0:
398,306,231563,5,10,2:2:0:0:
395,300,231629,1,0,1:1:0:0:
393,293,231696,1,0,1:1:0:0:
389,287,231762,1,0,1:1:0:0:
386,281,231829,2,0,B|393:249|393:249|392:242|392:242|397:214,1,62.9999980773926,2|0,1:2|1:1,0:0:0:0:
293,10,231963,2,0,B|287:37|287:37|285:41|285:41|278:72,1,62.9999980773926,2|0,1:2|1:1,0:0:0:0:
95,316,232096,2,0,B|105:287|105:287|104:281|104:281|114:254,1,62.9999980773926,0|0,1:1|1:1,0:0:0:0:
67,20,232229,5,2,1:2:0:0:
84,20,232296,1,0,1:1:0:0:
109,46,232363,1,14,2:2:0:0:
103,97,232429,1,0,1:1:0:0:
55,126,232496,1,2,1:2:0:0:
21,181,232563,1,0,1:1:0:0:
39,247,232629,1,2,1:2:0:0:
114,257,232696,1,0,1:1:0:0:
122,247,232763,5,2,1:2:0:0:
61,225,232829,1,0,1:1:0:0:
21,257,232896,1,2,2:2:0:0:
28,303,232963,1,0,1:1:0:0:
65,325,233029,1,2,1:2:0:0:
102,319,233096,1,0,1:1:0:0:
138,326,233163,1,10,2:2:0:0:
153,345,233229,1,0,1:1:0:0:
148,355,233296,5,2,1:2:0:0:
135,351,233363,1,0,1:1:0:0:
130,322,233429,1,2,1:2:0:0:
173,306,233496,1,0,1:1:0:0:
214,335,233563,1,2,1:2:0:0:
270,349,233629,1,0,1:1:0:0:
324,313,233696,1,2,1:2:0:0:
323,245,233763,1,0,1:1:0:0:
261,206,233829,2,0,P|241:230|240:261,1,62.9999980773926,2|0,1:2|1:1,0:0:0:0:
429,353,233963,6,0,B|459:359|459:359|464:358|464:358|490:364,1,62.9999980773926,14|0,2:2|1:1,0:0:0:0:
384,143,234096,2,0,B|357:137|357:137|352:138|352:138|322:131,1,62.9999980773926,2|0,1:2|1:1,0:0:0:0:
436,340,234229,2,0,B|466:346|466:346|471:345|471:345|497:351,3,62.9999980773926,2|0|2|0,1:2|1:1|1:2|1:1,0:0:0:0:
125,280,234496,6,0,B|154:276|154:276|157:277|157:277|191:272,1,62.9999980773926,2|0,1:2|1:1,0:0:0:0:
261,81,234629,2,0,B|229:85|229:85|224:87|224:87|188:91,1,62.9999980773926,2|0,1:2|1:1,0:0:0:0:
121,295,234763,2,0,L|185:287,3,62.9999980773926,10|0|0|0,2:2|1:1|1:1|1:1,0:0:0:0:
57,129,235029,5,2,1:2:0:0:
54,116,235096,1,0,1:1:0:0:
51,103,235163,1,0,1:1:0:0:
48,90,235229,1,0,1:1:0:0:
45,77,235296,2,0,B|72:81|72:81|77:84|77:84|112:91,1,62.9999980773926,2|0,1:2|1:1,0:0:0:0:
261,81,235429,2,0,B|232:75|232:75|227:76|227:76|199:69,1,62.9999980773926,0|0,1:1|1:1,0:0:0:0:
35,288,235563,5,14,2:2:0:0:
27,271,235629,1,2,1:2:0:0:
39,245,235696,1,2,1:2:0:0:
89,236,235763,1,2,1:2:0:0:
136,276,235829,1,2,1:2:0:0:
171,331,235896,1,2,1:2:0:0:
242,333,235963,2,0,P|256:306|254:269,1,62.9999980773926,10|0,2:2|1:1,0:0:0:0:
261,81,236096,5,2,1:2:0:0:
298,33,236163,1,2,1:2:0:0:
350,35,236229,1,2,1:2:0:0:
375,64,236296,1,2,1:2:0:0:
370,79,236363,5,14,2:2:0:0:
373,132,236429,1,2,1:2:0:0:
417,174,236496,1,2,1:2:0:0:
487,157,236563,1,2,1:2:0:0:
507,79,236629,2,0,P|474:75|445:89,1,62.9999980773926,0|2,1:1|1:2,0:0:0:0:
136,276,236763,5,10,2:2:0:0:
120,276,236829,1,0,1:1:0:0:
89,260,236896,1,2,1:2:0:0:
82,207,236963,1,0,1:1:0:0:
126,157,237029,1,2,1:2:0:0:
131,84,237096,1,0,1:1:0:0:
75,35,237163,5,14,1:2:0:0:
298,327,237296,1,10,1:2:0:0:
447,196,237429,1,10,1:2:0:0:
453,213,237696,5,14,1:2:0:0:
202,121,237829,1,10,1:2:0:0:
512,0,237963,1,10,1:2:0:0:
512,17,238363,5,14,1:2:0:0:
294,133,238497,1,10,1:2:0:0:
446,311,238630,1,10,1:2:0:0:
436,326,238896,5,14,1:2:0:0:
371,34,239029,1,10,1:2:0:0:
189,181,239163,1,10,1:2:0:0:
67,74,239296,5,8,2:2:0:0:
68,80,239363,1,8,2:2:0:0:
69,87,239429,1,8,2:2:0:0:
70,94,239496,1,8,2:2:0:0:
71,101,239563,1,8,2:2:0:0:
189,181,239696,1,8,2:2:0:0:
294,133,239829,1,8,2:2:0:0:
361,172,239963,1,8,2:2:0:0:
393,142,240096,1,8,2:2:0:0:
416,168,240229,1,8,2:2:0:0:
429,159,240363,5,14,1:2:0:0:
337,384,240496,1,10,1:2:0:0:
189,181,240629,1,10,1:2:0:0:
43,292,240896,5,14,1:2:0:0:
226,99,241029,1,10,1:2:0:0:
335,247,241163,1,10,1:2:0:0:
153,7,241563,5,14,1:2:0:0:
132,320,241696,1,10,1:2:0:0:
0,175,241829,1,10,1:2:0:0:
287,312,242096,5,14,1:2:0:0:
122,104,242229,1,10,1:2:0:0:
239,30,242363,1,10,1:2:0:0:
326,92,242496,5,8,2:2:0:0:
332,91,242563,1,8,2:2:0:0:
338,90,242629,1,8,2:2:0:0:
344,89,242696,1,8,2:2:0:0:
350,88,242763,1,8,2:2:0:0:
437,146,242896,1,8,2:2:0:0:
374,203,243029,1,8,2:2:0:0:
431,249,243163,1,8,2:2:0:0:
392,287,243296,1,8,2:2:0:0:
426,326,243429,1,8,2:2:0:0:
417,338,243563,5,14,1:2:0:0:
211,199,243696,1,10,1:2:0:0:
44,317,243829,2,0,B|104:302|104:302|113:302|113:302|176:286,1,125.999996154785,10|2,1:2|2:2,0:0:0:0:
91,134,244096,5,14,1:2:0:0:
261,357,244229,1,10,1:2:0:0:
454,197,244363,2,0,B|408:191|408:191|384:198|384:198|321:189,2,125.999996154785,10|2|2,1:2|2:2|2:2,0:0:0:0:
240,22,244763,5,14,1:2:0:0:
354,274,244896,1,10,1:2:0:0:
490,107,245029,2,0,B|439:101|439:101|411:107|411:107|354:98,1,125.999996154785,10|2,1:2|2:2,0:0:0:0:
225,261,245296,5,14,1:2:0:0:
331,1,245429,1,10,1:2:0:0:
454,197,245563,1,10,1:2:0:0:
355,291,245696,1,10,2:2:0:0:
354,284,245763,1,8,2:2:0:0:
353,277,245830,1,10,2:2:0:0:
352,270,245896,1,8,2:2:0:0:
352,263,245963,5,10,2:2:0:0:
289,221,246096,1,10,2:2:0:0:
225,261,246229,1,10,2:2:0:0:
42,172,246363,5,10,2:2:0:0:
109,138,246496,1,10,2:2:0:0:
172,179,246629,1,10,2:2:0:0:
387,39,246763,5,14,1:2:0:0:
225,261,246896,1,10,1:2:0:0:
106,52,247029,2,0,B|164:57|164:57|178:65|178:65|231:68,1,125.999996154785,10|2,1:2|2:2,0:0:0:0:
395,351,247296,5,14,1:2:0:0:
296,129,247429,1,10,1:2:0:0:
99,274,247563,2,0,B|148:268|148:268|153:269|153:269|231:260,2,125.999996154785,10|2|2,1:2|2:2|2:2,0:0:0:0:
395,351,247963,5,14,1:2:0:0:
236,189,248096,1,10,1:2:0:0:
393,60,248229,2,0,B|424:101|424:101|399:182,1,125.999996154785,10|2,1:2|2:2,0:0:0:0:
193,371,248496,5,14,1:2:0:0:
148,347,248563,1,0,1:1:0:0:
103,368,248629,1,10,1:2:0:0:
58,343,248696,1,0,1:1:0:0:
11,363,248763,2,0,B|28:313|28:313|9:284|9:284|23:237,1,125.999996154785,10|2,1:2|2:2,0:0:0:0:
85,200,249963,5,14,1:2:0:0:
254,110,250096,1,10,1:2:0:0:
213,289,250229,2,0,B|200:234|200:234|203:224|203:224|189:161,1,125.999996154785,10|2,1:2|2:2,0:0:0:0:
120,74,250496,5,14,1:2:0:0:
312,187,250629,1,10,1:2:0:0:
409,88,250763,1,10,1:2:0:0:
311,42,250896,1,10,2:2:0:0:
312,48,250963,1,8,2:2:0:0:
313,53,251029,1,10,2:2:0:0:
314,59,251096,1,8,2:2:0:0:
316,65,251163,5,14,1:2:0:0:
156,217,251296,1,10,1:2:0:0:
40,0,251429,2,0,B|49:56|49:56|44:70|44:70|57:130,1,125.999996154785,10|2,1:2|2:2,0:0:0:0:
3,293,251696,5,14,1:2:0:0:
156,217,251829,1,10,1:2:0:0:
295,314,251963,1,10,1:2:0:0:
374,262,252096,1,10,2:2:0:0:
373,255,252163,1,8,2:2:0:0:
373,249,252230,1,10,2:2:0:0:
372,243,252296,1,8,2:2:0:0:
371,237,252363,5,10,1:2:0:0:
309,192,252496,1,10,2:2:0:0:
348,127,252629,1,10,2:2:0:0:
258,0,252763,5,10,1:2:0:0:
314,49,252896,1,10,2:2:0:0:
274,113,253029,1,10,2:2:0:0:
45,45,253163,5,14,1:2:0:0:
155,235,253296,1,10,1:2:0:0:
17,176,253429,2,0,B|77:159|77:159|90:158|90:158|144:144,1,125.999996154785,10|2,1:2|2:2,0:0:0:0:
438,238,253696,5,14,1:2:0:0:
274,113,253829,1,10,1:2:0:0:
440,21,253963,1,10,1:2:0:0:
512,107,254096,1,10,2:2:0:0:
505,106,254163,1,8,2:2:0:0:
498,105,254229,1,10,2:2:0:0:
491,104,254296,1,8,2:2:0:0:
484,103,254363,5,14,1:2:0:0:
300,0,254496,1,10,1:2:0:0:
241,226,254629,2,0,B|301:206|301:206|309:207|309:207|361:189,1,125.999996154785,10|2,1:2|2:2,0:0:0:0:
98,384,254896,5,14,1:2:0:0:
293,292,255029,1,10,1:2:0:0:
94,143,255163,1,10,1:2:0:0:
184,79,255296,1,10,2:2:0:0:
183,85,255363,1,8,2:2:0:0:
182,91,255429,1,10,2:2:0:0:
181,97,255496,1,8,2:2:0:0:
180,103,255563,5,10,1:2:0:0:
234,155,255696,1,10,2:2:0:0:
302,123,255829,1,10,2:2:0:0:
481,72,255963,5,10,1:2:0:0:
417,32,256096,1,10,2:2:0:0:
347,60,256229,1,10,2:2:0:0:
310,321,256363,5,14,1:2:0:0:
412,122,256496,1,10,1:2:0:0:
481,280,256629,2,0,B|421:260|421:260|415:260|415:260|359:238,1,125.999996154785,10|2,1:2|2:2,0:0:0:0:
57,112,256896,5,14,1:2:0:0:
211,217,257029,1,10,1:2:0:0:
302,123,257163,1,10,1:2:0:0:
213,66,257296,1,10,2:2:0:0:
212,72,257363,1,8,2:2:0:0:
211,78,257429,1,10,2:2:0:0:
210,84,257496,1,8,2:2:0:0:
209,90,257563,5,14,1:2:0:0:
188,327,257696,1,10,1:2:0:0:
4,212,257829,2,0,B|58:203|58:203|65:203|65:203|135:191,1,125.999996154785,10|2,1:2|2:2,0:0:0:0:
433,52,258096,5,14,1:2:0:0:
255,171,258229,1,10,1:2:0:0:
459,291,258363,1,10,1:2:0:0:
367,353,258496,1,10,2:2:0:0:
366,346,258563,1,8,2:2:0:0:
364,339,258629,1,10,2:2:0:0:
362,332,258696,1,8,2:2:0:0:
360,325,258763,5,10,1:2:0:0:
296,283,258896,1,10,2:2:0:0:
227,315,259029,1,10,2:2:0:0:
2,356,259163,5,10,1:2:0:0:
72,328,259296,1,10,2:2:0:0:
137,365,259429,1,10,2:2:0:0:
71,43,259563,5,14,1:2:0:0:
124,267,259696,1,10,1:2:0:0:
254,99,259829,2,0,B|193:112|193:112|188:115|188:115|124:127,1,125.999996154785,10|2,1:2|2:2,0:0:0:0:
296,378,260096,5,14,1:2:0:0:
189,213,260229,1,10,1:2:0:0:
330,132,260363,1,10,1:2:0:0:
386,226,260496,1,10,2:2:0:0:
379,225,260563,1,8,2:2:0:0:
372,224,260629,1,10,2:2:0:0:
365,223,260696,1,8,2:2:0:0:
358,222,260763,5,14,1:2:0:0:
278,22,260896,1,10,1:2:0:0:
510,57,261029,2,0,B|449:66|449:66|443:72|443:72|381:80,1,125.999996154785,10|2,1:2|2:2,0:0:0:0:
79,0,261296,5,14,1:2:0:0:
252,151,261429,1,10,1:2:0:0:
65,245,261563,1,10,1:2:0:0:
150,310,261696,1,10,2:2:0:0:
150,303,261763,1,8,2:2:0:0:
151,296,261829,1,10,2:2:0:0:
152,289,261896,1,8,2:2:0:0:
153,282,261963,5,10,1:2:0:0:
220,248,262096,1,10,2:2:0:0:
283,288,262229,1,10,2:2:0:0:
464,335,262363,5,10,1:2:0:0:
403,380,262496,1,10,2:2:0:0:
336,343,262629,1,10,2:2:0:0:
387,79,262763,6,0,B|418:123|418:123|396:210,1,136.499993751526,14|10,1:2|1:2,0:0:0:0:
223,356,263029,1,10,1:2:0:0:
93,158,263163,1,2,2:2:0:0:
299,0,263296,2,0,B|283:68|283:68|280:71|280:71|265:135,1,136.499993751526,14|10,1:2|1:2,0:0:0:0:
153,265,263563,1,10,1:2:0:0:
30,70,263696,1,10,2:2:0:0:
70,64,263763,1,8,2:2:0:0:
110,58,263829,1,10,2:2:0:0:
150,53,263896,1,8,2:2:0:0:
190,47,263963,6,0,B|207:83|207:83|195:114,1,68.2499968757631,14|0,1:2|0:0,0:0:0:0:
90,312,264096,2,0,B|69:284|69:284|75:247,1,68.2499968757631,10|0,1:2|0:0,0:0:0:0:
203,42,264229,2,0,B|218:77|218:77|208:109,1,68.2499968757631,10|0,1:2|0:0,0:0:0:0:
83,326,264363,2,0,B|155:316|155:316|163:319|163:319|228:307,1,136.499993751526,2|14,2:2|1:2,0:0:0:0:
390,180,264629,1,10,1:2:0:0:
309,362,264763,1,10,1:2:0:0:
312,139,264896,1,10,2:2:0:0:
345,105,264962,1,8,2:2:0:0:
391,93,265029,1,10,2:2:0:0:
436,107,265096,1,8,2:2:0:0:
468,141,265162,5,10,2:2:0:0:
453,222,265296,1,10,2:2:0:0:
260,293,265429,1,10,2:2:0:0:
309,362,265563,1,10,2:2:0:0:
72,176,265696,1,10,2:2:0:0:
102,100,265829,1,10,2:2:0:0:
0,326,265963,6,0,B|84:342|84:342|137:313,1,136.499993751526,14|10,1:2|1:2,0:0:0:0:
287,57,266229,1,10,1:2:0:0:
144,232,266363,1,2,2:2:0:0:
380,347,266496,2,0,B|366:286|366:286|368:269|368:269|354:210,1,136.499993751526,14|10,1:2|1:2,0:0:0:0:
204,120,266763,1,10,1:2:0:0:
507,126,266896,1,10,2:2:0:0:
466,131,266962,1,8,2:2:0:0:
425,136,267029,1,10,2:2:0:0:
385,141,267096,1,8,2:2:0:0:
344,146,267163,6,0,B|314:159|314:159|275:151,1,68.2499968757631,14|0,1:2|0:0,0:0:0:0:
9,72,267296,2,0,B|42:58|42:58|84:64,1,68.2499968757631,10|0,1:2|0:0,0:0:0:0:
342,162,267429,2,0,B|312:175|312:175|273:167,1,68.2499968757631,10|0,1:2|0:0,0:0:0:0:
0,87,267563,2,0,B|51:76|51:76|77:83|77:83|135:69,1,136.499993751526,2|14,2:2|1:2,0:0:0:0:
308,301,267829,5,10,1:2:0:0:
204,120,267963,1,10,1:2:0:0:
248,369,268096,1,10,2:2:0:0:
292,384,268162,1,8,2:2:0:0:
338,374,268229,1,2,1:2:0:0:
373,343,268296,1,8,2:2:0:0:
387,298,268362,5,10,2:2:0:0:
348,225,268496,1,10,2:2:0:0:
204,120,268629,1,10,2:2:0:0:
250,53,268763,1,10,2:2:0:0:
84,221,268896,1,10,2:2:0:0:
125,292,269029,1,10,2:2:0:0:
169,49,269163,6,0,B|124:21|124:21|34:44,1,136.499993751526,14|10,1:2|1:2,0:0:0:0:
217,233,269429,1,10,1:2:0:0:
341,21,269563,1,2,2:2:0:0:
488,322,269696,2,0,B|427:309|427:309|415:310|415:310|348:296,1,136.499993751526,14|10,1:2|1:2,0:0:0:0:
242,353,269963,1,10,1:2:0:0:
428,58,270096,1,10,2:2:0:0:
420,98,270162,1,8,2:2:0:0:
412,138,270229,1,10,2:2:0:0:
404,178,270296,1,8,2:2:0:0:
396,218,270363,6,0,B|358:221|358:221|322:198,1,68.2499968757631,14|0,1:2|0:0,0:0:0:0:
103,45,270496,2,0,B|135:33|135:33|171:44,1,68.2499968757631,10|0,1:2|0:0,0:0:0:0:
396,231,270629,2,0,B|358:234|358:234|325:215,1,68.2499968757631,10|0,1:2|0:0,0:0:0:0:
89,37,270763,2,0,B|143:15|143:15|225:39,1,136.499993751526,2|14,2:2|1:2,0:0:0:0:
186,307,271029,5,10,1:2:0:0:
141,111,271163,1,10,1:2:0:0:
257,343,271296,1,10,2:2:0:0:
221,374,271362,1,8,2:2:0:0:
175,381,271429,1,10,2:2:0:0:
132,362,271496,1,8,2:2:0:0:
106,322,271562,5,10,2:2:0:0:
133,244,271696,1,10,2:2:0:0:
401,273,271829,1,10,2:2:0:0:
442,202,271963,1,10,2:2:0:0:
307,30,272096,1,10,2:2:0:0:
275,106,272229,1,10,2:2:0:0:
457,352,272363,6,0,B|410:368|410:368|318:331,1,136.499993751526,14|10,1:2|1:2,0:0:0:0:
141,111,272629,1,10,1:2:0:0:
257,343,272763,1,2,2:2:0:0:
512,56,272896,2,0,B|455:42|455:42|435:46|435:46|376:30,1,136.499993751526,14|10,1:2|1:2,0:0:0:0:
218,36,273163,1,10,1:2:0:0:
461,270,273296,1,10,2:2:0:0:
420,265,273362,1,8,2:2:0:0:
396,231,273429,1,10,2:2:0:0:
401,190,273496,1,8,2:2:0:0:
435,168,273563,6,0,B|471:164|471:164|510:179,1,68.2499968757631,14|0,1:2|0:0,0:0:0:0:
171,271,273696,2,0,B|139:284|139:284|100:273,1,68.2499968757631,10|0,1:2|0:0,0:0:0:0:
441,156,273829,2,0,B|476:150|476:150|515:165,1,68.2499968757631,10|0,1:2|0:0,0:0:0:0:
167,256,273963,2,0,B|115:243|115:243|80:256|80:256|19:241,1,136.499993751526,2|14,2:2|1:2,0:0:0:0:
150,80,274229,5,10,1:2:0:0:
274,301,274363,1,10,1:2:0:0:
241,55,274496,1,10,2:2:0:0:
211,18,274562,1,8,2:2:0:0:
167,0,274629,1,10,2:2:0:0:
120,2,274696,1,8,2:2:0:0:
80,26,274762,5,10,2:2:0:0:
227,186,274896,1,10,2:2:0:0:
367,109,275029,1,10,1:3:0:0:
422,191,275163,1,10,2:3:0:0:
478,149,275296,1,6,1:3:0:0:
512,179,275429,1,6,2:3:0:0:
29,293,275563,6,0,B|47:309|111:313|119:232|64:190|-5:215|-5:215|42:192|104:168|138:275|192:345|294:329|367:233|367:233|241:173|179:262,1,841.680038015334,6|0,1:2|0:0,0:0:0:0:
271,104,288363,6,0,B|404:121|392:53|444:23|444:23|317:-23|225:64|342:107|157:218|62:91,1,651,6|0,2:2|0:0,0:0:0:0:
31,13,290496,6,0,B|66:10|66:10|95:23,1,63,2|0,2:2|0:0,0:0:0:0:
223,19,290763,2,0,B|189:31|189:31|166:53,1,63,2|0,2:2|0:0,0:0:0:0:
112,103,291029,2,0,B|117:131|117:131|120:138|120:138|128:180,1,63,2|0,2:2|0:0,0:0:0:0:
72,232,291296,2,0,B|77:255|77:255|80:260|80:260|87:293,1,63,2|0,2:2|0:0,0:0:0:0:
37,357,291563,6,0,B|86:281|179:322|144:343|219:407|298:324,1,294,6|0,2:2|0:0,0:0:0:0:
212,252,292585,1,0,0:0:0:0:
221,257,292629,2,0,L|229:297,3,28,2|2|2|2,2:2|2:2|2:2|2:2,0:0:0:0:
382,179,293163,2,0,L|378:215,3,28,2|2|2|2,2:2|2:2|2:2|2:2,0:0:0:0:
232,83,293696,1,2,2:2:0:0:
244,71,293829,1,2,2:2:0:0:
202,11,294007,2,0,B|207:42|207:42|209:46|209:46|213:78,1,56,2|0,2:2|0:0,0:0:0:0:
247,188,294274,2,0,B|303:154|303:154|85:179,1,280,2|0,2:2|0:0,0:0:0:0:
134,234,295963,6,0,B|160:230|160:230|164:230|164:230|190:226,1,42,2|2,2:2|2:2,0:0:0:0:
186,235,296163,1,2,2:2:0:0:
197,240,296229,2,0,B|224:235|224:235|230:235|230:235|253:232,1,42,2|2,2:2|2:2,0:0:0:0:
327,274,296429,1,0,0:0:0:0:
328,265,296496,1,2,2:2:0:0:
329,256,296563,1,2,2:2:0:0:
332,248,296629,6,0,L|302:254,3,21,2|2|0|0,2:2|2:2|0:0|0:0,0:0:0:0:
402,192,296896,2,0,L|444:206,2,31.4999990386963,0|2|2,0:0|2:2|2:2,0:0:0:0:
407,181,297096,2,0,L|444:193,2,31.4999990386963,2|0|0,2:2|0:0|0:0,0:0:0:0:
325,135,297296,1,2,0:0:0:0:
325,135,297363,2,0,L|262:156,1,42,2|2,0:0|0:0,0:0:0:0:
402,69,297496,2,0,L|456:84,2,42,0|2|0,0:0|2:2|0:0,0:0:0:0:
339,4,297696,2,0,L|285:15,2,48.9999985046387
241,74,297963,2,0,L|200:68,2,41.9999987182618,2|2|0,2:2|2:2|0:0,0:0:0:0:
103,59,298229,5,2,2:2:0:0:
111,72,298318,1,2,0:0:0:0:
101,94,298407,2,0,B|66:130|66:130|247:98,1,230.99999295044,2|0,0:0|0:0,0:0:0:0:
318,155,298940,2,0,B|275:164,2,41.9999987182618,2|2|2,2:2|2:2|2:2,0:0:0:0:
235,220,299207,2,0,L|142:240,1,83.9999974365235,2|2,2:2|2:2,0:0:0:0:
335,284,299607,5,2,2:2:0:0:
338,293,299696,2,0,L|374:286,1,31.4999990386963,2|0,2:2|0:0,0:0:0:0:
464,338,299829,2,0,B|446:315|446:315|458:241,1,94.499997116089
413,192,300096,2,0,B|422:150|422:150|420:144|420:144|434:83,1,94.499997116089,2|0,2:2|0:0,0:0:0:0:
437,92,300363,2,0,L|447:51,1,31.4999990386963,2|0,2:2|0:0,0:0:0:0:
373,46,300496,2,0,B|329:-1|216:24|291:65|205:111|139:57,1,252,2|0,2:2|0:0,0:0:0:0:
322,182,301429,2,0,B|336:136|336:136|319:104,1,84
195,286,302007,6,0,L|178:238,2,42,2|2|0,2:2|2:2|0:0,0:0:0:0:
280,350,302396,2,0,L|294:287,2,62.9999980773926,2|2|2,2:2|2:2|2:2,0:0:0:0:
389,274,302807,2,0,L|372:187,2,84,2|2|2,2:2|2:2|2:2,0:0:0:0:
426,75,303179,1,2,0:0:0:0:
340,114,303329,1,2,0:0:0:0:
331,105,303446,1,2,0:0:0:0:
284,45,303563,2,0,B|233:36|233:36|224:38|224:38|137:24,1,140,2|2,2:2|2:2,0:0:0:0:
136,32,303829,1,2,2:2:0:0:
15,274,304096,5,2,2:2:0:0:
32,269,304229,1,2,2:2:0:0:
101,333,304363,1,6,2:2:0:0:
266,308,304629,2,0,B|312:319|312:319|316:323|316:323|358:331,1,94.499997116089,2|0,2:2|0:0,0:0:0:0:
417,260,304896,2,0,B|373:249|373:249|364:249|364:249|324:241,1,94.499997116089,2|0,2:2|0:0,0:0:0:0:
239,218,305163,6,0,B|259:130|259:130|247:91|247:91|262:9|262:9|280:70,1,273,2|0,2:2|0:0,0:0:0:0:
355,152,306163,2,0,B|394:154|394:154|400:155|400:155|440:158,1,84,2|0,2:2|0:0,0:0:0:0:
445,163,306496,1,2,2:2:0:0:
261,304,306763,2,0,B|229:301|229:301|224:302|224:302|183:299,1,63,2|0,2:2|0:0,0:0:0:0:
127,354,307029,2,0,B|114:281|114:281|125:245|125:245|100:218|100:218|85:134,1,231,2|0,2:2|0:0,0:0:0:0:
136,76,307829,6,0,P|104:59|67:57,1,63,2|0,2:2|0:0,0:0:0:0:
67,60,308096,2,0,P|49:64|39:68,1,21,2|0,2:2|0:0,0:0:0:0:
232,134,308229,2,0,P|245:106|264:92,1,42,2|0,2:2|0:0,0:0:0:0:
249,25,308429,2,0,P|280:30|310:54,1,63,2|0,2:2|0:0,0:0:0:0:
409,46,308696,2,0,P|382:69|369:95,1,63,2|0,2:2|0:0,0:0:0:0:
365,101,308963,2,0,P|365:129|373:149,1,42,2|0,0:0|0:0,0:0:0:0:
289,203,309163,2,0,B|219:159|219:159|496:221,1,357,2|0,2:2|0:0,0:0:0:0:
496,236,310363,2,0,L|462:229,6,21,2|0|2|0|2|0|6,2:2|0:0|2:2|0:0|2:2|0:0|2:2,0:0:0:0:
224,197,312363,6,0,B|189:194|189:194|182:196|182:196|156:193,1,62.9999980773926,2|2,2:2|2:2,0:0:0:0:
152,201,312540,2,0,L|96:197,2,55.9999982910157,0|0|2,0:0|0:0|2:2,0:0:0:0:
321,280,313029,5,2,2:2:0:0:
326,291,313163,1,2,2:2:0:0:
415,205,313296,1,2,2:2:0:0:
411,218,313429,1,2,2:2:0:0:
411,109,313563,2,0,B|363:135|363:135|262:100,1,157.499995193482,6|0,2:2|0:0,0:0:0:0:
263,24,313963,5,6,1:2:0:0:
133,214,314096,1,2,1:2:0:0:
59,149,314229,1,2,1:2:0:0:
135,11,314363,2,0,B|164:44|164:44|143:127,1,125.999996154785,0|2,0:0|1:2,0:0:0:0:
0,275,314629,1,2,1:2:0:0:
208,173,314763,2,0,B|259:188|259:188|289:183|289:183|332:195,2,125.999996154785,10|0|0,2:2|0:0|0:0,0:0:0:0:
423,384,315163,5,2,1:2:0:0:
283,265,315296,1,2,1:2:0:0:
121,354,315429,2,0,B|174:347|174:347|199:356|199:356|252:348,1,125.999996154785,2|0,1:2|0:0,0:0:0:0:
93,104,315696,1,2,1:2:0:0:
191,253,315829,1,2,1:2:0:0:
310,36,315963,2,0,B|279:13|279:13|188:34,2,125.999996154785,2|0|0,1:2|0:0|0:0,0:0:0:0:
469,129,316363,5,10,2:2:0:0:
283,265,316496,1,2,1:2:0:0:
467,116,316629,1,2,1:2:0:0:
234,116,316763,5,2,1:2:0:0:
368,330,316896,1,2,1:2:0:0:
222,112,317029,1,2,1:2:0:0:
454,247,317163,5,6,1:2:0:0:
279,376,317296,1,2,1:2:0:0:
193,324,317429,1,2,1:2:0:0:
289,169,317563,2,0,B|308:211|308:211|282:292,1,125.999996154785,0|2,0:0|1:2,0:0:0:0:
169,28,317829,1,2,1:2:0:0:
388,88,317963,2,0,B|436:80|436:80|471:93|471:93|518:84,2,125.999996154785,10|0|0,2:2|0:0|0:0,0:0:0:0:
261,0,318363,5,2,1:2:0:0:
142,210,318496,1,2,1:2:0:0:
405,184,318629,2,0,B|331:152|331:152|271:176,1,125.999996154785,2|0,1:2|0:0,0:0:0:0:
155,122,318896,1,2,1:2:0:0:
257,340,319029,1,2,1:2:0:0:
50,320,319163,2,0,B|105:304|105:304|129:306|129:306|189:288,2,125.999996154785,2|0|0,1:2|0:0|0:0,0:0:0:0:
399,327,319563,5,10,2:2:0:0:
194,191,319696,1,2,1:2:0:0:
413,326,319829,1,2,1:2:0:0:
422,162,319963,5,2,1:2:0:0:
257,340,320096,1,2,1:2:0:0:
417,150,320229,1,2,1:2:0:0:
145,60,320363,5,6,1:2:0:0:
324,155,320496,1,2,1:2:0:0:
383,77,320629,1,2,1:2:0:0:
245,3,320763,2,0,B|224:48|224:48|250:131,1,125.999996154785,0|2,0:0|1:2,0:0:0:0:
358,295,321029,1,2,1:2:0:0:
188,201,321163,2,0,B|146:194|146:194|113:205|113:205|54:195,2,125.999996154785,10|0|0,2:2|0:0|0:0,0:0:0:0:
253,368,321563,5,2,1:2:0:0:
408,182,321696,1,2,1:2:0:0:
507,384,321829,2,0,B|462:375|462:375|432:384|432:384|383:375,1,125.999996154785,2|0,1:2|0:0,0:0:0:0:
324,155,322096,1,2,1:2:0:0:
416,302,322229,1,2,1:2:0:0:
512,72,322363,2,0,B|475:50|475:50|382:66,2,125.999996154785,2|0|0,1:2|0:0|0:0,0:0:0:0:
180,117,322763,5,10,2:2:0:0:
408,182,322896,1,2,1:2:0:0:
169,108,323029,1,2,1:2:0:0:
326,275,323163,5,2,1:2:0:0:
297,44,323296,1,2,1:2:0:0:
336,287,323429,1,2,1:2:0:0:
31,294,323563,5,6,1:2:0:0:
216,224,323696,1,2,1:2:0:0:
252,298,323829,1,2,1:2:0:0:
151,384,323963,2,0,B|120:364|120:364|108:264,1,125.999996154785,0|2,0:0|1:2,0:0:0:0:
42,60,324229,1,2,1:2:0:0:
261,155,324363,2,0,B|212:144|212:144|180:154|180:154|129:145,2,125.999996154785,10|0|0,2:2|0:0|0:0,0:0:0:0:
493,109,324763,5,2,1:2:0:0:
338,254,324896,1,2,1:2:0:0:
265,44,325029,2,0,B|303:34|303:34|389:64,1,125.999996154785,2|0,1:2|0:0,0:0:0:0:
450,362,325296,1,2,1:2:0:0:
339,138,325429,1,2,1:2:0:0:
170,349,325563,2,0,B|221:342|221:342|251:350|251:350|299:341,2,125.999996154785,10|0|0,2:2|0:0|1:1,0:0:0:0:
58,118,325963,5,10,2:2:0:0:
191,234,326096,1,10,2:2:0:0:
228,229,326163,1,8,2:2:0:0:
265,224,326229,1,10,2:2:0:0:
339,138,326363,1,10,2:2:0:0:
450,362,326496,1,10,1:3:0:0:
511,300,326629,1,6,1:3:0:0:
279,55,326763,5,6,1:2:0:0:
426,199,326896,1,2,1:2:0:0:
495,145,327029,1,2,1:2:0:0:
436,0,327163,2,0,B|401:33|401:33|421:122,1,131.25,0|2,0:0|1:2,0:0:0:0:
511,300,327429,1,2,1:2:0:0:
300,209,327563,2,0,B|378:184|378:184|435:201,2,131.25,14|0|0,2:2|0:0|0:0,0:0:0:0:
67,167,327963,5,2,1:2:0:0:
199,346,328096,1,2,1:2:0:0:
277,106,328229,2,0,B|228:98|228:98|197:110|197:110|141:101,1,131.25,2|4,1:2|2:2,0:0:0:0:
82,381,328496,1,2,1:2:0:0:
240,191,328629,1,2,1:2:0:0:
399,328,328763,2,0,B|360:344|360:344|272:320,2,131.25,2|0|0,1:2|0:0|0:0,0:0:0:0:
376,95,329163,5,14,2:2:0:0:
491,280,329296,1,2,1:2:0:0:
362,91,329429,1,2,1:2:0:0:
353,250,329563,5,6,1:2:0:0:
491,46,329696,1,2,1:2:0:0:
343,264,329829,1,2,1:2:0:0:
137,68,329963,5,6,1:2:0:0:
228,236,330096,1,2,1:2:0:0:
161,303,330229,1,2,1:2:0:0:
21,220,330363,2,0,B|62:199|62:199|152:224,1,131.25,0|2,0:0|1:2,0:0:0:0:
273,384,330629,1,2,1:2:0:0:
431,165,330763,2,0,B|393:144|393:144|294:167,2,131.25,14|0|0,2:2|0:0|0:0,0:0:0:0:
221,95,331163,5,2,1:2:0:0:
371,279,331296,1,2,1:2:0:0:
466,44,331429,1,2,1:2:0:0:
242,204,331563,2,0,B|189:196|189:196|161:205|161:205|103:195,1,131.25,4|2,2:2|1:2,0:0:0:0:
381,381,331829,2,0,B|435:375|435:375|459:381|459:381|520:374,1,131.25,2|2,1:2|1:2,0:0:0:0:
402,114,332096,1,0,0:0:0:0:
332,160,332229,1,0,0:0:0:0:
381,381,332363,5,14,2:2:0:0:
472,207,332496,1,2,1:2:0:0:
253,108,332629,5,2,1:2:0:0:
371,279,332763,1,6,1:2:0:0:
425,28,332896,5,2,1:2:0:0:
263,224,333029,1,2,1:2:0:0:
68,37,333163,5,6,1:2:0:0:
253,108,333296,1,2,1:2:0:0:
319,39,333429,1,2,1:2:0:0:
174,0,333563,2,0,B|148:43|148:43|170:125,1,131.25,0|2,0:0|1:2,0:0:0:0:
84,315,333829,1,2,1:2:0:0:
263,224,333963,2,0,B|307:210|307:210|399:242,2,131.25,14|0|0,2:2|0:0|0:0,0:0:0:0:
380,384,334363,5,2,1:2:0:0:
118,239,334496,1,2,1:2:0:0:
364,88,334629,1,2,1:2:0:0:
239,373,334763,1,4,2:2:0:0:
294,302,334896,1,2,1:2:0:0:
150,109,335029,1,2,1:2:0:0:
0,325,335163,2,0,B|60:318|60:318|85:324|85:324|133:318,2,131.25,2|0|0,1:2|0:0|0:0,0:0:0:0:
377,295,335563,5,14,2:2:0:0:
118,239,335696,1,2,1:2:0:0:
386,286,335829,1,2,1:2:0:0:
193,359,335963,5,6,1:2:0:0:
353,168,336096,1,2,1:2:0:0:
179,362,336229,1,2,1:2:0:0:
410,68,336363,5,6,1:2:0:0:
176,119,336496,1,2,1:2:0:0:
131,42,336629,1,2,1:2:0:0:
303,0,336763,2,0,B|323:46|323:46|294:128,1,131.25,0|2,0:0|1:2,0:0:0:0:
394,287,337029,1,2,1:2:0:0:
236,175,337163,2,0,B|195:161|195:161|109:198,2,131.25,14|0|0,2:2|0:0|0:0,0:0:0:0:
404,381,337563,5,2,1:2:0:0:
326,208,337696,1,2,1:2:0:0:
486,140,337829,1,2,1:2:0:0:
275,315,337963,2,0,B|226:306|226:306|192:317|192:317|137:306,1,131.25,4|2,2:2|1:2,0:0:0:0:
0,97,338229,2,0,B|57:103|57:103|78:119|78:119|132:127,1,131.25,2|10,1:2|2:2,0:0:0:0:
350,20,338496,1,0,1:1:0:0:
300,88,338629,1,0,1:1:0:0:
383,284,338763,5,10,2:2:0:0:
202,121,338896,1,2,1:2:0:0:
445,47,339029,1,2,1:2:0:0:
179,322,339163,5,10,2:2:0:0:
230,312,339229,1,0,0:0:0:0:
282,305,339296,1,8,2:2:0:0:
333,296,339363,1,8,2:2:0:0:
383,284,339429,1,8,2:2:0:0:
388,272,339496,1,0,0:0:0:0:
393,258,339563,5,6,1:2:0:0:
300,88,339696,1,8,2:2:0:0:
512,8,339829,1,0,1:1:0:0:
286,214,339963,2,0,B|232:203|232:203|202:210|202:210|140:197,1,136.499993751526,8|0,2:2|1:1,0:0:0:0:
0,211,340229,1,10,2:2:0:0:
151,362,340363,1,0,1:1:0:0:
286,214,340496,1,8,2:2:0:0:
152,69,340629,2,0,B|118:113|118:113|141:201,1,136.499993751526,0|8,1:1|2:2,0:0:0:0:
351,328,340896,1,0,1:1:0:0:
224,154,341029,1,8,2:2:0:0:
512,86,341163,5,2,1:2:0:0:
379,243,341296,1,8,2:2:0:0:
256,81,341429,1,0,1:1:0:0:
403,0,341563,2,0,B|434:46|434:46|413:129,1,136.499993751526,10|0,2:2|1:1,0:0:0:0:
436,365,341829,1,10,2:2:0:0:
286,214,341963,1,0,1:1:0:0:
151,362,342096,1,8,2:2:0:0:
484,294,342229,2,0,B|438:284|438:284|408:293|408:293|347:278,1,136.499993751526,0|10,1:1|2:2,0:0:0:0:
151,174,342496,1,2,1:2:0:0:
276,384,342629,2,0,B|284:351|284:351|282:344|282:344|288:313,1,68.2499968757631,10|0,2:2|0:0,0:0:0:0:
432,64,342763,5,6,1:2:0:0:
286,214,342896,1,8,2:2:0:0:
147,53,343029,1,0,1:1:0:0:
333,0,343163,2,0,B|309:32|309:32|331:134,1,136.499993751526,8|0,2:2|1:1,0:0:0:0:
436,365,343429,1,10,2:2:0:0:
372,192,343563,1,0,1:1:0:0:
512,88,343696,1,8,2:2:0:0:
217,283,343829,2,0,B|269:275|269:275|303:286|303:286|360:277,1,136.499993751526,0|8,1:1|2:2,0:0:0:0:
316,113,344096,1,0,1:1:0:0:
146,341,344229,2,0,B|136:307|136:307|137:302|137:302|129:270,1,68.2499968757631,10|0,2:2|0:0,0:0:0:0:
13,63,344363,5,2,1:2:0:0:
186,196,344496,1,8,2:2:0:0:
280,12,344629,1,0,1:1:0:0:
111,0,344763,2,0,B|93:45|93:45|124:128,1,136.499993751526,8|0,2:2|1:1,0:0:0:0:
47,314,345029,5,10,2:2:0:0:
277,184,345163,1,8,2:2:0:0:
316,239,345229,1,8,2:2:0:0:
300,286,345296,1,8,2:2:0:0:
263,301,345363,1,8,2:2:0:0:
247,296,345429,2,0,B|214:288|214:288|207:285|207:285|171:276,1,68.2499968757631,10|0,2:3|1:1,0:0:0:0:
58,110,345563,2,0,B|95:118|95:118|100:122|100:122|135:130,1,68.2499968757631,10|8,2:3|2:2,0:0:0:0:
316,113,345696,1,10,2:2:0:0:
329,116,345763,1,0,0:0:0:0:
342,119,345829,1,2,1:2:0:0:
355,122,345896,1,0,1:1:0:0:
368,126,345963,5,6,1:2:0:0:
205,0,346096,1,8,2:2:0:0:
58,110,346229,1,0,1:1:0:0:
247,296,346363,2,0,B|280:266|280:266|270:166,1,136.499993751526,8|0,2:2|1:1,0:0:0:0:
47,314,346629,1,10,2:2:0:0:
208,127,346763,1,0,1:1:0:0:
395,302,346896,1,8,2:2:0:0:
0,208,347029,2,0,B|53:204|53:204|89:217|89:217|140:212,1,136.499993751526,0|8,1:1|2:2,0:0:0:0:
266,379,347296,1,0,1:1:0:0:
372,167,347429,1,8,2:2:0:0:
75,51,347563,5,2,1:2:0:0:
241,203,347696,1,8,2:2:0:0:
352,42,347829,1,0,1:1:0:0:
160,0,347963,2,0,B|179:46|179:46|153:137,1,136.499993751526,8|0,2:2|1:1,0:0:0:0:
176,331,348229,1,10,2:2:0:0:
73,193,348363,1,0,1:1:0:0:
59,189,348430,1,0,1:1:0:0:
45,185,348496,5,8,2:2:0:0:
262,289,348629,1,0,1:1:0:0:
91,357,348763,1,10,2:2:0:0:
276,162,348896,1,2,1:2:0:0:
431,298,349029,1,10,2:2:0:0:
512,50,349163,5,6,1:2:0:0:
276,162,349296,1,8,2:2:0:0:
133,1,349429,1,0,1:1:0:0:
378,0,349563,2,0,B|412:34|412:34|397:129,1,136.499993751526,10|0,2:2|1:1,0:0:0:0:
469,369,349829,1,10,2:2:0:0:
306,240,349963,1,0,1:1:0:0:
167,384,350096,1,8,2:2:0:0:
406,140,350229,2,0,B|397:199|397:199|400:211|400:211|388:289,1,136.499993751526,0|8,1:1|2:2,0:0:0:0:
114,182,350496,1,0,1:1:0:0:
280,341,350629,1,10,2:2:0:0:
361,27,350763,5,2,1:2:0:0:
199,159,350896,1,8,2:2:0:0:
60,0,351029,1,0,1:1:0:0:
449,74,351163,2,0,B|406:62|406:62|362:72|362:72|303:54,1,136.499993751526,10|0,2:2|1:1,0:0:0:0:
414,316,351429,5,10,2:2:0:0:
315,136,351563,1,8,2:2:0:0:
280,190,351629,1,8,2:2:0:0:
296,240,351696,1,8,2:2:0:0:
333,252,351763,1,8,2:2:0:0:
345,246,351829,2,0,B|374:242|374:242|382:244|382:244|419:240,1,68.2499968757631,10|8,1:3|2:3,0:0:0:0:
200,366,351963,2,0,B|169:361|169:361|159:362|159:362|121:356,1,68.2499968757631,10|8,1:3|2:3,0:0:0:0:
25,197,352096,1,6,1:3:0:0:
38,195,352163,1,4,2:3:0:0:
51,192,352229,1,6,1:3:0:0:
64,190,352296,1,4,2:3:0:0:
77,187,352363,5,6,1:2:0:0:
200,366,352496,1,8,2:2:0:0:
345,244,352629,1,0,1:1:0:0:
149,54,352763,2,0,B|159:110|159:110|165:118|165:118|178:196,1,136.499993751526,8|0,2:2|1:1,0:0:0:0:
131,328,353029,1,10,2:2:0:0:
356,154,353163,1,0,1:1:0:0:
477,331,353296,1,8,2:2:0:0:
267,384,353429,2,0,B|254:316|254:316|248:307|248:307|237:244,1,136.499993751526,0|8,1:1|2:2,0:0:0:0:
365,48,353696,1,0,1:1:0:0:
161,208,353829,2,0,B|156:175|156:175|152:168|152:168|148:140,1,68.2499968757631,8|0,2:2|0:0,0:0:0:0:
404,324,353963,5,2,1:2:0:0:
273,174,354096,1,8,2:2:0:0:
475,95,354229,1,0,1:1:0:0:
260,293,354363,2,0,B|204:287|204:287|176:295|176:295|124:288,1,136.499993751526,10|0,2:2|1:1,0:0:0:0:
24,80,354629,5,10,2:2:0:0:
135,211,354763,1,0,1:1:0:0:
148,210,354829,1,0,1:1:0:0:
161,208,354896,1,8,2:2:0:0:
292,104,355029,1,2,1:2:0:0:
253,92,355096,1,0,1:1:0:0:
213,84,355163,1,10,2:2:0:0:
362,244,355296,1,2,1:2:0:0:
415,230,355363,1,0,1:1:0:0:
465,210,355429,2,0,B|452:181|452:181|452:176|452:176|436:135,1,68.2499968757631,10|0,2:2|0:0,0:0:0:0:
125,71,355563,5,6,1:2:0:0:
291,198,355696,1,8,2:2:0:0:
179,354,355829,1,0,1:1:0:0:
0,230,355963,2,0,B|63:218|63:218|80:220|80:220|144:208,1,136.499993751526,8|0,2:2|1:1,0:0:0:0:
512,103,356229,1,10,2:2:0:0:
362,244,356363,1,0,1:1:0:0:
253,92,356496,1,8,2:2:0:0:
428,0,356629,2,0,B|418:53|418:53|425:79|425:79|418:143,1,136.499993751526,0|8,1:1|2:2,0:0:0:0:
488,311,356896,1,0,1:1:0:0:
334,103,357029,2,0,B|303:100|303:100|294:102|294:102|265:99,1,68.2499968757631,8|0,2:2|0:0,0:0:0:0:
0,262,357163,5,2,1:2:0:0:
158,136,357296,1,8,2:2:0:0:
0,0,357429,1,0,1:1:0:0:
108,247,357563,2,0,B|170:255|170:255|184:261|184:261|248:270,1,136.499993751526,10|0,2:2|1:1,0:0:0:0:
512,156,357829,5,10,2:2:0:0:
351,354,357963,1,0,1:1:0:0:
306,304,358029,1,0,1:1:0:0:
316,257,358096,1,0,1:1:0:0:
355,243,358163,1,0,1:1:0:0:
371,249,358229,2,0,B|405:253|405:253|411:255|411:255|448:259,1,68.2499968757631,8|0,2:2|0:0,0:0:0:0:
336,100,358363,2,0,B|313:106|313:106|308:105|308:105|270:113,1,68.2499968757631,8|0,2:2|0:0,0:0:0:0:
93,192,358496,1,0,1:1:0:0:
79,189,358563,1,0,1:1:0:0:
65,186,358629,1,0,1:1:0:0:
51,182,358696,1,0,1:1:0:0:
37,179,358763,5,6,1:2:0:0:
156,4,358896,1,8,2:2:0:0:
336,100,359029,1,0,1:1:0:0:
235,285,359163,2,0,B|211:254|211:254|225:153,1,136.499993751526,8|0,2:2|1:1,0:0:0:0:
441,383,359429,1,10,2:2:0:0:
250,203,359563,1,0,1:1:0:0:
81,361,359696,1,8,2:2:0:0:
512,244,359829,2,0,B|449:228|449:228|432:231|432:231|370:213,1,136.499993751526,2|10,1:2|2:2,0:0:0:0:
187,41,360096,5,2,1:2:0:0:
190,54,360163,1,0,1:1:0:0:
193,66,360229,1,10,2:2:0:0:
301,302,360363,1,2,1:2:0:0:
444,146,360496,1,8,2:2:0:0:
289,29,360629,1,0,1:1:0:0:
70,238,360763,2,0,B|132:228|132:228|147:230|147:230|211:219,1,136.499993751526,8|0,2:2|1:1,0:0:0:0:
370,356,361029,1,10,2:2:0:0:
173,151,361163,2,0,B|205:146|205:146|213:147|213:147|245:141,1,68.2499968757631,0|0,1:1|0:0,0:0:0:0:
512,239,361296,5,10,2:2:0:0:
313,102,361429,1,2,1:2:0:0:
476,0,361563,1,10,2:2:0:0:
371,255,361696,1,2,1:2:0:0:
221,65,361829,1,10,2:2:0:0:
70,238,361963,5,14,1:2:0:0:
313,102,362096,1,0,2:2:0:0:
68,0,362229,1,0,1:1:0:0:
226,331,362363,2,0,B|285:322|285:322|299:326|299:326|367:315,1,136.499993751526,10|0,2:2|1:1,0:0:0:0:
512,82,362629,1,10,2:2:0:0:
256,244,362763,2,0,B|287:241|287:241|293:238|293:238|326:235,1,68.2499968757631,0|0,1:1|0:0,0:0:0:0:
20,60,362896,5,8,2:2:0:0:
153,254,363029,1,0,1:1:0:0:
237,8,363163,1,8,2:2:0:0:
0,203,363296,2,0,B|56:187|56:187|78:189|78:189|136:173,1,136.499993751526,0|8,1:1|2:2,0:0:0:0:
303,346,363563,1,6,1:2:0:0:
194,137,363696,1,8,2:2:0:0:
403,28,363829,1,0,1:1:0:0:
512,237,363963,1,10,2:2:0:0:
253,241,364096,5,0,1:1:0:0:
304,223,364163,1,0,1:1:0:0:
356,209,364229,1,2,1:2:0:0:
408,192,364296,1,0,1:1:0:0:
460,175,364363,5,10,1:3:0:0:
464,162,364429,1,8,2:3:0:0:
468,148,364496,1,10,1:3:0:0:
472,134,364563,1,8,2:3:0:0:
474,120,364629,6,0,B|445:114|445:114|435:114|435:114|398:108,1,68.2499968757631,6|4,1:3|2:3,0:0:0:0:
305,12,364763,2,0,B|335:16|335:16|341:19|341:19|372:24,1,68.2499968757631,6|4,1:3|2:3,0:0:0:0:
182,61,364896,2,0,B|153:57|153:57|144:58|144:58|106:51,3,68.2499968757631,10|8|6|4,1:3|2:3|1:3|2:3,0:0:0:0:
76,316,365163,6,0,B|89:286|89:286|88:283|88:283|104:248,1,73.4999977569581,6|0,1:2|0:0,0:0:0:0:
263,93,365296,2,0,B|252:128|252:128|253:133|253:133|240:169,1,73.4999977569581,10|0,2:2|0:0,0:0:0:0:
338,337,365429,2,0,B|290:354|290:354|186:304,1,146.999995513916,2|8,1:2|2:2,0:0:0:0:
474,120,365696,1,0,1:1:0:0:
290,255,365829,1,8,2:2:0:0:
317,34,365963,1,0,1:1:0:0:
432,217,366096,1,8,2:2:0:0:
445,3,366229,1,0,1:1:0:0:
373,126,366363,1,8,2:2:0:0:
204,28,366496,6,0,B|173:22|173:22|168:23|168:23|124:14,1,73.4999977569581,2|0,1:2|0:0,0:0:0:0:
73,231,366629,2,0,B|40:224|40:224|35:224|35:224|0:217,1,73.4999977569581,10|0,2:2|0:0,0:0:0:0:
0,52,366763,2,0,B|53:65|53:65|80:87|80:87|141:99,1,146.999995513916,6|8,1:2|2:2,0:0:0:0:
278,278,367029,1,0,1:1:0:0:
140,110,367163,1,8,2:2:0:0:
410,35,367296,6,0,B|448:30|448:30|453:31|453:31|488:24,1,73.4999977569581,2|0,1:2|0:0,0:0:0:0:
167,205,367429,2,0,B|206:196|206:196|211:197|211:197|251:189,1,73.4999977569581,10|0,2:2|0:0,0:0:0:0:
432,349,367563,2,0,B|461:312|461:312|428:207,1,146.999995513916,6|8,1:2|2:2,0:0:0:0:
297,0,367829,1,0,1:1:0:0:
458,125,367963,1,8,2:2:0:0:
278,278,368096,6,0,B|243:269|243:269|237:270|237:270|204:261,1,73.4999977569581,2|0,1:2|1:2,0:0:0:0:
451,133,368229,2,0,B|411:124|411:124|406:124|406:124|366:115,1,73.4999977569581,10|0,2:2|0:0,0:0:0:0:
70,76,368363,2,0,B|106:59|106:59|223:81,1,146.999995513916,6|8,1:2|2:2,0:0:0:0:
221,384,368629,1,0,1:1:0:0:
122,139,368763,1,8,2:2:0:0:
51,341,368896,1,0,1:1:0:0:
209,199,369029,1,8,2:2:0:0:
322,374,369163,1,0,1:1:0:0:
150,287,369296,1,8,2:2:0:0:
413,209,369429,1,0,1:1:0:0:
221,384,369563,1,8,2:2:0:0:
203,10,369696,6,0,B|241:3|241:3|245:5|245:5|285:-2,1,73.4999977569581,2|0,1:2|0:0,0:0:0:0:
248,278,369829,2,0,B|284:268|284:268|288:269|288:269|328:257,1,73.4999977569581,10|0,2:2|0:0,0:0:0:0:
494,66,369963,2,0,B|453:46|453:46|345:69,1,146.999995513916,6|8,1:2|2:2,0:0:0:0:
106,77,370229,1,0,1:1:0:0:
323,170,370363,1,8,2:2:0:0:
0,331,370496,6,0,B|31:338|31:338|36:337|36:337|68:342,1,73.4999977569581,2|0,1:2|0:0,0:0:0:0:
213,216,370629,2,0,B|183:210|183:210|179:211|179:211|139:204,1,73.4999977569581,10|0,2:2|0:0,0:0:0:0:
34,64,370763,2,0,B|68:68|68:68|72:71|72:71|112:77,1,73.4999977569581,6|0,1:2|0:0,0:0:0:0:
169,309,370896,1,8,2:2:0:0:
161,296,370963,1,0,1:2:0:0:
153,283,371029,2,0,B|122:277|122:277|115:278|115:278|80:271,1,73.4999977569581,8|0,2:2|0:0,0:0:0:0:
323,170,371163,2,0,B|293:159|293:159|286:159|286:159|246:146,1,73.4999977569581,8|0,1:3|0:0,0:0:0:0:
428,368,371296,6,0,B|436:329|436:329|435:323|435:323|441:296,1,73.4999977569581,10|0,1:3|0:0,0:0:0:0:
405,166,371429,2,0,B|397:200|397:200|398:206|398:206|390:244,1,73.4999977569581,6|0,1:3|0:0,0:0:0:0:
134,52,371563,2,0,B|177:35|177:35|286:70,1,146.999995513916,6|8,1:2|2:2,0:0:0:0:
270,384,371829,1,0,1:1:0:0:
80,132,371963,1,8,2:2:0:0:
374,101,372096,1,0,1:1:0:0:
153,283,372229,1,8,2:2:0:0:
381,285,372363,1,0,1:1:0:0:
197,174,372496,1,8,2:2:0:0:
424,196,372629,1,0,1:1:0:0:
295,253,372763,1,8,2:2:0:0:
267,61,372896,6,0,B|303:52|303:52|308:53|308:53|350:44,1,73.4999977569581,2|0,1:2|1:2,0:0:0:0:
495,181,373029,2,0,B|464:187|464:187|459:186|459:186|423:195,1,73.4999977569581,10|0,2:2|0:0,0:0:0:0:
153,283,373163,2,0,B|106:273|106:273|68:286|68:286|1:272,1,146.999995513916,6|8,1:2|2:2,0:0:0:0:
395,114,373429,1,0,1:1:0:0:
263,372,373563,1,8,2:2:0:0:
171,91,373696,1,0,1:1:0:0:
381,285,373829,1,8,2:2:0:0:
106,25,373963,6,0,B|72:64|72:64|102:161,1,146.999995513916,6|8,1:2|2:2,0:0:0:0:
256,266,374229,1,0,1:1:0:0:
403,29,374363,2,0,B|430:57|430:57|409:167,1,146.999995513916,14|0,2:2|1:1,0:0:0:0:
256,266,374629,1,8,2:2:0:0:
25,104,374763,6,0,B|76:96|76:96|103:101|103:101|186:88,1,146.999995513916,6|8,1:2|2:2,0:0:0:0:
194,368,375029,1,0,1:1:0:0:
80,190,375163,1,8,2:2:0:0:
322,29,375296,2,0,B|299:78|299:78|325:170,1,146.999995513916,2|8,1:2|2:2,0:0:0:0:
329,358,375563,2,0,B|374:326|374:326|481:342,1,146.999995513916,6|8,1:2|2:2,0:0:0:0:
512,80,375829,1,0,1:1:0:0:
400,232,375963,1,8,2:2:0:0:
181,20,376096,2,0,B|224:3|224:3|329:30,1,146.999995513916,2|8,1:2|2:2,0:0:0:0:
124,348,376363,5,6,1:2:0:0:
292,207,376496,1,10,2:2:0:0:
223,93,376629,1,2,1:2:0:0:
372,384,376763,5,10,2:2:0:0:
150,193,376896,1,6,1:2:0:0:
321,52,377029,1,2,1:2:0:0:
219,328,377163,5,10,2:2:0:0:
211,343,377229,1,8,2:2:0:0:
179,357,377296,1,10,2:2:0:0:
124,348,377363,1,8,2:2:0:0:
100,288,377429,5,10,1:3:0:0:
104,273,377496,1,8,2:3:0:0:
107,258,377563,1,10,1:3:0:0:
111,244,377629,1,8,2:3:0:0:
150,193,377696,5,6,1:3:0:0:
148,185,377763,1,4,2:3:0:0:
146,177,377829,1,6,1:3:0:0:
144,169,377896,1,4,2:3:0:0:
143,161,377963,2,0,B|168:146|168:146|214:154,1,73.4999977569581,6|0,1:2|0:0,0:0:0:0:
380,91,378096,2,0,B|409:96|409:96|448:127,1,73.4999977569581,2|0,1:2|0:0,0:0:0:0:
448,284,378229,5,2,1:2:0:0:
415,323,378295,1,0,0:0:0:0:
364,336,378362,1,0,1:1:0:0:
318,313,378429,1,0,0:0:0:0:
296,266,378495,1,0,1:1:0:0:
308,215,378562,1,0,0:0:0:0:
348,183,378629,1,0,1:1:0:0:
381,143,378695,1,0,0:0:0:0:
380,91,378762,1,0,1:1:0:0:
346,53,378829,1,0,0:0:0:0:
294,47,378895,1,0,1:1:0:0:
251,76,378962,1,0,0:0:0:0:
238,126,379029,1,0,1:1:0:0:
211,170,379095,1,0,0:0:0:0:
160,183,379162,1,0,1:1:0:0:
115,159,379229,1,0,0:0:0:0:
99,110,379296,2,0,B|100:85|100:85|102:79|102:79|104:45,1,62.9999980773926,2|0,1:2|0:0,0:0:0:0:
235,0,379429,2,0,B|232:29|232:29|233:35|233:35|229:70,1,62.9999980773926,2|0,1:2|0:0,0:0:0:0:
239,355,379563,5,6,1:2:0:0:
190,364,379629,1,0,0:0:0:0:
143,348,379696,1,0,1:1:0:0:
111,310,379763,1,0,0:0:0:0:
103,261,379829,1,0,1:1:0:0:
121,214,379896,1,0,0:0:0:0:
160,183,379963,1,0,1:1:0:0:
210,177,380029,1,0,0:0:0:0:
256,197,380096,2,0,B|250:226|250:226|250:232|250:232|244:261,1,62.9999980773926,2|0,1:2|0:0,0:0:0:0:
345,306,380229,2,0,B|351:335|351:335|351:343|351:343|357:378,1,62.9999980773926,2|0,1:2|0:0,0:0:0:0:
454,29,380363,5,6,1:2:0:0:
399,17,380429,1,0,0:0:0:0:
348,40,380496,1,0,1:1:0:0:
321,89,380563,1,0,0:0:0:0:
328,144,380629,1,0,1:1:0:0:
367,184,380696,1,0,0:0:0:0:
422,193,380763,1,0,1:1:0:0:
472,168,380829,1,0,0:0:0:0:
493,116,380896,2,0,B|464:109|464:109|453:109|453:109|422:102,1,62.9999980773926,2|0,1:2|0:0,0:0:0:0:
264,19,381029,2,0,B|228:22|228:22|221:25|221:25|188:28,1,62.9999980773926,2|0,1:2|0:0,0:0:0:0:
87,321,381163,5,6,1:2:0:0:
49,285,381229,1,0,0:0:0:0:
40,233,381296,1,0,1:1:0:0:
65,187,381363,1,0,0:0:0:0:
112,167,381429,1,0,1:1:0:0:
162,181,381496,1,0,0:0:0:0:
194,222,381563,1,0,1:1:0:0:
193,274,381629,1,0,0:0:0:0:
214,322,381695,1,0,1:1:0:0:
259,348,381762,1,0,0:0:0:0:
310,344,381829,1,0,1:1:0:0:
349,309,381895,1,0,0:0:0:0:
360,259,381962,1,0,1:1:0:0:
339,210,382029,1,0,0:0:0:0:
295,184,382096,1,0,1:1:0:0:
265,141,382162,1,0,0:0:0:0:
265,90,382229,1,0,1:1:0:0:
295,47,382296,1,0,0:0:0:0:
344,30,382362,1,0,1:1:0:0:
394,43,382429,1,0,0:0:0:0:
426,82,382496,2,0,B|401:93|401:93|397:97|397:97|367:109,1,62.9999980773926,2|0,1:2|0:0,0:0:0:0:
257,285,382629,2,0,B|228:280|228:280|219:278|219:278|191:274,1,62.9999980773926,2|0,1:2|0:0,0:0:0:0:
53,85,382763,5,6,1:2:0:0:
88,41,382829,1,0,0:0:0:0:
142,33,382896,1,0,1:1:0:0:
188,64,382963,1,0,0:0:0:0:
202,117,383029,1,0,1:1:0:0:
177,166,383096,1,0,0:0:0:0:
143,210,383162,1,0,1:1:0:0:
151,265,383229,1,0,0:0:0:0:
195,298,383296,2,0,B|222:290|222:290|228:290|228:290|263:282,1,62.9999980773926,2|8,1:2|2:2,0:0:0:0:
60,160,383429,2,0,B|35:164|35:164|28:168|28:168|-6:175,1,62.9999980773926,2|8,1:2|2:2,0:0:0:0:
418,346,383563,5,6,1:2:0:0:
474,320,383629,1,0,0:0:0:0:
508,268,383696,1,0,1:1:0:0:
510,206,383763,1,0,0:0:0:0:
478,152,383829,1,0,1:1:0:0:
423,124,383896,1,0,0:0:0:0:
361,130,383963,1,0,1:1:0:0:
311,167,384029,1,0,0:0:0:0:
289,225,384096,2,0,B|320:236|320:236|324:241|324:241|350:252,1,62.9999980773926,2|0,1:2|0:0,0:0:0:0:
506,73,384229,2,0,B|478:59|478:59|472:58|472:58|440:43,1,62.9999980773926,2|0,1:2|0:0,0:0:0:0:
66,39,384363,5,6,1:2:0:0:
72,37,384429,1,0,1:1:0:0:
78,36,384496,1,0,1:1:0:0:
84,35,384563,1,0,1:1:0:0:
90,34,384629,1,0,1:1:0:0:
96,34,384696,1,0,1:1:0:0:
101,34,384763,5,0,1:1:0:0:
164,69,384829,1,0,1:1:0:0:
176,142,384896,1,0,1:1:0:0:
126,196,384963,1,0,1:1:0:0:
54,190,385029,1,0,1:1:0:0:
2,242,385095,1,0,1:1:0:0:
8,315,385162,1,0,1:1:0:0:
67,358,385229,1,0,1:1:0:0:
138,341,385295,1,0,1:1:0:0:
171,276,385363,1,0,1:1:0:0:
218,218,385429,1,0,1:1:0:0:
293,206,385496,1,0,1:1:0:0:
356,246,385563,1,0,1:1:0:0:
362,320,385629,1,0,1:1:0:0:
302,367,385696,2,0,B|292:338|292:338|292:333|292:333|281:294,1,62.9999980773926,2|0,1:2|1:1,0:0:0:0:
218,218,385829,2,0,B|220:187|220:187|222:182|222:182|228:142,1,62.9999980773926,2|0,1:2|1:1,0:0:0:0:
471,0,385963,5,14,1:2:0:0:
512,60,386029,1,0,1:1:0:0:
501,132,386096,1,0,1:1:0:0:
441,176,386163,1,0,1:1:0:0:
368,164,386229,1,0,1:1:0:0:
325,105,386296,1,0,1:1:0:0:
269,56,386362,1,0,1:1:0:0:
195,47,386429,1,0,1:1:0:0:
129,81,386496,1,0,1:1:0:0:
93,146,386562,1,0,1:1:0:0:
101,220,386629,1,0,1:1:0:0:
150,277,386696,1,0,1:1:0:0:
221,295,386763,5,14,1:2:0:0:
229,245,386829,1,0,1:1:0:0:
237,195,386896,1,0,1:1:0:0:
246,145,386963,1,0,1:1:0:0:
254,96,387029,2,0,B|262:63|262:63|261:55|261:55|267:27,1,62.9999980773926,0|0,1:1|1:1,0:0:0:0:
494,227,387163,5,6,1:2:0:0:
512,298,387229,1,0,1:1:0:0:
477,362,387296,1,0,1:1:0:0:
406,384,387363,1,0,1:1:0:0:
340,351,387429,2,0,B|325:325|325:325|325:317|325:317|311:291,1,62.9999980773926,0|0,1:1|1:1,0:0:0:0:
58,234,387563,5,14,1:2:0:0:
25,180,387629,1,0,1:1:0:0:
26,118,387696,1,0,1:1:0:0:
58,65,387763,1,0,1:1:0:0:
113,36,387829,1,0,1:1:0:0:
175,40,387896,1,0,1:1:0:0:
226,76,387963,1,0,1:1:0:0:
251,133,388029,1,0,1:1:0:0:
243,194,388096,5,10,1:2:0:0:
237,195,388163,1,0,1:1:0:0:
230,195,388229,1,0,1:1:0:0:
223,196,388296,1,0,1:1:0:0:
216,197,388363,5,14,1:2:0:0:
179,247,388429,1,0,1:1:0:0:
177,309,388496,1,0,1:1:0:0:
210,362,388563,1,0,1:1:0:0:
266,387,388629,1,0,1:1:0:0:
327,377,388696,1,0,1:1:0:0:
373,334,388763,1,0,1:1:0:0:
386,274,388829,1,0,1:1:0:0:
364,216,388896,5,10,1:2:0:0:
358,216,388963,1,0,1:1:0:0:
351,217,389029,1,0,1:1:0:0:
344,218,389096,1,0,1:1:0:0:
338,220,389163,5,14,1:2:0:0:
324,242,389229,1,0,1:1:0:0:
342,279,389296,1,2,1:2:0:0:
391,292,389363,1,0,1:1:0:0:
439,256,389429,1,2,1:2:0:0:
442,186,389496,1,0,1:1:0:0:
390,133,389563,1,2,1:2:0:0:
315,130,389629,1,0,1:1:0:0:
254,176,389696,1,2,1:2:0:0:
180,193,389763,1,0,1:1:0:0:
113,157,389829,1,2,1:2:0:0:
100,82,389896,1,0,1:1:0:0:
162,31,389963,5,8,2:2:0:0:
171,112,390029,1,8,2:2:0:0:
180,193,390096,1,8,2:2:0:0:
189,275,390163,1,8,2:2:0:0:
203,355,390229,5,8,1:3:0:0:
214,350,390296,1,8,2:3:0:0:
225,345,390363,1,8,2:3:0:0:
236,340,390429,1,8,2:3:0:0:
247,335,390496,2,0,B|277:331|277:331|284:331|284:331|317:327,3,62.9999980773926,4|4|4|4,1:3|2:3|2:3|2:3,0:0:0:0:
442,186,390763,5,6,1:2:0:0:
396,256,390896,1,8,2:2:0:0:
269,55,391029,1,0,1:1:0:0:
308,129,391163,1,8,2:2:0:0:
479,20,391296,6,0,B|433:13|433:13|425:14|425:14|371:6,1,105,2|8,1:2|2:2,0:0:0:0:
106,116,391563,2,0,B|155:123|155:123|163:122|163:122|209:129,1,105,0|8,1:1|2:2,0:0:0:0:
70,275,391829,1,0,1:1:0:0:
33,199,391963,1,8,2:2:0:0:
225,339,392096,6,0,B|193:357|193:357|120:343,1,105,2|8,1:2|2:2,0:0:0:0:
404,207,392363,2,0,B|440:191|440:191|517:211,1,105,2|8,1:2|2:2,0:0:0:0:
320,372,392629,1,0,1:1:0:0:
208,180,392763,1,10,2:2:0:0:
268,122,392896,1,0,1:1:0:0:
347,148,393029,1,8,2:2:0:0:
174,0,393163,6,0,B|180:48|180:48|178:57|178:57|185:112,1,105,2|8,1:2|2:2,0:0:0:0:
81,343,393429,2,0,B|102:363|102:363|105:337,1,52.5,0|0,1:1|0:0,0:0:0:0:
27,279,393563,2,0,B|100:259|100:259|157:277|157:277|231:255,1,210,10|8,2:2|2:2,0:0:0:0:
388,335,393963,5,6,1:2:0:0:
336,268,394096,1,8,2:2:0:0:
490,146,394229,1,0,1:1:0:0:
461,225,394363,1,8,2:2:0:0:
318,44,394496,6,0,B|368:33|368:33|381:34|381:34|420:24,1,105,2|8,1:2|2:2,0:0:0:0:
238,192,394763,2,0,B|199:202|199:202|186:201|186:201|136:212,1,105,2|8,1:2|2:2,0:0:0:0:
131,55,395029,1,0,1:1:0:0:
185,119,395163,1,8,2:2:0:0:
101,287,395296,6,0,B|48:299|48:299|42:303|42:303|0:311,1,105,2|8,1:2|2:2,0:0:0:0:
286,362,395563,2,0,B|329:353|329:353|335:349|335:349|387:337,1,105,2|8,1:2|2:2,0:0:0:0:
238,192,395829,1,0,1:1:0:0:
203,268,395963,1,8,2:2:0:0:
464,129,396096,2,0,B|450:88|450:88|450:80|450:80|432:20,1,105,2|8,1:2|2:2,0:0:0:0:
308,277,396363,2,0,B|317:225|317:225|316:220|316:220|324:166,1,105,2|8,1:2|2:2,0:0:0:0:
227,23,396629,1,0,1:1:0:0:
270,95,396763,1,8,2:2:0:0:
0,227,396896,1,10,1:3:0:0:
41,222,396963,1,8,2:3:0:0:
82,215,397029,1,4,1:3:0:0:
123,210,397096,1,4,2:3:0:0:
169,204,397163,5,6,1:2:0:0:
117,114,397296,1,8,2:2:0:0:
312,0,397429,1,0,1:1:0:0:
270,95,397563,1,8,2:2:0:0:
401,225,397696,6,0,B|446:210|446:210|482:216|482:216|517:201,1,115.50000352478,2|8,1:2|2:2,0:0:0:0:
226,365,397963,2,0,B|183:377|183:377|151:365|151:365|96:379,1,115.50000352478,2|8,1:2|2:2,0:0:0:0:
253,222,398229,1,0,1:1:0:0:
320,301,398363,1,8,2:2:0:0:
512,94,398496,6,0,B|469:98|469:98|442:117|442:117|391:121,1,115.50000352478,2|8,1:2|2:2,0:0:0:0:
190,22,398763,2,0,B|228:31|228:31|259:21|259:21|301:30,1,115.50000352478,6|8,1:2|2:2,0:0:0:0:
100,183,399029,1,0,1:1:0:0:
52,90,399163,1,8,2:2:0:0:
76,372,399296,6,0,B|101:383|101:383|133:373,1,57.7500017623902,2|0,1:2|0:0,0:0:0:0:
267,220,399429,2,0,B|235:214|235:214|206:223,1,57.7500017623902,10|0,2:2|0:0,0:0:0:0:
42,296,399563,2,0,B|115:283|115:283|185:312|185:312|270:297,1,231.000007049561,2|4,1:2|1:2,0:0:0:0:
329,2,399963,5,10,2:2:0:0:
438,132,400096,1,2,1:2:0:0:
267,220,400229,1,10,2:2:0:0:
463,383,400363,5,6,1:2:0:0:
512,292,400496,1,8,2:2:0:0:
357,164,400629,1,0,1:1:0:0:
414,252,400763,1,8,2:2:0:0:
512,53,400896,6,0,B|469:47|469:47|438:59|438:59|390:54,1,115.50000352478,2|8,1:2|2:2,0:0:0:0:
155,222,401163,2,0,B|193:226|193:226|224:214|224:214|267:220,1,115.50000352478,2|8,1:2|2:2,0:0:0:0:
89,361,401429,1,0,1:1:0:0:
39,270,401563,1,8,2:2:0:0:
178,30,401696,2,0,B|175:77|175:77|184:98|184:98|181:144,1,115.50000352478,2|8,1:2|2:2,0:0:0:0:
246,332,401963,5,6,1:2:0:0:
235,329,402029,1,0,0:0:0:0:
223,326,402096,1,0,1:1:0:0:
211,323,402163,1,0,1:1:0:0:
173,341,402229,5,8,2:2:0:0:
185,291,402296,1,8,2:2:0:0:
200,241,402363,1,8,2:2:0:0:
215,192,402429,1,0,0:0:0:0:
262,149,402496,5,10,1:3:0:0:
258,131,402563,1,8,2:3:0:0:
253,114,402629,1,10,2:3:0:0:
248,97,402696,1,8,2:3:0:0:
201,60,402763,5,6,1:3:0:0:
205,49,402829,1,4,2:3:0:0:
209,38,402896,1,4,2:3:0:0:
212,27,402963,1,4,2:3:0:0:
216,16,403029,6,0,B|247:9|247:9|254:11|254:11|291:4,1,57.7500017623902,8|4,1:3|2:3,0:0:0:0:
386,72,403163,2,0,B|361:76|361:76|353:75|353:75|329:80,1,57.7500017623902,10|8,1:3|2:3,0:0:0:0:
454,8,403296,2,0,B|485:1|485:1|492:3|492:3|529:-4,3,57.7500017623902,6|0|2|0,2:3|0:0|2:2|0:0,0:0:0:0:
387,242,403563,5,6,1:2:0:0:
346,168,403696,1,8,2:2:0:0:
468,344,403829,1,0,1:1:0:0:
512,271,403963,1,8,2:2:0:0:
299,236,404096,6,0,B|257:244|257:244|250:249|250:249|193:259,1,105,2|8,1:2|2:2,0:0:0:0:
18,365,404363,2,0,B|65:357|65:357|73:359|73:359|134:349,1,105,2|8,1:2|2:2,0:0:0:0:
33,194,404629,1,0,1:1:0:0:
76,266,404763,1,10,2:2:0:0:
239,85,404896,6,0,B|189:90|189:90|181:94|181:94|126:99,1,105,2|10,1:2|2:2,0:0:0:0:
409,199,405163,2,0,B|454:194|454:194|462:190|462:190|512:185,1,105,6|8,1:2|2:2,0:0:0:0:
297,317,405429,1,0,1:1:0:0:
239,85,405563,1,10,2:2:0:0:
308,38,405696,1,0,1:1:0:0:
382,76,405829,1,8,2:2:0:0:
150,201,405963,6,0,B|141:157|141:157|143:150|143:150|134:97,1,105,2|8,1:2|2:2,0:0:0:0:
399,369,406229,2,0,B|372:360|372:360|400:347,1,52.5,0|0,1:1|0:0,0:0:0:0:
448,283,406363,2,0,B|381:267|381:267|324:292|324:292|241:271,1,210,14|8,2:2|2:2,0:0:0:0:
64,221,406763,5,6,1:2:0:0:
105,294,406896,1,8,2:2:0:0:
222,121,407029,1,0,1:1:0:0:
192,199,407163,1,8,2:2:0:0:
32,51,407296,6,0,B|83:46|83:46|89:48|89:48|152:41,1,105,2|8,1:2|2:2,0:0:0:0:
337,253,407563,2,0,B|289:261|289:261|283:259|283:259|233:266,1,105,2|8,1:2|2:2,0:0:0:0:
392,324,407829,1,0,1:1:0:0:
431,249,407963,1,8,2:2:0:0:
264,114,408096,5,2,1:2:0:0:
248,117,408163,1,0,1:2:0:0:
232,119,408229,1,8,2:2:0:0:
356,11,408363,2,0,B|408:3|408:3|418:7|418:7|472:-3,1,105,6|8,1:2|2:2,0:0:0:0:
337,253,408629,1,0,1:1:0:0:
365,173,408763,1,8,2:2:0:0:
173,280,408896,5,2,1:2:0:0:
188,283,408962,1,0,1:1:0:0:
203,286,409029,1,8,2:2:0:0:
84,93,409163,2,0,B|75:145|75:145|70:153|70:153|63:196,1,105,2|8,1:2|2:2,0:0:0:0:
253,38,409429,1,0,1:1:0:0:
237,35,409496,1,0,1:2:0:0:
221,32,409563,1,10,2:2:0:0:
337,253,409696,5,2,1:2:0:0:
378,260,409763,1,0,1:2:0:0:
419,265,409829,1,10,2:2:0:0:
460,271,409896,1,0,1:2:0:0:
505,280,409963,5,6,1:2:0:0:
444,364,410096,1,8,2:2:0:0:
304,154,410229,1,0,1:1:0:0:
337,253,410363,1,8,2:2:0:0:
474,57,410496,6,0,B|429:52|429:52|402:62|402:62|357:57,1,115.50000352478,2|8,1:2|2:2,0:0:0:0:
130,223,410763,2,0,B|171:227|171:227|198:217|198:217|243:222,1,115.50000352478,2|8,1:2|2:2,0:0:0:0:
118,384,411029,1,0,1:1:0:0:
60,296,411163,1,8,2:2:0:0:
162,32,411296,6,0,B|169:70|169:70|153:103|153:103|158:148,1,115.50000352478,2|8,1:2|2:2,0:0:0:0:
332,363,411563,2,0,B|327:323|327:323|343:290|343:290|336:252,1,115.50000352478,6|8,1:2|2:2,0:0:0:0:
509,126,411829,1,0,1:1:0:0:
440,205,411963,1,8,2:2:0:0:
235,65,412096,6,0,B|264:54|264:54|296:65,1,57.7500017623902,2|0,1:2|0:0,0:0:0:0:
163,221,412229,2,0,B|135:230|135:230|107:225,1,57.7500017623902,10|0,2:2|0:0,0:0:0:0:
82,144,412363,2,0,B|165:129|165:129|216:151|216:151|306:137,1,231.000007049561,2|4,1:2|1:2,0:0:0:0:
64,321,412763,5,10,2:2:0:0:
163,221,412896,1,2,1:2:0:0:
355,355,413029,1,10,2:2:0:0:
512,169,413163,5,6,1:2:0:0:
451,253,413296,1,8,2:2:0:0:
294,5,413429,1,0,1:1:0:0:
346,95,413563,1,8,2:2:0:0:
163,221,413696,6,0,B|116:216|116:216|87:230|87:230|35:224,1,115.50000352478,2|8,1:2|2:2,0:0:0:0:
346,95,413963,2,0,B|391:99|391:99|417:115|417:115|463:117,1,115.50000352478,2|8,1:2|2:2,0:0:0:0:
220,143,414229,1,0,1:1:0:0:
179,48,414363,1,8,2:2:0:0:
375,183,414496,6,0,B|368:231|368:231|380:259|380:259|375:304,1,115.50000352478,2|8,1:2|2:2,0:0:0:0:
140,384,414763,2,0,B|144:347|144:347|132:319|132:319|139:271,1,115.50000352478,6|8,1:2|2:2,0:0:0:0:
0,124,415029,1,0,1:1:0:0:
79,191,415163,1,12,2:2:0:0:
262,46,415296,5,2,1:2:0:0:
370,306,415429,1,10,2:2:0:0:
491,104,415563,1,6,1:2:0:0:
512,200,415696,1,8,2:2:0:0:
460,208,415763,1,0,1:2:0:0:
408,214,415829,1,0,1:1:0:0:
356,221,415896,1,0,1:2:0:0:
304,228,415963,2,0,B|296:195|296:195|297:190|297:190|290:161,1,57.7500017623902,2|0,1:2|1:2,0:0:0:0:
357,0,416096,2,0,B|353:19|353:19|355:26|355:26|348:56,1,57.7500017623902,2|0,1:2|1:2,0:0:0:0:
291,241,416229,2,0,B|287:218|287:218|284:211|284:211|277:178,1,57.7500017623902,2|0,1:2|1:2,0:0:0:0:
147,0,416363,5,14,1:2:0:0:
0,254,416496,1,10,1:2:0:0:
161,6,416629,1,10,1:2:0:0:
320,312,416896,5,14,1:2:0:0:
64,86,417029,1,10,1:2:0:0:
324,331,417163,1,10,1:2:0:0:
104,382,417563,5,14,1:2:0:0:
298,87,417696,1,10,1:2:0:0:
88,374,417829,1,10,1:2:0:0:
405,311,418096,5,14,1:2:0:0:
222,51,418229,1,10,1:2:0:0:
421,313,418362,1,10,1:2:0:0:
398,109,418496,5,8,2:2:0:0:
392,117,418563,1,8,2:2:0:0:
386,125,418629,1,8,2:2:0:0:
381,134,418696,1,8,2:2:0:0:
375,141,418763,1,8,2:2:0:0:
275,186,418896,1,8,2:2:0:0:
189,132,419029,1,8,2:2:0:0:
130,184,419163,1,8,2:2:0:0:
82,147,419296,1,8,2:2:0:0:
48,170,419429,1,8,2:2:0:0:
37,162,419563,5,14,1:2:0:0:
311,22,419696,1,10,1:2:0:0:
464,204,419829,1,10,1:2:0:0:
72,42,420096,5,14,1:2:0:0:
297,213,420229,1,10,1:2:0:0:
492,72,420362,1,10,1:2:0:0:
430,384,420763,5,14,1:2:0:0:
245,136,420897,1,10,1:2:0:0:
410,9,421030,1,10,1:2:0:0:
157,384,421296,5,14,1:2:0:0:
410,173,421429,1,10,1:2:0:0:
236,2,421563,1,10,1:2:0:0:
128,281,421696,5,8,2:2:0:0:
126,271,421763,1,8,2:2:0:0:
125,261,421829,1,8,2:2:0:0:
124,251,421896,1,8,2:2:0:0:
122,241,421963,1,8,2:2:0:0:
60,171,422096,1,8,2:2:0:0:
120,119,422229,1,8,2:2:0:0:
74,72,422363,1,8,2:2:0:0:
109,44,422496,1,8,2:2:0:0:
90,11,422629,1,8,2:2:0:0:
100,0,422763,5,14,1:2:0:0:
326,228,422896,1,10,1:2:0:0:
506,33,423029,1,10,1:2:0:0:
79,301,423296,5,14,1:2:0:0:
324,24,423429,1,10,1:2:0:0:
493,168,423563,1,10,1:2:0:0:
148,359,423963,5,14,1:2:0:0:
372,159,424096,1,10,1:2:0:0:
189,0,424229,1,10,1:2:0:0:
391,346,424496,5,14,1:2:0:0:
186,134,424629,1,10,1:2:0:0:
425,0,424763,1,10,1:2:0:0:
472,137,424896,5,10,2:2:0:0:
462,134,424963,1,8,2:2:0:0:
452,132,425029,1,10,2:2:0:0:
442,131,425096,1,8,2:2:0:0:
432,129,425163,1,10,2:2:0:0:
289,223,425296,1,10,2:2:0:0:
186,134,425429,1,10,2:2:0:0:
129,179,425563,1,10,2:2:0:0:
96,151,425696,1,10,2:2:0:0:
60,173,425829,1,10,2:2:0:0:
47,165,425963,5,14,1:2:0:0:
339,44,426096,1,10,1:2:0:0:
258,378,426229,1,10,1:2:0:0:
95,13,426496,5,14,1:2:0:0:
403,189,426629,1,10,1:2:0:0:
107,363,426763,1,10,1:2:0:0:
472,373,427163,5,14,1:2:0:0:
339,44,427297,1,10,1:2:0:0:
59,245,427430,1,10,1:2:0:0:
512,48,427696,5,14,1:2:0:0:
268,347,427829,1,10,1:2:0:0:
59,60,427963,2,0,B|105:50|105:50|110:50|110:50|148:42,1,86.6250026435853,14|0,1:2|0:0,0:0:0:0:
