osu file format v14

[General]
AudioFilename: audio.mp3
AudioLeadIn: 0
PreviewTime: 66322
Countdown: 0
SampleSet: Soft
StackLeniency: 0.7
Mode: 0
LetterboxInBreaks: 0
WidescreenStoryboard: 1

[Editor]
Bookmarks: 22270,33305,44339,55374,66408,88477,110546,132615,220891,242960
DistanceSpacing: 1.2
BeatDivisor: 4
GridSize: 16
TimelineZoom: 1

[Metadata]
Title:Fly (Cut Ver.)
TitleUnicode:Fly (Cut Ver.)
Artist:Andromedik X Itro X Polygon
ArtistUnicode:Andromedik X Itro X Polygon
Creator:BOUYAAA
Version:Hard
Source:
Tags:edm electronic dnb drum and bass liquicity harmony english instrumental 'n' electro dance music
BeatmapID:3018623
BeatmapSetID:1470255

[Difficulty]
HPDrainRate:5
CircleSize:4
OverallDifficulty:7
ApproachRate:8
SliderMultiplier:1.4
SliderTickRate:1

[Events]
//Background and Video events
0,0,"Axle.jpg",0,0
//Break Periods
//Storyboard Layer 0 (Background)
//Storyboard Layer 1 (Fail)
//Storyboard Layer 2 (Pass)
//Storyboard Layer 3 (Foreground)
//Storyboard Layer 4 (Overlay)
//Storyboard Sound Samples

[TimingPoints]
266,344.827586206897,4,1,0,100,1,0
22334,-125,4,2,0,50,0,0
33369,-100,4,2,1,55,0,0
44403,-100,4,2,0,60,0,0
55438,-100,4,2,1,60,0,0
66472,-83.3333333333333,4,2,2,76,0,1
88541,-100,4,2,2,50,0,0
89921,-100,4,2,2,60,0,0
110610,-90.9090909090909,4,2,2,75,0,1
121645,-100,4,2,2,60,0,0
132334,-100,4,2,2,60,0,0

[Colours]
Combo1 : 254,226,184
Combo2 : 182,204,228
Combo3 : 214,193,217
Combo4 : 191,210,192
Combo5 : 228,226,222
Combo6 : 242,201,183

[HitObjects]
149,108,22334,38,0,B|133:128|52:121|35:67|35:67|130:155|36:210|141:276,1,336,0|0,1:0|2:0,0:0:0:0:
41,306,23541,6,0,B|172:276|172:276|248:262|231:343|300:321|300:321|331:280|366:271|444:295,1,392,0|0,1:0|2:0,0:0:0:0:
432,366,24921,70,0,B|448:244|448:244|448:215|434:212|436:186|436:186|443:141|443:141|447:114|491:122|484:163|441:156|441:156|363:139,1,392,0|0,1:0|2:0,0:0:0:0:
304,67,26300,6,0,B|211:42|230:109|149:104|149:104|74:102|44:27|44:27|79:31|110:57|110:103,1,392,0|0,1:0|0:0,0:0:0:0:
54,203,27852,70,0,B|31:254|97:307|21:364|21:364|28:300|116:274|133:344|182:335,1,336,0|0,1:0|2:0,0:0:0:0:
233,289,29059,6,0,B|320:288|311:365|400:364|400:364|509:342|509:342|474:339|443:319|433:271,1,392,0|0,1:0|2:0,0:0:0:0:
378,215,30438,70,0,B|351:188|355:137|409:122|409:122|457:110|494:45|436:-8|385:4|385:4|353:14|325:39|346:96,1,392,0|0,1:0|2:0,0:0:0:0:
276,130,31817,6,0,B|223:164|179:107|128:135|128:135|80:162|-13:133|6:-23|180:12|142:110,1,448,0|0,1:0|2:0,0:0:0:0:
164,234,33369,38,0,B|149:248|149:248|42:267|42:267|27:288,1,140,0|0,1:0|0:0,0:0:0:0:
75,350,33886,1,0,0:0:0:0:
182,330,34059,2,0,L|352:345,1,140,8|0,3:2|0:0,0:0:0:0:
395,302,34576,6,0,B|409:308|409:308|425:322,2,35,0|0|0,1:2|0:0|0:0,0:0:0:0:
333,243,34921,1,0,0:0:0:0:
405,201,35093,2,0,B|444:196|444:196|478:173,1,70,0|0,0:0|1:0,0:0:0:0:
433,51,35438,2,0,L|337:37,1,70,8|0,0:0|0:0,0:0:0:0:
282,65,35783,2,0,L|186:51,1,70,0|0,0:0|0:0,0:0:0:0:
97,73,36128,70,0,P|81:45|52:15,2,70,0|0|0,1:0|0:0|0:0,0:0:0:0:
137,146,36645,2,0,P|96:227|52:282,1,140,0|0,0:0|3:0,0:0:0:0:
116,340,37162,1,0,1:0:0:0:
116,340,37334,2,0,P|200:311|261:260,1,140,0|0,1:0|0:0,0:0:0:0:
324,268,37852,1,0,0:0:0:0:
324,268,38024,2,0,P|291:200|234:199,1,140,0|0,1:0|1:0,0:0:0:0:
299,349,38714,5,0,3:0:0:0:
397,307,38886,2,0,P|441:282|490:265,1,70,0|0,1:0|0:0,0:0:0:0:
495,187,39231,2,0,P|451:166|418:153,1,70,0|0,0:0|0:0,0:0:0:0:
324,91,39576,70,0,L|310:-4,2,70,8|0|0,2:0|3:0|0:0,0:0:0:0:
278,170,40093,2,0,B|236:162|236:162|226:149|226:149|141:134|141:134,1,140,0|0,1:0|0:0,0:0:0:0:
69,83,40610,2,0,P|124:50|155:61,1,70,0|0,0:0|1:0,0:0:0:0:
64,174,40955,2,0,P|32:188|-6:196,2,70,10|2|2,0:0|0:0|0:0,0:0:0:0:
138,212,41472,6,0,P|161:258|192:362,1,140,0|0,0:0|0:0,0:0:0:0:
271,359,41990,1,2,0:0:0:0:
271,359,42162,2,0,P|319:299|340:218,1,140,0|0,0:0|3:2,0:0:0:0:
353,156,42679,1,0,1:0:0:0:
353,156,42852,2,0,P|275:162|258:235,1,140,0|0,1:0|0:0,0:0:0:0:
341,322,43369,1,0,0:0:0:0:
341,322,43541,2,0,P|398:327|435:243,1,140,0|0,1:0|1:0,0:0:0:0:
488,86,44231,69,0,3:0:0:0:
414,45,44403,2,0,B|388:40|388:40|316:51,1,70,10|0,0:0|0:0,0:0:0:0:
262,65,44748,2,0,B|219:74|219:74|196:88,1,70,10|0,0:0|0:0,0:0:0:0:
147,156,45093,1,8,0:0:0:0:
62,178,45266,2,0,P|54:146|96:101,1,70,2|8,0:0|0:0,0:0:0:0:
188,233,45610,6,0,B|163:288|163:288|163:311|163:311|131:378,1,140,2|0,0:0|0:0,0:0:0:0:
55,377,46128,2,0,P|30:333|86:272,1,140,10|8,0:0|0:0,0:0:0:0:
202,317,46645,69,2,0:0:0:0:
258,379,46817,1,8,0:0:0:0:
342,372,46990,1,2,0:0:0:0:
397,309,47162,6,0,P|435:311|471:282,1,70,8|0,0:0|0:0,0:0:0:0:
441,213,47507,2,0,P|403:211|367:240,1,70,10|0,0:0|0:0,0:0:0:0:
316,285,47852,1,8,0:0:0:0:
293,203,48024,2,0,B|287:187|287:187|303:156|303:156|296:138,1,70,2|8,0:0|0:0,0:0:0:0:
214,70,48369,70,0,L|368:57,1,140,2|0,0:0|0:0,0:0:0:0:
420,6,48886,2,0,P|463:47|396:103,1,140,10|8,0:0|0:0,0:0:0:0:
297,139,49403,1,2,0:0:0:0:
370,179,49576,1,8,0:0:0:0:
409,252,49748,1,0,0:0:0:0:
400,335,49921,6,0,B|377:349|377:349|334:358,1,70,10|0,0:0|0:0,0:0:0:0:
251,376,50266,2,0,B|207:382|207:382|181:377,1,70,10|0,0:0|0:0,0:0:0:0:
125,316,50610,1,8,0:0:0:0:
40,317,50783,2,0,P|8:359|11:388,1,70,2|8,0:0|0:0,0:0:0:0:
71,240,51128,70,0,L|51:82,1,140,2|0,0:0|0:0,0:0:0:0:
98,30,51645,2,0,B|131:39|131:39|191:80|191:80|235:90,1,140,10|8,0:0|0:0,0:0:0:0:
325,63,52162,1,2,0:0:0:0:
402,30,52334,1,8,0:0:0:0:
461,89,52507,1,2,0:0:0:0:
385,125,52679,6,0,P|360:151|339:195,1,70,8|0,0:0|0:0,0:0:0:0:
411,230,53024,2,0,P|436:204|457:160,1,70,10|0,0:0|0:0,0:0:0:0:
330,267,53369,1,8,0:0:0:0:
371,339,53541,2,0,B|351:347|351:347|338:360|338:360|308:369,1,70,2|8,0:0|0:0,0:0:0:0:
206,311,53886,70,0,L|186:154,1,140,2|0,0:0|0:0,0:0:0:0:
236,102,54403,2,0,P|178:75|120:124,1,140,10|8,0:0|0:0,0:0:0:0:
46,185,54921,1,2,0:0:0:0:
92,254,55093,1,8,0:0:0:0:
56,330,55266,1,0,0:0:0:0:
151,350,55438,6,0,B|167:336|167:336|228:320,1,70,0|0,1:0|0:0,0:0:0:0:
288,284,55783,2,0,L|382:302,1,70,2|0,1:2|0:0,0:0:0:0:
446,354,56128,2,0,B|497:297|423:270|475:221,1,140,2|2,1:2|1:2,0:0:0:0:
503,146,56645,70,0,P|501:101|451:77,1,105,2|0,0:2|0:0,0:0:0:0:
434,86,56990,1,2,0:2:0:0:
359,124,57162,2,0,L|337:42,1,70,2|0,1:2|0:0,0:0:0:0:
270,12,57507,2,0,L|251:79,1,70,2|0,1:2|0:0,0:0:0:0:
289,155,57852,2,0,L|270:222,1,70,2|0,1:2|0:0,0:0:0:0:
164,262,58197,6,0,P|142:228|161:180,1,70,2|0,1:2|0:0,0:0:0:0:
174,121,58541,2,0,P|182:84|156:53,1,70,0|0,1:0|0:0,0:0:0:0:
63,1,58886,2,0,L|38:163,1,140,0|0,1:0|1:0,0:0:0:0:
22,221,59403,70,0,B|16:269|56:271|52:331,1,105
56,336,59748,2,0,L|201:355,1,140,0|0,0:0|0:0,0:0:0:0:
291,302,60266,5,0,1:0:0:0:
364,342,60438,1,0,0:0:0:0:
440,308,60610,2,0,P|465:282|470:242,1,70,0|0,1:0|0:0,0:0:0:0:
401,201,60955,70,0,L|389:125,1,70,8|0,1:2|1:2,0:0:0:0:
471,108,61300,2,0,L|459:32,1,70,0|8,1:2|1:2,0:0:0:0:
380,12,61645,2,0,B|298:9|330:73|244:45,1,140,0|8,1:2|1:2,0:0:0:0:
171,70,62162,2,0,P|162:114|208:157,1,105,0|0,1:2|0:0,0:0:0:0:
226,157,62507,1,0,1:2:0:0:
336,152,62679,6,0,B|353:175|353:175|343:223,1,70,0|8,1:2|1:2,0:0:0:0:
324,297,63024,2,0,L|307:377,1,70,0|0,1:2|1:2,0:0:0:0:
225,362,63369,2,0,L|206:287,1,70,8|0,1:2|1:2,0:0:0:0:
146,236,63714,69,8,1:2:0:0:
68,267,63886,1,0,1:2:0:0:
15,201,64059,2,0,P|5:167|21:123,1,70,0|8,1:2|1:2,0:0:0:0:
4,53,64403,2,0,L|98:77,1,70,0|0,1:2|1:2,0:0:0:0:
154,87,64748,1,8,1:2:0:0:
232,55,64921,2,0,B|258:50|258:50|269:42|269:42|320:32,1,70,0|8,1:2|1:2,0:0:0:0:
426,47,65266,6,0,P|461:103|410:162,1,140,0|0,1:2|1:2,0:0:0:0:
350,200,65783,1,0,1:2:0:0:
366,282,65955,1,0,1:2:0:0:
387,363,66128,2,0,P|346:375|310:358,1,70,0|0,1:2|1:2,0:0:0:0:
247,273,66472,38,0,P|206:260|186:302,1,83.9999974365235,6|0,1:0|0:0,0:0:0:0:
125,359,66817,2,0,P|70:363|29:269,1,167.999994873047,10|2,0:1|0:0,0:0:0:0:
108,188,67334,2,0,B|118:168|79:151|118:109,1,83.9999974365235,2|8,1:0|0:0,0:0:0:0:
206,91,67679,6,0,L|37:67,1,167.999994873047,2|0,1:1|1:0,0:0:0:0:
199,174,68197,2,0,B|292:189|257:81|377:93,1,167.999994873047,10|2,0:1|0:0,0:0:0:0:
366,23,68714,2,0,P|406:40|413:78,1,83.9999974365235,2|8,1:0|0:0,0:0:0:0:
461,174,69059,70,0,B|436:277|436:277|458:306|492:277|455:239,1,167.999994873047,2|0,1:1|1:0,0:0:0:0:
364,229,69576,2,0,B|256:247|351:310|220:331,1,167.999994873047,10|2,0:1|0:0,0:0:0:0:
153,355,70093,2,0,P|95:353|81:323,1,83.9999974365235,2|8,1:0|0:0,0:0:0:0:
23,203,70438,6,0,B|132:192|132:192|172:186|198:223,1,167.999994873047,2|0,1:1|1:0,0:0:0:0:
132,273,70955,2,0,B|79:238|73:185|131:166|95:117,1,167.999994873047,10|2,0:1|0:0,0:0:0:0:
19,91,71472,2,0,P|36:56|97:50,1,83.9999974365235,2|8,1:0|0:0,0:0:0:0:
168,29,71817,1,0,0:0:0:0:
209,148,71990,70,0,P|243:185|286:175,1,83.9999974365235,6|0,1:0|0:0,0:0:0:0:
339,118,72334,2,0,B|342:76|400:55|443:74|443:74|428:115|457:143,1,167.999994873047,10|2,0:1|0:0,0:0:0:0:
511,167,72852,2,0,P|475:202|434:190,1,83.9999974365235,2|8,1:1|0:0,0:0:0:0:
327,257,73197,6,0,B|406:266|364:360|456:354,1,167.999994873047,2|0,1:0|1:0,0:0:0:0:
457,273,73714,2,0,B|378:263|397:365|309:338,1,167.999994873047,10|2,0:1|0:0,0:0:0:0:
249,288,74231,2,0,P|214:259|171:266,1,83.9999974365235,2|8,1:0|0:0,0:0:0:0:
102,353,74576,70,0,B|135:343|141:317|141:317|119:203,1,167.999994873047,2|0,1:0|1:0,0:0:0:0:
48,165,75093,2,0,B|28:151|36:122|36:122|88:88|88:88|110:55|79:35,1,167.999994873047,10|2,0:1|0:0,0:0:0:0:
172,14,75610,2,0,L|274:37,1,83.9999974365235,2|8,1:0|0:0,0:0:0:0:
312,129,75955,6,0,B|340:163|395:151|412:123|412:123|393:94|412:60,1,167.999994873047,2|0,1:0|1:0,0:0:0:0:
332,14,76472,2,0,L|497:53,1,167.999994873047,10|2,0:1|0:0,0:0:0:0:
498,131,76990,2,0,B|488:160|488:160|493:187|493:187|482:216,1,83.9999974365235,2|8,1:0|0:0,0:0:0:0:
480,303,77334,1,0,0:0:0:0:
381,356,77507,70,0,P|339:346|326:308,1,83.9999974365235,6|0,1:0|0:0,0:0:0:0:
372,230,77852,2,0,B|388:217|381:189|358:191|358:191|235:205,1,167.999994873047,10|2,0:1|0:0,0:0:0:0:
185,273,78369,2,0,B|149:282|169:323|116:326,1,83.9999974365235,2|8,1:0|0:0,0:0:0:0:
13,283,78714,6,0,B|19:196|86:246|90:142,1,167.999994873047,2|0,1:0|1:0,0:0:0:0:
0,109,79231,2,0,B|55:102|55:102|83:113|83:113|106:92|106:92|187:75,1,167.999994873047,10|2,0:1|0:0,0:0:0:0:
225,19,79748,2,0,P|276:21|302:59,1,83.9999974365235,2|8,1:0|0:0,0:0:0:0:
399,141,80093,70,0,B|452:157|505:108|490:75|490:75|455:37,1,167.999994873047,2|0,1:0|1:0,0:0:0:0:
380,59,80610,2,0,B|327:43|274:92|289:125|289:125|324:163,1,167.999994873047,10|2,0:1|0:0,0:0:0:0:
366,224,81128,2,0,B|373:268|410:246|421:310,1,83.9999974365235,2|8,1:0|0:0,0:0:0:0:
485,368,81472,6,0,P|425:314|314:347,1,167.999994873047,2|0,1:0|1:0,0:0:0:0:
261,367,81990,2,0,B|193:361|203:279|109:318,1,167.999994873047,10|2,0:1|0:0,0:0:0:0:
46,380,82507,2,0,P|18:345|33:293,1,83.9999974365235,2|8,1:0|0:0,0:0:0:0:
79,235,82852,1,0,0:0:0:0:
4,151,83024,70,0,B|6:117|6:117|-4:108|-4:108|1:63,1,83.9999974365235,6|0,1:0|0:0,0:0:0:0:
56,15,83369,2,0,B|155:29|155:29|171:55|203:80|242:52,1,167.999994873047,10|2,0:1|0:0,0:0:0:0:
282,11,83886,2,0,P|308:44|276:103,1,83.9999974365235,2|8,1:0|0:0,0:0:0:0:
236,150,84231,6,0,B|209:264|209:264|202:281|159:243|206:240,1,167.999994873047,2|0,1:0|1:0,0:0:0:0:
274,316,84748,2,0,L|448:294,1,167.999994873047,10|2,0:1|0:0,0:0:0:0:
457,203,85266,2,0,B|442:158|398:204|394:143,1,83.9999974365235,2|8,1:0|0:0,0:0:0:0:
470,102,85610,70,0,P|434:48|338:89,1,167.999994873047,2|0,1:0|1:0,0:0:0:0:
297,151,86128,2,0,P|260:164|211:139,1,83.9999974365235,10|0,0:1|0:0,0:0:0:0:
187,62,86472,1,2,0:0:0:0:
112,117,86645,2,0,B|102:140|102:140|106:153|106:153|80:217,1,83.9999974365235,2|8,1:0|0:0,0:0:0:0:
141,276,86990,6,0,B|62:266|81:368|-7:341,1,167.999994873047,2|0,1:0|1:0,0:0:0:0:
11,260,87508,2,0,B|90:269|48:363|140:357,1,167.999994873047,10|2,0:1|0:0,0:0:0:0:
219,325,88024,2,0,L|388:310,1,167.999994873047,2|0,1:0|0:0,0:0:0:0:
469,296,88541,6,0,B|475:318|475:318|469:337|469:337|482:370,4,70,2|2|2|2|2,1:2|0:2|0:2|0:2|0:2,0:0:0:0:
437,217,89403,1,2,1:2:0:0:
381,153,89576,2,0,L|391:70,1,70,10|2,0:2|0:2,0:0:0:0:
315,18,89921,6,0,L|214:36,1,70,2|2,1:2|0:2,0:0:0:0:
177,79,90266,1,10,0:2:0:0:
95,61,90438,1,2,0:2:0:0:
44,127,90610,2,0,P|32:167|53:208,1,70,2|2,0:2|1:2,0:0:0:0:
113,233,90955,2,0,L|210:222,1,70,10|2,0:2|0:2,0:0:0:0:
270,158,91300,70,0,L|364:162,1,70,2|2,1:2|0:2,0:0:0:0:
414,200,91645,1,10,0:2:0:0:
383,277,91817,1,2,0:2:0:0:
433,344,91990,2,0,B|452:358|452:358|511:369,1,70,2|2,0:2|1:2,0:0:0:0:
348,353,92334,2,0,L|254:367,1,70,10|2,0:2|0:2,0:0:0:0:
204,339,92679,5,2,1:2:0:0:
199,362,92852,1,2,0:2:0:0:
123,341,93024,1,10,0:2:0:0:
118,364,93197,1,2,0:2:0:0:
159,276,93369,69,0,0:2:0:0:
154,253,93542,1,2,1:2:0:0:
79,278,93714,1,10,0:2:0:0:
74,255,93887,1,2,0:2:0:0:
39,178,94059,6,0,B|43:154|43:154|20:90,1,70,2|2,1:2|0:2,0:0:0:0:
98,53,94403,1,10,0:2:0:0:
117,61,94576,1,2,0:2:0:0:
202,99,94748,1,2,0:2:0:0:
221,91,94921,1,2,1:2:0:0:
298,59,95093,2,0,L|387:72,1,70,10|2,0:2|0:2,0:0:0:0:
446,68,95438,70,0,P|466:52|472:6,1,70,2|2,1:2|0:2,0:0:0:0:
406,141,95783,2,0,B|414:172|414:172|418:177|418:177|431:233,1,70,10|2,0:2|0:2,0:0:0:0:
461,283,96128,1,2,0:2:0:0:
408,348,96300,1,2,1:2:0:0:
328,321,96472,2,0,P|296:323|256:350,1,70,10|2,0:2|0:2,0:0:0:0:
157,366,96817,6,0,L|132:274,1,70,2|2,1:2|0:2,0:0:0:0:
81,230,97162,1,10,0:2:0:0:
95,211,97334,1,2,0:2:0:0:
129,133,97507,1,2,0:2:0:0:
115,114,97679,1,2,1:2:0:0:
40,74,97852,2,0,P|71:39|121:37,1,70,10|2,0:2|0:2,0:0:0:0:
199,59,98197,70,0,L|290:68,1,70,2|2,1:2|0:2,0:0:0:0:
342,105,98541,1,10,0:2:0:0:
351,126,98714,1,2,0:2:0:0:
425,75,98886,2,0,L|515:69,1,70,2|2,0:2|1:2,0:0:0:0:
509,153,99231,2,0,L|439:157,1,70,10|2,0:2|0:2,0:0:0:0:
374,211,99576,5,2,1:2:0:0:
344,289,99748,1,2,0:2:0:0:
261,303,99921,2,0,B|241:323|241:323|231:368,1,70,10|2,0:2|0:2,0:0:0:0:
147,367,100266,2,0,L|126:267,1,70,2|2,0:2|1:2,0:0:0:0:
186,234,100610,2,0,L|189:152,1,70,10|2,0:2|0:2,0:0:0:0:
108,138,100955,70,0,B|78:155|78:155|12:149,2,70,2|2|10,1:2|0:2|0:2,0:0:0:0:
151,65,101472,1,2,0:2:0:0:
223,21,101645,2,0,L|326:29,1,70,2|2,0:2|1:2,0:0:0:0:
376,20,101990,2,0,B|415:16|415:16|458:58,1,70,10|2,0:2|0:2,0:0:0:0:
436,142,102334,6,0,B|450:147|450:147|475:214,2,70,2|2|10,1:2|0:2|0:2,0:0:0:0:
358,175,102852,1,2,0:2:0:0:
292,122,103024,2,0,L|222:116,1,70,2|2,0:2|1:2,0:0:0:0:
170,182,103369,2,0,B|190:202|190:202|215:271,1,70,10|2,0:2|0:2,0:0:0:0:
96,369,103714,70,0,L|-1:357,3,70,2|2|10|2,1:2|0:2|0:2|0:2,0:0:0:0:
58,279,104403,2,0,L|155:267,3,70,2|2|10|2,0:2|1:2|0:2|0:2,0:0:0:0:
68,167,105093,6,0,B|79:142|79:142|61:73,1,70,2|2,1:2|0:2,0:0:0:0:
43,19,105438,2,0,L|146:31,1,70,10|2,0:2|0:2,0:0:0:0:
189,60,105783,1,2,0:2:0:0:
198,76,105955,1,2,1:2:0:0:
273,113,106128,1,10,0:2:0:0:
282,97,106300,1,2,0:2:0:0:
366,35,106472,70,0,L|466:28,1,70,2|2,1:2|0:2,0:0:0:0:
499,85,106817,2,0,B|485:111|485:111|473:176,1,70,10|2,0:2|0:2,0:0:0:0:
424,216,107162,1,2,0:2:0:0:
505,235,107334,1,2,1:2:0:0:
449,298,107507,2,0,P|411:330|363:329,1,70,10|2,0:2|0:2,0:0:0:0:
311,311,107852,5,0,1:0:0:0:
304,331,108024,1,0,1:0:0:0:
226,313,108197,2,0,B|213:342|213:342|225:364|216:389,1,70,0|0,1:0|1:0,0:0:0:0:
153,282,108541,2,0,B|141:311|141:311|116:316|104:340,1,70,0|0,1:0|1:0,0:0:0:0:
89,226,108886,1,0,1:0:0:0:
82,246,109058,1,0,1:0:0:0:
160,177,109231,69,0,1:0:0:0:
167,197,109403,1,0,1:0:0:0:
245,179,109576,2,0,B|258:208|258:208|246:230|255:255,1,70,0|0,1:0|1:0,0:0:0:0:
318,148,109920,2,0,B|330:177|330:177|355:182|367:206,1,70,0|0,1:0|1:0,0:0:0:0:
382,92,110265,1,0,1:0:0:0:
389,112,110437,1,0,1:0:0:0:
301,47,110610,70,0,P|252:34|209:63,1,77.0000023498536,6|2,1:2|0:0,0:0:0:0:
167,101,110955,2,0,L|-2:111,1,154.000004699707,10|0,0:0|0:0,0:0:0:0:
28,193,111472,2,0,B|36:208|36:208|35:218|35:218|62:270,1,77.0000023498536,2|8,1:2|0:0,0:0:0:0:
127,347,111817,70,0,B|191:303|134:236|218:208,1,154.000004699707,2|0,1:2|0:0,0:0:0:0:
282,227,112334,1,8,0:0:0:0:
315,304,112507,2,0,B|350:317|350:317|363:336|414:331,1,77.0000023498536,2|0,0:0|0:0,0:0:0:0:
482,282,112852,2,0,B|447:269|447:269|434:250|383:255,1,77.0000023498536,2|8,1:2|0:0,0:0:0:0:
358,187,113197,6,0,B|374:165|374:165|391:65|391:65|366:34,1,154.000004699707,2|0,1:2|0:0,0:0:0:0:
295,16,113714,1,10,0:0:0:0:
253,89,113886,2,0,L|156:107,1,77.0000023498536,2|0,0:0|0:0,0:0:0:0:
110,50,114231,2,0,L|34:35,1,77.0000023498536,2|8,1:2|0:0,0:0:0:0:
0,121,114576,70,0,B|36:149|36:149|56:209|129:198,1,154.000004699707,2|0,1:2|0:0,0:0:0:0:
203,177,115093,1,10,0:0:0:0:
180,259,115266,2,0,B|176:288|176:288|196:345,1,77.0000023498536,2|0,0:2|0:0,0:0:0:0:
271,362,115610,1,2,1:2:0:0:
344,319,115783,2,0,B|359:314|359:314|446:323,1,77.0000023498536,8|0,0:0|0:0,0:0:0:0:
467,215,116128,5,2,1:2:0:0:
442,134,116300,1,2,0:0:0:0:
420,52,116472,1,10,0:0:0:0:
358,110,116645,2,0,B|327:117|311:98|311:98|257:83,1,77.0000023498536,2|0,0:2|0:0,0:0:0:0:
220,37,116990,2,0,B|189:30|173:49|173:49|119:64,1,77.0000023498536,2|8,1:2|0:0,0:0:0:0:
36,60,117334,70,0,B|16:146|96:112|88:210,1,154.000004699707,2|0,1:2|0:0,0:0:0:0:
35,262,117852,1,10,0:0:0:0:
35,346,118024,2,0,P|72:368|118:353,1,77.0000023498536,2|0,0:0|0:0,0:0:0:0:
163,301,118369,2,0,L|257:286,1,77.0000023498536,2|8,1:2|0:0,0:0:0:0:
330,197,118714,6,0,B|347:208|347:208|372:314|372:314|405:342,1,154.000004699707,2|0,1:2|0:0,0:0:0:0:
475,332,119231,1,10,0:0:0:0:
495,249,119403,2,0,B|499:225|499:225|494:215|494:215|480:163,1,77.0000023498536,2|0,0:0|0:0,0:0:0:0:
405,141,119748,2,0,P|373:118|371:69,1,77.0000023498536,2|8,1:2|0:0,0:0:0:0:
438,27,120093,70,0,L|274:44,1,154.000004699707,2|0,1:2|0:0,0:0:0:0:
222,100,120610,1,10,0:2:0:0:
140,77,120783,2,0,B|72:53|44:121|44:121|59:173,1,154.000004699707,2|0,1:2|1:0,0:0:0:0:
106,219,121300,2,0,B|103:246|103:246|96:254|96:254|91:298,1,77.0000023498536,8|0,0:0|0:0,0:0:0:0:
175,355,121645,22,0,P|192:337|252:338,1,70,4|0,1:2|0:0,0:0:0:0:
311,360,121990,2,0,L|388:351,1,70,8|0,0:0|0:0,0:0:0:0:
470,291,122334,2,0,B|433:284|433:284|416:274|416:274|309:257,1,140,0|8,1:0|0:0,0:0:0:0:
252,240,122852,6,0,B|240:200|274:178|274:178|293:123,1,105,0|0,1:0|0:0,0:0:0:0:
293,123,123197,1,0,1:0:0:0:
376,112,123369,2,0,B|387:162|387:162|402:177,1,70,8|0,0:0|0:0,0:0:0:0:
477,231,123714,2,0,L|486:150,1,70,0|0,1:0|1:0,0:0:0:0:
493,82,124059,2,0,L|502:1,1,70,8|0,0:0|0:0,0:0:0:0:
398,41,124403,70,0,B|378:57|348:53|348:53|307:58,1,70,0|0,1:0|0:0,0:0:0:0:
246,56,124748,2,0,L|160:68,1,70,8|0,0:0|0:0,0:0:0:0:
56,52,125093,2,0,B|113:98|56:135|121:180,1,140,0|8,1:0|0:0,0:0:0:0:
196,179,125610,2,0,P|221:237|175:280,1,105,0|0,1:0|0:0,0:0:0:0:
186,283,125955,2,0,L|91:276,1,70,0|8,1:0|0:0,0:0:0:0:
53,334,126300,1,0,0:0:0:0:
141,371,126472,6,0,L|233:363,1,70,0|0,1:0|1:0,0:0:0:0:
294,355,126817,2,0,L|386:347,1,70,8|0,0:0|0:0,0:0:0:0:
469,303,127162,70,0,P|475:276|434:237,1,70,0|0,1:0|0:0,0:0:0:0:
372,216,127507,2,0,P|367:182|388:155,1,70,8|0,0:0|0:0,0:0:0:0:
493,100,127852,6,0,B|454:92|454:92|438:75|438:75|355:59,1,140,0|8,1:0|0:0,0:0:0:0:
284,28,128369,2,0,P|227:24|194:65,1,105,0|0,1:0|0:0,0:0:0:0:
190,78,128714,1,0,1:0:0:0:
140,145,128886,2,0,P|76:168|56:157,1,70,8|0,0:0|0:0,0:0:0:0:
46,90,129231,2,0,P|110:67|130:78,1,70,0|0,1:0|1:0,0:0:0:0:
224,154,129576,2,0,L|213:249,1,70,8|0,0:0|0:0,0:0:0:0:
173,324,129921,70,0,B|207:342|207:342|242:329,1,70,0|0,1:0|0:0,0:0:0:0:
315,300,130266,2,0,B|344:289|344:289|378:307,1,70,0|0,1:0|1:0,0:0:0:0:
446,355,130610,6,0,P|487:342|491:235,1,140,8|0,0:0|0:0,0:0:0:0:
470,179,131128,2,0,L|387:191,1,70,0|0,1:0|0:0,0:0:0:0:
317,196,131472,70,0,B|255:225|222:162|222:162|242:155|254:136,1,140,0|2,0:0|0:0,0:0:0:0:
270,68,131990,1,8,0:0:0:0:
353,77,132162,1,2,0:0:0:0:
435,90,132334,6,0,P|470:78|429:85,1,140,2|0,0:0|1:0,0:0:0:0:
