osu file format v14

[General]
AudioFilename: audio.mp3
AudioLeadIn: 0
PreviewTime: 69201
Countdown: 0
SampleSet: Normal
StackLeniency: 0.7
Mode: 0
LetterboxInBreaks: 0
WidescreenStoryboard: 1

[Editor]
Bookmarks: 25494,36529,47563,58598,69632,80667,91701,102736,113770,124805,135839,157908,179977,191012,202046,213081,224115,235150,246184
DistanceSpacing: 1
BeatDivisor: 4
GridSize: 4
TimelineZoom: 1.9

[Metadata]
Title:Invasion
TitleUnicode:Invasion
Artist:Andromedik
ArtistUnicode:Andromedik
Creator:Mirash
Version:Normal
Source:
Tags:noffy delis neilperry toybot High Tea Music mappers' guild featured artist
BeatmapID:1656915
BeatmapSetID:789544

[Difficulty]
HPDrainRate:4
CircleSize:4
OverallDifficulty:4
ApproachRate:5
SliderMultiplier:1
SliderTickRate:1

[Events]
//Background and Video events
0,0,"invasion.jpg",0,0
//Break Periods
2,136038,156708
//Storyboard Layer 0 (Background)
//Storyboard Layer 1 (Fail)
//Storyboard Layer 2 (Pass)
//Storyboard Layer 3 (Foreground)
//Storyboard Sound Samples

[TimingPoints]
3426,344.827586206897,4,1,1,70,1,0
14460,-100,4,2,1,40,0,0
22736,-100,4,2,1,48,0,0
24115,-100,4,2,1,55,0,0
25494,-100,4,2,1,65,0,0
47563,-100,4,1,1,50,0,0
48943,-100,4,1,1,55,0,0
50322,-100,4,1,1,60,0,0
51701,-100,4,1,1,65,0,0
53081,-100,4,1,1,60,0,0
54460,-100,4,1,1,55,0,0
55839,-100,4,1,1,50,0,0
57219,-100,4,1,1,45,0,0
58598,-100,4,1,1,50,0,0
60667,-100,4,1,1,45,0,0
62736,-100,4,1,1,50,0,0
63426,-100,4,1,1,55,0,0
64115,-100,4,1,1,50,0,0
65494,-100,4,1,1,55,0,0
66874,-100,4,1,1,60,0,0
67563,-100,4,1,1,65,0,0
69288,-100,4,1,1,55,0,0
69632,-100,4,1,1,60,0,0
113770,-100,4,1,1,65,0,1
114288,-100,4,1,0,65,0,1
114632,-100,4,1,1,65,0,1
115667,-100,4,1,0,65,0,1
116012,-100,4,1,1,65,0,1
119805,-100,4,1,0,65,0,1
120150,-100,4,1,1,65,0,1
121184,-100,4,1,0,65,0,1
121529,-100,4,1,1,65,0,1
125322,-100,4,1,0,65,0,1
125667,-100,4,1,1,65,0,1
126701,-100,4,1,0,65,0,1
127046,-100,4,1,1,65,0,1
130839,-100,4,1,0,65,0,1
131184,-100,4,1,1,65,0,1
132219,-100,4,1,0,65,0,1
132563,-100,4,1,1,65,0,1
135839,-100,4,1,1,40,0,0
157908,-100,4,1,1,50,0,0
163426,-100,4,1,1,55,0,0
174460,-100,4,1,1,60,0,0
177908,-100,4,1,1,65,0,0
178598,-100,4,1,1,70,0,0
179632,-100,4,1,1,70,0,0
179977,-100,4,1,1,70,0,0
224115,-100,4,1,1,75,0,1
224632,-100,4,1,0,75,0,1
224805,-100,4,1,1,75,0,1
224977,-100,4,1,0,75,0,1
225150,-100,4,1,1,75,0,1
225322,-100,4,1,0,75,0,1
225494,-100,4,1,1,75,0,1
226012,-100,4,1,0,75,0,1
226184,-100,4,1,1,75,0,1
226357,-100,4,1,0,75,0,1
226529,-100,4,1,1,75,0,1
226701,-100,4,1,0,75,0,1
226788,-100,4,1,1,75,0,1
227391,-100,4,1,0,75,0,1
227563,-100,4,1,1,75,0,1
227736,-100,4,1,0,75,0,1
227908,-100,4,1,1,75,0,1
228081,-100,4,1,0,75,0,1
228253,-100,4,1,1,75,0,1
228770,-100,4,1,0,75,0,1
228943,-100,4,1,1,75,0,1
229115,-100,4,1,0,75,0,1
229288,-100,4,1,1,75,0,1
229460,-100,4,1,0,75,0,1
229546,-100,4,1,1,75,0,1
230150,-100,4,1,0,75,0,1
230322,-100,4,1,1,75,0,1
230494,-100,4,1,0,75,0,1
230667,-100,4,1,1,75,0,1
230839,-100,4,1,0,75,0,1
231012,-100,4,1,1,75,0,1
231529,-100,4,1,0,75,0,1
231701,-100,4,1,1,75,0,1
231874,-100,4,1,0,75,0,1
232046,-100,4,1,1,75,0,1
232219,-100,4,1,0,75,0,1
232305,-100,4,1,1,75,0,1
232908,-100,4,1,0,75,0,1
233081,-100,4,1,1,75,0,1
233253,-100,4,1,0,75,0,1
233426,-100,4,1,1,75,0,1
233598,-100,4,1,0,75,0,1
233770,-100,4,1,1,75,0,1
234288,-100,4,1,0,75,0,1
234546,-100,4,1,1,75,0,1
235667,-100,4,1,0,75,0,1
235926,-100,4,1,1,75,0,1
236012,-100,4,1,0,75,0,1
236184,-100,4,1,1,75,0,1
236357,-100,4,1,0,75,0,1
236529,-100,4,1,1,75,0,1
237046,-100,4,1,0,75,0,1
237305,-100,4,1,1,75,0,1
237391,-100,4,1,0,75,0,1
237563,-100,4,1,1,75,0,1
237736,-100,4,1,0,75,0,1
237908,-100,4,1,1,75,0,1
238426,-100,4,1,0,75,0,1
238512,-100,4,1,1,75,0,1
238770,-100,4,1,0,75,0,1
238943,-100,4,1,1,75,0,1
239115,-100,4,1,0,75,0,1
239288,-100,4,1,1,75,0,1
239805,-100,4,1,0,75,0,1
240063,-100,4,1,1,75,0,1
240150,-100,4,1,0,75,0,1
240322,-100,4,1,1,75,0,1
240494,-100,4,1,0,75,0,1
240667,-100,4,1,1,75,0,1
241184,-100,4,1,0,75,0,1
241443,-100,4,1,1,75,0,1
241529,-100,4,1,0,75,0,1
241701,-100,4,1,1,75,0,1
241874,-100,4,1,0,75,0,1
242046,-100,4,1,1,75,0,1
242563,-100,4,1,0,75,0,1
242736,-100,4,1,1,75,0,1
242908,-100,4,1,0,75,0,1
242994,-100,4,1,1,75,0,1
243253,-100,4,1,0,75,0,1
243426,-100,4,1,1,75,0,1
243943,-100,4,1,0,75,0,1
244201,-100,4,1,1,75,0,1
244288,-100,4,1,0,75,0,1
244374,-100,4,1,1,75,0,1
244632,-100,4,1,0,75,0,1
244805,-100,4,1,1,75,0,1
245322,-100,4,1,0,75,0,1
245494,-100,4,1,1,75,0,1
246184,-100,4,1,1,45,0,0

[Colours]
Combo1 : 175,143,97
Combo2 : 184,181,167
Combo3 : 185,157,182
Combo4 : 138,172,148

[HitObjects]
504,192,14460,6,0,P|448:200|404:244,1,100,4|0,1:3|0:0,0:0:0:0:
396,244,14977,1,0,0:0:0:0:
376,260,15150,2,0,L|268:248,1,100,2|0,0:3|0:0,0:0:0:0:
180,280,15839,2,0,P|128:272|96:224,1,100,2|0,0:3|0:0,0:0:0:0:
48,152,16529,2,0,P|98:136|148:165,1,100,2|0,0:3|0:0,0:0:0:0:
228,204,17219,6,0,P|280:180|304:144,1,100,4|0,1:3|0:0,0:0:0:0:
304,120,17736,1,0,0:0:0:0:
304,96,17908,2,0,L|412:108,1,100,2|0,0:3|0:0,0:0:0:0:
468,184,18598,2,0,P|456:232|460:280,2,75,2|0|0,0:3|0:0|0:0,0:0:0:0:
440,144,19288,2,0,P|438:106|428:70,2,75,2|0|0,0:3|0:0|0:0,0:0:0:0:
404,176,19977,6,0,L|304:180,1,100,4|0,1:3|0:0,0:0:0:0:
216,232,20667,2,0,L|116:236,1,100,2|0,0:3|0:0,0:0:0:0:
24,196,21357,2,0,P|32:144|32:116,2,75,2|0|0,0:3|0:0|0:0,0:0:0:0:
4,240,22046,2,0,P|5:277|12:314,2,75,2|0|0,0:3|0:0|0:0,0:0:0:0:
256,192,22736,12,4,25494,0:3:0:0:
400,184,27391,6,0,L|420:348,1,150,2|2,0:3|0:3,0:0:0:0:
168,336,28770,6,0,L|149:187,1,150,2|2,0:3|0:3,0:0:0:0:
212,108,29632,1,4,0:1:0:0:
312,120,29977,1,0,0:0:0:0:
412,132,30322,1,4,0:1:0:0:
512,148,30667,1,2,0:3:0:0:
480,244,31012,6,0,P|420:236|340:344,1,200,4|8,1:0|0:0,0:0:0:0:
248,372,32046,1,2,0:3:0:0:
44,228,32908,2,0,P|68:156|48:76,1,150,2|2,0:3|0:3,0:0:0:0:
196,36,33943,5,0,0:0:0:0:
256,116,34288,2,0,L|328:108,1,50,2|0,0:3|0:0,0:0:0:0:
396,148,34805,1,2,0:3:0:0:
472,84,35150,1,4,0:1:0:0:
496,180,35494,1,0,0:0:0:0:
464,276,35839,1,4,0:1:0:0:
484,376,36184,1,2,0:3:0:0:
388,352,36529,6,0,B|276:356|340:284|208:288,1,200,4|8,1:0|0:0,0:0:0:0:
112,316,37563,1,2,0:3:0:0:
20,272,37908,2,0,P|28:228|28:200,1,50,0|0,0:0|0:0,0:0:0:0:
20,124,38426,2,0,P|72:88|120:84,1,100,2|0,0:3|0:0,0:0:0:0:
128,96,38943,1,2,0:3:0:0:
200,164,39288,6,0,L|268:160,1,50,0|0,0:0|0:0,0:0:0:0:
332,104,39805,2,0,P|372:112|412:176,1,100,2|0,0:3|0:0,0:0:0:0:
404,180,40322,1,2,0:3:0:0:
412,280,40667,1,4,0:1:0:0:
320,324,41012,1,0,0:0:0:0:
220,308,41357,1,4,0:1:0:0:
148,236,41701,1,2,0:3:0:0:
48,220,42046,6,0,P|36:160|136:64,1,200,4|8,1:0|0:0,0:0:0:0:
204,124,43081,1,2,0:3:0:0:
288,72,43426,2,0,P|340:72|436:136,1,150,0|2,0:0|0:3,0:0:0:0:
472,208,44288,2,0,P|448:236|440:256,1,50,0|2,0:0|0:3,0:0:0:0:
316,328,44977,6,0,P|256:312|216:308,1,100,2|2,0:3|0:3,0:0:0:0:
120,336,45667,2,0,P|96:304|92:284,1,50,0|2,0:0|0:3,0:0:0:0:
44,208,46184,1,4,0:1:0:0:
92,120,46529,1,2,0:3:0:0:
192,140,46874,1,4,0:1:0:0:
196,240,47219,1,2,0:3:0:0:
268,308,47563,6,0,P|328:284|356:268,2,75,4|2|2,0:0|0:2|0:3,0:0:0:0:
252,328,48253,2,0,P|184:336|148:344,1,100,8|2,0:2|0:2,0:0:0:0:
72,288,48943,2,0,P|44:308|0:352,2,75,4|2|2,0:3|0:2|0:3,0:0:0:0:
80,264,49632,2,0,L|60:152,1,100,8|2,0:2|0:2,0:0:0:0:
36,68,50322,5,4,0:0:0:0:
132,40,50667,1,2,0:2:0:0:
192,120,51012,2,0,P|221:98|296:78,2,100,8|2|4,0:2|0:2|0:3,0:0:0:0:
157,213,52046,1,2,0:2:0:0:
96,292,52391,2,0,P|134:321|169:375,1,100,8|2,0:2|0:2,0:0:0:0:
256,319,53081,6,0,P|312:291|324:247,1,100,4|2,0:0|0:2,0:0:0:0:
292,164,53770,2,0,P|292:128|300:84,2,75,8|2|2,0:2|0:2|0:3,0:0:0:0:
276,184,54460,2,0,P|220:188|172:180,1,100,4|2,0:3|0:2,0:0:0:0:
96,124,55150,1,8,0:2:0:0:
20,188,55494,1,2,0:2:0:0:
64,280,55839,6,0,P|136:272|164:272,1,100,4|2,0:0|0:2,0:0:0:0:
244,332,56529,1,8,0:2:0:0:
336,296,56874,2,0,P|376:304|424:340,1,100,2|4,0:2|0:3,0:0:0:0:
512,292,57563,1,2,0:2:0:0:
492,192,57908,2,0,P|460:208|428:240,2,75,8|2|2,0:2|0:2|0:3,0:0:0:0:
492,168,58598,6,0,P|488:128|440:80,1,100,4|2,0:0|0:3,0:0:0:0:
352,60,59288,2,0,P|317:95|309:143,1,100,4|4,0:0|0:3,0:0:0:0:
276,240,59977,2,0,P|236:232|172:220,1,100,4|2,0:0|0:3,0:0:0:0:
88,176,60667,2,0,P|48:208|24:268,1,100,4|4,0:0|0:3,0:0:0:0:
96,324,61357,6,0,P|148:344|204:344,1,100,4|2,0:0|0:3,0:0:0:0:
284,312,62046,1,4,0:0:0:0:
380,344,62391,1,4,0:3:0:0:
472,300,62736,2,0,P|460:232|460:184,1,100,4|2,0:0|0:3,0:0:0:0:
500,108,63426,2,0,P|472:80|396:60,1,100,4|4,0:0|0:3,0:0:0:0:
328,108,64115,5,4,0:3:0:0:
236,72,64460,1,4,0:3:0:0:
148,116,64805,1,4,0:3:0:0:
52,88,65150,1,4,0:3:0:0:
20,180,65494,6,0,P|20:232|36:288,1,100,4|4,0:3|0:3,0:0:0:0:
120,324,66184,2,0,P|132:276|132:224,1,100,4|4,0:3|0:3,0:0:0:0:
256,192,66874,12,4,68598,0:3:0:0:
443,114,69288,6,0,P|463:134|474:155,1,50,8|8,0:0|0:0,0:0:0:0:
504,192,69632,6,0,P|476:200|432:256,1,100,4|8,0:0|0:0,0:0:0:0:
420,276,70150,1,2,0:0:0:0:
400,292,70322,2,0,P|336:284|312:272,3,75,2|8|2|8,0:0|0:0|0:0|0:0,0:0:0:0:
272,232,71357,2,0,P|204:248|180:256,2,75,2|8|2,0:0|0:0|0:0,0:0:0:0:
292,216,72046,2,0,B|316:168|316:168|308:112,1,100,8|4,0:0|0:3,0:0:0:0:
228,64,72736,6,0,L|120:72,2,100,8|2|2,0:0|0:0|0:0,0:0:0:0:
320,24,73770,2,0,L|420:44,1,100,0|8,0:0|0:0,0:0:0:0:
488,116,74460,1,0,0:0:0:0:
488,116,74632,2,0,P|476:164|472:220,1,100,8|2,0:0|0:0,0:0:0:0:
456,236,75150,6,0,P|396:264|356:252,1,100,4|8,0:3|0:0,0:0:0:0:
344,244,75667,1,2,0:0:0:0:
320,240,75839,2,0,P|248:264|236:272,3,75,2|8|2|8,0:0|0:0|0:0|0:0,0:0:0:0:
200,320,76874,2,0,P|152:328|120:324,2,75,2|8|2,0:0|0:0|0:0,0:0:0:0:
220,332,77563,2,0,B|268:348|268:348|332:328,1,100,8|4,0:0|0:3,0:0:0:0:
416,340,78253,5,8,0:0:0:0:
440,244,78598,2,0,P|452:196|484:144,2,100,2|2|4,0:0|0:0|0:3,0:0:0:0:
344,276,79632,1,8,0:0:0:0:
344,276,79805,2,0,L|236:264,1,100,0|8,0:0|0:0,0:0:0:0:
100,304,80667,6,0,P|64:260|56:216,1,100,4|8,0:3|0:0,0:0:0:0:
48,196,81184,1,2,0:0:0:0:
40,172,81357,2,0,L|128:176,3,75,2|8|2|8,0:0|0:0|0:0|0:0,0:0:0:0:
184,144,82391,2,0,P|184:112|176:64,2,75,2|8|2,0:0|0:0|0:0,0:0:0:0:
200,164,83081,1,8,0:0:0:0:
280,220,83426,6,0,P|336:208|384:208,1,100,4|8,0:3|0:0,0:0:0:0:
468,256,84115,1,2,0:0:0:0:
492,160,84460,2,0,P|488:112|488:56,1,100,8|0,0:0|0:0,0:0:0:0:
396,20,85150,2,0,L|292:32,1,100,8|0,0:0|0:0,0:0:0:0:
276,48,85667,1,8,0:0:0:0:
260,64,85839,2,0,L|188:60,1,50,8|2,0:0|0:0,0:0:0:0:
188,48,86184,6,0,P|140:56|100:104,1,100,4|8,0:3|0:0,0:0:0:0:
64,184,86874,2,0,P|92:228|92:288,1,100,2|2,0:0|0:0,0:0:0:0:
172,336,87563,1,0,0:0:0:0:
268,368,87908,2,0,P|276:292|284:260,1,100,2|2,0:0|0:0,0:0:0:0:
264,248,88426,1,2,0:0:0:0:
248,232,88598,2,0,L|252:176,1,50,8|2,0:0|0:0,0:0:0:0:
240,160,88943,6,0,P|256:100|276:64,1,100,4|8,0:3|0:0,0:0:0:0:
368,36,89632,2,0,L|424:44,1,50,2|0,0:0|0:0,0:0:0:0:
432,64,89977,2,0,P|448:136|448:176,1,100,2|0,0:0|0:0,0:0:0:0:
432,180,90494,1,2,0:0:0:0:
416,200,90667,2,0,L|416:268,1,50,2|0,0:0|0:0,0:0:0:0:
344,316,91184,2,0,B|296:304|296:304|244:320,1,100,2|0,0:0|0:0,0:0:0:0:
228,336,91701,6,0,P|176:328|156:288,1,100,4|8,0:0|0:0,0:0:0:0:
132,280,92219,1,2,0:0:0:0:
108,276,92391,2,0,L|116:188,3,75,2|8|2|8,0:0|0:0|0:0|0:0,0:0:0:0:
88,132,93426,2,0,P|56:120|4:104,2,75,2|8|2,0:0|0:0|0:0,0:0:0:0:
136,124,94115,2,0,B|184:108|184:108|240:120,1,100,8|4,0:0|0:3,0:0:0:0:
308,188,94805,5,8,0:0:0:0:
400,225,95150,2,0,L|396:305,3,75,2|8|2|8,0:0|0:0|0:0|0:0,0:0:0:0:
471,301,96184,2,0,L|474:226,2,75,8|8|2,0:0|0:0|0:0,0:0:0:0:
440,340,96874,2,0,B|392:328|392:328|336:348,1,100,8|4,0:0|0:3,0:0:0:0:
255,299,97563,6,0,P|275:259|283:191,2,100,8|2|2,0:0|0:0|0:0,0:0:0:0:
168,248,98598,1,0,0:0:0:0:
184,149,98943,1,2,0:0:0:0:
98,96,99288,2,0,P|94:148|102:212,1,100,2|8,0:0|0:0,0:0:0:0:
12,247,99977,6,0,P|0:279|8:347,1,100,4|8,0:3|0:0,0:0:0:0:
53,359,100494,1,2,0:0:0:0:
103,361,100667,2,0,L|195:357,3,75,2|8|2|8,0:0|0:0|0:0|0:0,0:0:0:0:
252,363,101701,2,0,P|316:347|340:331,2,75,2|8|2,0:0|0:0|0:0,0:0:0:0:
243,313,102391,2,0,L|247:249,1,50,2|0,0:0|0:0,0:0:0:0:
293,240,102736,6,0,L|285:132,1,100,4|8,0:3|0:0,0:0:0:0:
262,131,103253,1,2,0:0:0:0:
236,131,103426,2,0,P|184:115|148:115,3,75,2|8|2|8,0:0|0:0|0:0|0:0,0:0:0:0:
97,78,104460,2,0,P|53:86|13:102,2,75,2|8|2,0:0|0:0|0:0,0:0:0:0:
104,53,105150,2,0,B|152:37|152:37|216:49,1,100,8|4,0:0|0:3,0:0:0:0:
288,96,105839,6,0,P|352:92|408:92,1,100,8|2,0:0|0:0,0:0:0:0:
464,160,106529,1,2,0:0:0:0:
404,240,106874,2,0,P|392:276|388:352,2,100,4|8|2,0:3|0:0|0:0,0:0:0:0:
384,224,107736,1,2,0:0:0:0:
360,216,107908,2,0,L|256:224,1,100,8|4,0:0|0:3,0:0:0:0:
168,188,108598,6,0,L|48:204,2,100,8|2|2,0:0|0:0|0:0,0:0:0:0:
228,108,109632,2,0,P|280:104|340:128,1,100,0|8,0:0|0:0,0:0:0:0:
424,100,110322,1,2,0:0:0:0:
424,100,110494,2,0,L|444:208,1,100,2|2,0:0|0:0,0:0:0:0:
460,216,111012,6,0,P|428:272|436:312,1,100,4|8,0:3|0:0,0:0:0:0:
412,316,111529,1,2,0:0:0:0:
388,324,111701,2,0,L|320:320,2,50,2|0|2,0:0|0:0|0:0,0:0:0:0:
324,248,112391,2,0,P|268:256|228:296,1,100,2|2,0:0|0:0,0:0:0:0:
216,300,112908,2,0,P|152:308|104:296,1,100,2|2,0:0|0:0,0:0:0:0:
92,304,113426,1,2,0:0:0:0:
20,236,113770,6,0,P|28:180|40:136,1,100,4|8,0:0|0:0,0:0:0:0:
44,112,114288,2,0,L|160:132,1,100,2|2,0:0|0:0,0:0:0:0:
156,148,114805,2,0,L|220:140,1,50,8|4,0:0|0:2,0:0:0:0:
228,128,115150,2,0,L|324:140,2,75,4|8|2,0:3|0:0|0:0,0:0:0:0:
184,216,116012,1,2,0:0:0:0:
184,216,116184,2,0,L|192:284,1,50,0|4,0:0|0:2,0:0:0:0:
212,312,116529,6,0,P|268:320|324:316,1,100,4|2,0:0|0:0,0:0:0:0:
328,300,117046,2,0,P|328:252|336:200,1,100,2|2,0:0|0:0,0:0:0:0:
320,180,117563,2,0,P|320:136|316:108,1,50,8|4,0:0|0:2,0:0:0:0:
300,116,117908,2,0,P|240:112|212:112,2,75,4|8|2,0:3|0:0|0:0,0:0:0:0:
392,80,118770,1,2,0:0:0:0:
392,80,118943,2,0,P|412:108|428:140,1,50,8|4,0:0|0:2,0:0:0:0:
464,144,119288,6,0,P|484:200|484:252,1,100,4|8,0:0|0:0,0:0:0:0:
472,260,119805,2,0,P|412:284|372:308,1,100,2|2,0:0|0:0,0:0:0:0:
356,296,120322,1,8,0:0:0:0:
276,352,120667,6,0,P|272:300|240:256,1,100,4|8,0:3|0:0,0:0:0:0:
220,264,121184,2,0,L|192:164,1,100,2|2,0:0|0:0,0:0:0:0:
196,144,121701,1,8,0:0:0:0:
188,44,122046,6,0,P|124:60|84:144,2,150,4|2|8,0:0|0:0|0:0,0:0:0:0:
208,32,123253,1,0,0:2:0:0:
228,20,123426,2,0,L|344:44,1,100,4|2,0:3|0:0,0:0:0:0:
348,28,123943,2,0,L|452:52,1,100,2|2,0:0|0:0,0:0:0:0:
456,72,124460,1,8,0:0:0:0:
420,164,124805,6,0,P|396:212|388:276,1,100,4|8,0:0|0:0,0:0:0:0:
368,272,125322,2,0,L|252:268,1,100,2|2,0:0|0:0,0:0:0:0:
248,280,125839,2,0,L|256:352,1,50,8|4,0:0|0:2,0:0:0:0:
232,344,126184,2,0,L|128:336,1,100,4|8,0:3|0:0,0:0:0:0:
108,344,126701,1,2,0:0:0:0:
36,272,127046,1,2,0:0:0:0:
36,272,127219,2,0,L|44:220,1,50,8|4,0:0|0:2,0:0:0:0:
32,200,127563,6,0,P|40:160|96:116,1,100,4|2,0:0|0:0,0:0:0:0:
104,132,128081,2,0,L|220:152,1,100,2|2,0:0|0:0,0:0:0:0:
224,140,128598,2,0,L|284:136,1,50,8|4,0:0|0:2,0:0:0:0:
296,148,128943,1,4,0:3:0:0:
392,116,129288,1,2,0:0:0:0:
392,116,129460,2,0,P|432:140|456:204,1,100,2|2,0:0|0:0,0:0:0:0:
440,208,129977,2,0,P|416:244|412:256,1,50,4|4,0:2|0:2,0:0:0:0:
412,276,130322,6,0,P|384:308|320:320,1,100,4|8,0:0|0:0,0:0:0:0:
312,304,130839,2,0,P|260:296|200:304,1,100,2|2,0:0|0:0,0:0:0:0:
192,312,131357,1,8,0:0:0:0:
92,332,131701,2,0,P|60:284|60:228,1,100,4|8,0:3|0:0,0:0:0:0:
48,220,132219,2,0,P|72:168|112:144,1,100,2|2,0:0|0:0,0:0:0:0:
116,124,132736,2,0,L|176:132,1,50,8|4,0:0|0:2,0:0:0:0:
184,148,133081,6,0,P|240:140|284:112,1,100,4|2,0:0|0:0,0:0:0:0:
284,96,133598,1,2,0:0:0:0:
384,88,133943,1,4,0:2:0:0:
384,88,134115,2,0,L|392:140,1,50,4|4,0:2|0:2,0:0:0:0:
384,160,134460,2,0,P|392:216|384:272,1,100,4|2,0:3|0:0,0:0:0:0:
372,280,134977,2,0,P|296:280|256:288,1,100,2|8,0:0|0:0,0:0:0:0:
248,272,135494,2,0,B|260:324|260:324|252:380,1,100,2|4,0:0|0:0,0:0:0:0:
24,200,157908,6,0,L|12:304,1,100,4|0,0:1|0:0,0:0:0:0:
36,308,158426,1,2,0:3:0:0:
60,316,158598,2,0,L|160:344,1,100,8|0,0:2|0:0,0:0:0:0:
244,296,159288,6,0,P|260:244|252:176,1,100,4|0,0:3|0:0,0:0:0:0:
236,188,159805,1,2,0:3:0:0:
212,180,159977,2,0,P|196:128|204:60,1,100,8|0,0:2|0:0,0:0:0:0:
288,40,160667,5,4,0:3:0:0:
372,92,161012,1,0,0:0:0:0:
472,72,161357,2,0,P|488:164|484:184,1,100,8|0,0:2|0:0,0:0:0:0:
404,224,162046,2,0,P|388:316|392:336,1,100,4|0,0:3|0:0,0:0:0:0:
304,372,162736,1,8,0:2:0:0:
208,348,163081,1,0,0:0:0:0:
108,344,163426,6,0,P|72:292|120:160,1,200,4|8,0:0|0:2,0:0:0:0:
204,192,164460,1,0,0:0:0:0:
296,156,164805,2,0,P|320:120|328:72,2,75,4|2|2,0:3|0:2|0:3,0:0:0:0:
292,180,165494,2,0,P|302:215|323:246,2,75,8|2|2,0:2|0:2|0:3,0:0:0:0:
268,176,166184,6,0,P|196:168|168:140,1,100,4|0,0:3|0:0,0:0:0:0:
96,92,166874,2,0,P|48:120|16:160,1,100,8|0,0:2|0:0,0:0:0:0:
20,252,167563,1,4,0:3:0:0:
112,296,167908,1,0,0:0:0:0:
204,256,168253,2,0,P|276:256|308:264,1,100,8|0,0:2|0:0,0:0:0:0:
384,324,168943,6,0,P|432:280|448:244,1,100,4|8,0:0|0:0,0:0:0:0:
432,228,169460,1,2,0:3:0:0:
416,208,169632,2,0,L|424:100,1,100,8|8,0:2|0:0,0:0:0:0:
344,48,170322,2,0,P|272:52|232:72,1,100,4|8,0:3|0:0,0:0:0:0:
236,84,170839,1,2,0:3:0:0:
224,104,171012,2,0,L|116:96,1,100,8|8,0:2|0:0,0:0:0:0:
44,160,171701,5,4,0:3:0:0:
84,252,172046,1,8,0:0:0:0:
184,244,172391,2,0,P|240:228|292:232,1,100,8|8,0:2|0:0,0:0:0:0:
348,304,173081,2,0,P|396:316|452:304,2,100,4|8|8,0:3|0:0|0:2,0:0:0:0:
281,229,174115,1,8,0:0:0:0:
256,132,174460,6,0,P|296:88|344:68,1,100,4|8,0:0|0:0,0:0:0:0:
356,76,174977,1,2,0:3:0:0:
380,84,175150,2,0,L|448:80,2,50,4|0|8,0:3|0:0|0:0,0:0:0:0:
360,184,175839,6,0,P|320:228|272:248,1,100,4|8,0:0|0:0,0:0:0:0:
260,240,176356,1,2,0:3:0:0:
236,232,176529,2,0,L|168:236,2,50,4|0|8,0:3|0:0|0:0,0:0:0:0:
256,192,177219,12,4,178943,0:0:0:0:
427,268,179632,6,0,P|452:240|462:220,1,50,4|4,0:3|0:3,0:0:0:0:
496,196,179977,6,0,P|480:144|484:88,1,100,4|0,0:0|0:0,0:0:0:0:
460,88,180494,1,2,0:0:0:0:
436,80,180667,2,0,P|376:92|336:108,1,100,4|8,0:3|0:0,0:0:0:0:
316,96,181184,1,2,0:0:0:0:
292,100,181357,2,0,P|232:104|184:88,1,100,4|8,0:3|0:0,0:0:0:0:
96,96,182046,1,4,0:3:0:0:
44,180,182391,1,8,0:0:0:0:
108,260,182736,6,0,P|176:272|216:272,1,100,4|8,0:0|0:0,0:0:0:0:
228,260,183253,1,2,0:0:0:0:
252,248,183426,2,0,P|296:248|360:264,1,100,4|8,0:3|0:0,0:0:0:0:
376,260,183943,1,2,0:0:0:0:
400,256,184115,2,0,L|472:252,2,50,4|0|8,0:3|0:0|0:0,0:0:0:0:
360,164,184805,2,0,P|372:128|368:56,1,100,4|8,0:3|0:0,0:0:0:0:
280,24,185494,6,0,P|240:32|180:40,1,100,4|8,0:0|0:0,0:0:0:0:
156,40,186012,1,2,0:0:0:0:
132,40,186184,2,0,P|140:80|148:140,1,100,4|8,0:3|0:0,0:0:0:0:
132,160,186701,1,2,0:0:0:0:
116,176,186874,2,0,P|120:236|120:288,1,100,4|8,0:3|0:0,0:0:0:0:
184,352,187563,1,4,0:3:0:0:
276,316,187908,1,8,0:0:0:0:
364,362,188253,6,0,P|421:354|463:340,1,100,4|8,0:0|0:0,0:0:0:0:
435,243,188943,2,0,L|447:139,1,100,4|8,0:3|0:0,0:0:0:0:
427,127,189460,1,2,0:0:0:0:
407,115,189632,2,0,P|415:67|371:19,1,100,4|8,0:3|0:0,0:0:0:0:
363,35,190150,1,2,0:0:0:0:
343,47,190322,2,0,P|331:83|327:103,2,50,4|0|8,0:3|0:0|0:0,0:0:0:0:
248,12,191012,6,0,P|208:24|168:72,1,100,4|8,0:0|0:0,0:0:0:0:
144,72,191529,1,2,0:0:0:0:
120,80,191701,2,0,L|128:188,1,100,4|8,0:3|0:0,0:0:0:0:
108,196,192219,1,2,0:0:0:0:
88,208,192391,2,0,P|92:280|112:320,1,100,4|8,0:3|0:0,0:0:0:0:
192,352,193081,1,4,0:3:0:0:
276,300,193426,1,8,0:0:0:0:
280,200,193770,6,0,P|276:136|260:84,2,100,4|8|4,0:0|0:0|0:3,0:0:0:0:
304,208,194632,1,0,0:0:0:0:
328,216,194805,2,0,L|388:212,1,50,8|2,0:0|0:0,0:0:0:0:
400,224,195150,2,0,P|428:180|428:116,1,100,4|8,0:3|0:0,0:0:0:0:
412,120,195667,1,2,0:0:0:0:
392,108,195839,2,0,L|284:104,1,100,4|8,0:3|0:0,0:0:0:0:
204,56,196529,6,0,P|144:68|112:108,1,100,4|8,0:0|0:0,0:0:0:0:
100,112,197046,1,2,0:0:0:0:
80,128,197219,2,0,L|96:240,1,100,4|8,0:3|0:0,0:0:0:0:
84,248,197736,1,2,0:0:0:0:
76,272,197908,2,0,L|20:272,2,50,4|0|8,0:3|0:0|0:0,0:0:0:0:
140,352,198598,1,4,0:3:0:0:
240,336,198943,1,8,0:0:0:0:
296,252,199288,6,0,P|312:212|308:140,1,100,4|8,0:0|0:0,0:0:0:0:
296,136,199805,1,2,0:0:0:0:
272,128,199977,2,0,L|208:144,2,50,4|2|8,0:3|0:0|0:0,0:0:0:0:
308,34,200667,2,0,P|364:34|408:61,1,100,4|8,0:3|0:0,0:0:0:0:
444,152,201357,1,4,0:3:0:0:
444,152,201529,2,0,L|456:208,2,50,0|8|8,0:0|0:0|0:0,0:0:0:0:
420,152,202046,6,0,P|360:156|316:192,1,100,4|8,0:0|0:0,0:0:0:0:
320,200,202563,1,2,0:0:0:0:
312,224,202736,2,0,P|320:264|348:304,3,75,4|8|2|8,0:3|0:0|0:0|0:0,0:0:0:0:
276,336,203770,2,0,P|232:332|196:324,2,75,2|8|2,0:0|0:0|0:0,0:0:0:0:
296,352,204460,2,0,B|344:360|344:360|404:344,1,100,8|4,0:0|0:0,0:0:0:0:
464,272,205150,6,0,P|468:224|440:164,1,100,8|4,0:0|0:3,0:0:0:0:
348,172,205839,2,0,P|344:124|372:64,2,100,8|0|10,0:0|0:0|0:0,0:0:0:0:
324,180,206701,2,0,L|208:176,1,100,0|2,0:0|0:0,0:0:0:0:
204,164,207219,1,8,0:0:0:0:
108,188,207563,6,0,P|88:232|92:284,1,100,4|8,0:0|0:0,0:0:0:0:
112,300,208081,1,2,0:0:0:0:
132,312,208253,2,0,P|184:304|220:300,3,75,4|8|2|8,0:3|0:0|0:0|0:0,0:0:0:0:
276,276,209288,2,0,P|296:308|304:352,2,75,2|8|2,0:0|0:0|0:0,0:0:0:0:
264,256,209977,1,8,0:0:0:0:
212,172,210322,6,0,P|272:164|328:168,1,100,4|8,0:0|0:0,0:0:0:0:
332,180,210839,1,2,0:0:0:0:
424,142,211184,1,0,0:0:0:0:
424,142,211357,1,8,0:0:0:0:
347,78,211701,2,0,P|327:58|247:42,1,100,4|8,0:3|0:0,0:0:0:0:
238,54,212219,1,2,0:0:0:0:
138,51,212563,1,2,0:0:0:0:
138,51,212736,2,0,P|118:83|114:103,1,50,8|0,0:0|0:0,0:0:0:0:
94,111,213081,6,0,P|70:163|62:219,1,100,4|8,0:0|0:0,0:0:0:0:
78,223,213598,1,0,0:0:0:0:
94,243,213770,2,0,L|82:331,3,75,4|8|2|8,0:3|0:0|0:0|0:0,0:0:0:0:
148,356,214805,2,0,P|192:348|220:336,2,75,2|8|2,0:0|0:0|0:0,0:0:0:0:
128,344,215494,1,8,0:0:0:0:
176,256,215839,6,0,P|196:216|208:144,1,100,4|8,0:0|0:0,0:0:0:0:
204,60,216529,2,0,P|260:40|316:40,1,100,4|8,0:3|0:0,0:0:0:0:
360,120,217219,2,0,P|428:116|468:100,2,100,4|10|0,0:3|0:0|0:0,0:0:0:0:
336,128,218081,1,2,0:0:0:0:
312,140,218253,2,0,B|304:188|304:188|328:244,1,100,8|4,0:0|0:0,0:0:0:0:
356,332,218943,5,8,0:0:0:0:
256,340,219288,2,0,P|212:352|164:356,3,75,4|8|2|8,0:3|0:0|0:0|0:0,0:0:0:0:
128,304,220322,2,0,P|104:336|84:380,2,75,2|8|2,0:0|0:0|0:0,0:0:0:0:
148,292,221012,2,0,B|164:244|164:244|148:180,1,100,8|4,0:0|0:0,0:0:0:0:
92,116,221701,6,0,P|124:88|200:72,1,100,8|4,0:0|0:3,0:0:0:0:
200,80,222219,1,0,0:0:0:0:
220,96,222391,2,0,P|292:96|336:84,1,100,8|4,0:0|0:3,0:0:0:0:
412,56,223081,1,8,0:0:0:0:
412,56,223253,2,0,L|420:160,1,100,2|2,0:0|0:0,0:0:0:0:
408,176,223770,1,8,0:0:0:0:
352,260,224115,6,0,P|312:260|240:280,1,100,4|8,0:0|0:0,0:0:0:0:
236,292,224632,2,0,P|172:300|128:296,1,100,2|2,0:0|0:0,0:0:0:0:
112,300,225150,2,0,P|112:248|112:232,1,50,8|2,0:0|0:0,0:0:0:0:
92,236,225494,1,4,0:3:0:0:
48,144,225839,1,8,0:0:0:0:
48,144,226012,2,0,P|104:132|160:132,1,100,2|2,0:0|0:0,0:0:0:0:
168,140,226529,2,0,P|208:136|232:128,1,50,8|2,0:0|0:0,0:0:0:0:
232,112,226874,5,4,0:0:0:0:
325,147,227219,1,8,0:0:0:0:
325,147,227391,2,0,P|393:155|429:147,1,100,2|2,0:0|0:0,0:0:0:0:
445,135,227908,2,0,P|445:87|441:67,1,50,8|2,0:0|0:0,0:0:0:0:
425,67,228253,2,0,P|389:47|321:43,1,100,4|8,0:3|0:0,0:0:0:0:
309,51,228770,1,2,0:0:0:0:
212,25,229115,1,2,0:0:0:0:
212,25,229288,2,0,P|216:57|216:81,1,50,8|2,0:0|0:0,0:0:0:0:
216,100,229632,6,0,P|204:148|200:200,1,100,4|8,0:0|0:0,0:0:0:0:
216,220,230150,2,0,P|224:284|224:332,1,100,2|2,0:0|0:0,0:0:0:0:
208,336,230667,1,8,0:0:0:0:
108,352,231012,2,0,P|80:316|76:256,1,100,4|8,0:3|0:0,0:0:0:0:
88,244,231529,2,0,P|96:192|96:140,1,100,2|2,0:0|0:0,0:0:0:0:
76,128,232046,2,0,P|80:92|92:68,1,50,8|2,0:0|0:0,0:0:0:0:
92,56,232391,6,0,P|136:36|204:44,1,100,4|8,0:0|0:0,0:0:0:0:
204,56,232908,1,2,0:0:0:0:
304,44,233253,1,2,0:0:0:0:
304,44,233426,2,0,L|368:48,1,50,8|2,0:0|0:0,0:0:0:0:
376,40,233770,2,0,P|412:64|440:120,1,100,4|8,0:3|0:0,0:0:0:0:
432,136,234288,2,0,P|424:172|424:244,1,100,2|2,0:0|0:0,0:0:0:0:
408,256,234805,1,8,0:0:0:0:
312,236,235150,6,0,P|300:288|304:328,2,75,4|8|2,0:0|0:0|0:0,0:0:0:0:
280,140,236012,1,2,0:0:0:0:
280,140,236184,2,0,L|216:148,1,50,8|2,0:0|0:0,0:0:0:0:
204,140,236529,2,0,P|168:128|136:88,2,75,4|8|2,0:3|0:0|0:0,0:0:0:0:
176,236,237391,1,2,0:0:0:0:
176,236,237563,2,0,P|168:288|168:304,1,50,8|2,0:0|0:0,0:0:0:0:
180,308,237908,6,0,P|240:344|280:340,1,100,4|8,0:0|0:0,0:0:0:0:
288,328,238426,2,0,P|332:304|392:292,1,100,2|2,0:0|0:0,0:0:0:0:
404,304,238943,2,0,L|464:312,1,50,8|2,0:0|0:0,0:0:0:0:
476,296,239288,1,4,0:3:0:0:
452,200,239632,1,8,0:0:0:0:
452,200,239805,2,0,P|432:148|432:92,1,100,2|2,0:0|0:0,0:0:0:0:
408,92,240322,1,8,0:0:0:0:
308,80,240667,6,0,P|316:36|312:-4,2,75,4|8|2,0:0|0:0|0:0,0:0:0:0:
244,160,241529,1,2,0:0:0:0:
244,160,241701,2,0,L|176:152,1,50,8|2,0:0|0:0,0:0:0:0:
168,152,242046,2,0,P|166:189|174:226,2,75,4|8|2,0:3|0:0|0:0,0:0:0:0:
96,80,242908,1,2,0:0:0:0:
96,80,243081,2,0,L|40:80,1,50,8|2,0:0|0:0,0:0:0:0:
20,76,243426,6,0,P|36:144|36:184,1,100,4|8,0:0|0:0,0:0:0:0:
24,196,243943,2,0,P|24:252|36:304,1,100,2|2,0:0|0:0,0:0:0:0:
56,308,244460,1,8,0:0:0:0:
148,264,244805,2,0,P|212:264|256:288,1,100,4|8,0:0|0:0,0:0:0:0:
256,300,245322,2,0,P|320:312|352:304,1,100,2|2,0:0|0:0,0:0:0:0:
368,284,245839,2,0,B|416:272|416:272|468:284,1,100,8|4,0:0|0:0,0:0:0:0:
