osu file format v14

[General]
AudioFilename: audio.mp3
AudioLeadIn: 0
PreviewTime: 69201
Countdown: 0
SampleSet: Soft
StackLeniency: 0.7
Mode: 0
LetterboxInBreaks: 0
WidescreenStoryboard: 1

[Editor]
Bookmarks: 157908,163426
DistanceSpacing: 0.6
BeatDivisor: 4
GridSize: 4
TimelineZoom: 1.9

[Metadata]
Title:Invasion
TitleUnicode:Invasion
Artist:Andromedik
ArtistUnicode:Andromedik
Creator:Mirash
Version:Collab Extra
Source:
Tags:noffy delis neilperry toybot High Tea Music mappers' guild featured artist
BeatmapID:1656911
BeatmapSetID:789544

[Difficulty]
HPDrainRate:7
CircleSize:4
OverallDifficulty:8
ApproachRate:9.2
SliderMultiplier:1.9
SliderTickRate:1

[Events]
//Background and Video events
0,0,"invasion.jpg",0,0
//Break Periods
2,136039,151821
//Storyboard Layer 0 (Background)
//Storyboard Layer 1 (Fail)
//Storyboard Layer 2 (Pass)
//Storyboard Layer 3 (Foreground)
//Storyboard Sound Samples

[TimingPoints]
3426,344.827586206897,4,1,1,70,1,0
14460,-100,4,2,1,40,0,0
22736,-100,4,2,1,48,0,0
24115,-100,4,2,1,55,0,0
25494,-133.333333333333,4,2,1,65,0,0
47563,-133.333333333333,4,1,1,50,0,0
48943,-133.333333333333,4,1,1,55,0,0
50322,-133.333333333333,4,1,1,60,0,0
51701,-133.333333333333,4,1,1,65,0,0
53081,-133.333333333333,4,1,1,60,0,0
54460,-133.333333333333,4,1,1,55,0,0
55839,-133.333333333333,4,1,1,50,0,0
57219,-133.333333333333,4,1,1,45,0,0
58598,-133.333333333333,4,1,1,50,0,0
60667,-133.333333333333,4,1,1,45,0,0
62736,-133.333333333333,4,1,1,50,0,0
63426,-133.333333333333,4,1,1,55,0,0
64115,-133.333333333333,4,1,1,50,0,0
65494,-133.333333333333,4,1,1,55,0,0
66874,-133.333333333333,4,1,1,60,0,0
67563,-133.333333333333,4,1,1,65,0,0
69288,-100,4,1,1,55,0,0
69632,-100,4,1,1,60,0,0
113770,-83.3333333333333,4,1,1,65,0,1
114288,-83.3333333333333,4,1,0,65,0,1
114632,-83.3333333333333,4,1,1,65,0,1
115667,-83.3333333333333,4,1,0,65,0,1
116012,-83.3333333333333,4,1,1,65,0,1
119805,-83.3333333333333,4,1,0,65,0,1
120150,-83.3333333333333,4,1,1,65,0,1
121184,-83.3333333333333,4,1,0,65,0,1
121529,-83.3333333333333,4,1,1,65,0,1
125322,-83.3333333333333,4,1,0,65,0,1
125667,-83.3333333333333,4,1,1,65,0,1
126701,-83.3333333333333,4,1,0,65,0,1
127046,-83.3333333333333,4,1,1,65,0,1
130839,-83.3333333333333,4,1,0,65,0,1
131184,-83.3333333333333,4,1,1,65,0,1
132219,-83.3333333333333,4,1,0,65,0,1
132563,-83.3333333333333,4,1,1,65,0,1
135839,-100,4,1,1,40,0,0
157908,-100,4,1,1,50,0,0
158167,-133.333333333333,4,1,1,50,0,0
163426,-133.333333333333,4,1,1,55,0,0
174460,-133.333333333333,4,1,1,60,0,0
177908,-133.333333333333,4,1,1,65,0,0
178598,-100,4,1,1,70,0,0
179632,-250,4,1,1,70,0,0
179977,-58.8235294117647,4,1,1,70,0,0
224115,-52.6315789473684,4,1,1,75,0,1
224632,-52.6315789473684,4,1,0,75,0,1
224805,-52.6315789473684,4,1,1,75,0,1
224977,-52.6315789473684,4,1,0,75,0,1
225150,-52.6315789473684,4,1,1,75,0,1
225322,-52.6315789473684,4,1,0,75,0,1
225494,-52.6315789473684,4,1,1,75,0,1
226012,-52.6315789473684,4,1,0,75,0,1
226184,-52.6315789473684,4,1,1,75,0,1
226357,-52.6315789473684,4,1,0,75,0,1
226529,-52.6315789473684,4,1,1,75,0,1
226701,-52.6315789473684,4,1,0,75,0,1
226788,-52.6315789473684,4,1,1,75,0,1
227391,-52.6315789473684,4,1,0,75,0,1
227563,-52.6315789473684,4,1,1,75,0,1
227736,-52.6315789473684,4,1,0,75,0,1
227908,-52.6315789473684,4,1,1,75,0,1
228081,-52.6315789473684,4,1,0,75,0,1
228253,-52.6315789473684,4,1,1,75,0,1
228770,-52.6315789473684,4,1,0,75,0,1
228943,-52.6315789473684,4,1,1,75,0,1
229115,-52.6315789473684,4,1,0,75,0,1
229288,-52.6315789473684,4,1,1,75,0,1
229460,-52.6315789473684,4,1,0,75,0,1
229546,-52.6315789473684,4,1,1,75,0,1
230150,-52.6315789473684,4,1,0,75,0,1
230322,-52.6315789473684,4,1,1,75,0,1
230494,-52.6315789473684,4,1,0,75,0,1
230667,-52.6315789473684,4,1,1,75,0,1
230839,-52.6315789473684,4,1,0,75,0,1
231012,-52.6315789473684,4,1,1,75,0,1
231529,-52.6315789473684,4,1,0,75,0,1
231701,-52.6315789473684,4,1,1,75,0,1
231874,-52.6315789473684,4,1,0,75,0,1
232046,-52.6315789473684,4,1,1,75,0,1
232219,-52.6315789473684,4,1,0,75,0,1
232305,-52.6315789473684,4,1,1,75,0,1
232908,-52.6315789473684,4,1,0,75,0,1
233081,-52.6315789473684,4,1,1,75,0,1
233253,-52.6315789473684,4,1,0,75,0,1
233426,-52.6315789473684,4,1,1,75,0,1
233598,-52.6315789473684,4,1,0,75,0,1
233770,-52.6315789473684,4,1,1,75,0,1
234288,-52.6315789473684,4,1,0,75,0,1
234546,-52.6315789473684,4,1,1,75,0,1
235667,-52.6315789473684,4,1,0,75,0,1
235926,-52.6315789473684,4,1,1,75,0,1
236012,-52.6315789473684,4,1,0,75,0,1
236184,-52.6315789473684,4,1,1,75,0,1
236357,-52.6315789473684,4,1,0,75,0,1
236529,-52.6315789473684,4,1,1,75,0,1
237046,-52.6315789473684,4,1,0,75,0,1
237305,-52.6315789473684,4,1,1,75,0,1
237391,-52.6315789473684,4,1,0,75,0,1
237563,-52.6315789473684,4,1,1,75,0,1
237736,-52.6315789473684,4,1,0,75,0,1
237908,-52.6315789473684,4,1,1,75,0,1
238426,-52.6315789473684,4,1,0,75,0,1
238512,-52.6315789473684,4,1,1,75,0,1
238770,-52.6315789473684,4,1,0,75,0,1
238943,-52.6315789473684,4,1,1,75,0,1
239115,-52.6315789473684,4,1,0,75,0,1
239288,-52.6315789473684,4,1,1,75,0,1
239805,-52.6315789473684,4,1,0,75,0,1
239891,-52.6315789473684,4,1,1,75,0,1
240063,-52.6315789473684,4,1,1,75,0,1
240150,-52.6315789473684,4,1,0,75,0,1
240322,-52.6315789473684,4,1,1,75,0,1
240494,-52.6315789473684,4,1,0,75,0,1
240667,-52.6315789473684,4,1,1,75,0,1
241184,-52.6315789473684,4,1,0,75,0,1
241443,-52.6315789473684,4,1,1,75,0,1
241529,-52.6315789473684,4,1,0,75,0,1
241701,-52.6315789473684,4,1,1,75,0,1
241874,-52.6315789473684,4,1,0,75,0,1
242046,-52.6315789473684,4,1,1,75,0,1
242563,-52.6315789473684,4,1,0,75,0,1
242736,-52.6315789473684,4,1,1,75,0,1
242908,-52.6315789473684,4,1,0,75,0,1
242994,-52.6315789473684,4,1,1,75,0,1
243253,-52.6315789473684,4,1,0,75,0,1
243426,-52.6315789473684,4,1,1,75,0,1
243943,-52.6315789473684,4,1,0,75,0,1
244201,-52.6315789473684,4,1,1,75,0,1
244288,-52.6315789473684,4,1,0,75,0,1
244374,-52.6315789473684,4,1,1,75,0,1
244632,-52.6315789473684,4,1,0,75,0,1
244805,-52.6315789473684,4,1,1,75,0,1
245322,-52.6315789473684,4,1,0,75,0,1
245408,-52.6315789473684,4,1,1,75,0,1
245494,-52.6315789473684,4,1,1,75,0,1
246184,-100,4,1,1,45,0,0

[Colours]
Combo1 : 175,143,97
Combo2 : 184,181,167
Combo3 : 185,157,182
Combo4 : 138,172,148

[HitObjects]
414,233,14460,5,4,1:3:0:0:
403,119,14719,1,0,0:0:0:0:
336,224,14977,1,0,0:0:0:0:
327,148,15150,1,2,0:3:0:0:
414,233,15408,5,0,0:0:0:0:
403,119,15667,1,0,0:0:0:0:
336,224,15839,1,2,0:3:0:0:
327,148,16098,1,0,0:0:0:0:
414,233,16357,5,0,0:0:0:0:
403,119,16529,1,2,0:3:0:0:
336,224,16788,1,0,0:0:0:0:
327,148,17046,1,0,0:0:0:0:
152,246,17219,5,4,1:3:0:0:
163,360,17478,1,0,0:0:0:0:
230,255,17736,1,0,0:0:0:0:
239,331,17909,1,2,0:3:0:0:
152,246,18167,5,0,0:0:0:0:
163,360,18426,1,0,0:0:0:0:
230,255,18598,1,2,0:3:0:0:
239,331,18857,1,0,0:0:0:0:
152,246,19116,5,0,0:0:0:0:
163,360,19288,1,2,0:3:0:0:
230,255,19547,1,0,0:0:0:0:
239,331,19805,1,0,0:0:0:0:
67,133,19977,5,4,1:3:0:0:
119,65,20236,1,0,0:0:0:0:
202,80,20494,1,0,0:0:0:0:
202,80,20667,1,2,0:3:0:0:
150,147,20925,5,0,0:0:0:0:
67,133,21184,1,0,0:0:0:0:
67,133,21356,1,2,0:3:0:0:
119,65,21615,1,0,0:0:0:0:
202,80,21874,5,0,0:0:0:0:
202,80,22046,1,2,0:3:0:0:
153,150,22305,1,0,0:0:0:0:
67,133,22563,1,0,0:0:0:0:
229,215,22736,5,4,0:3:0:0:
246,210,22822,1,8,0:3:0:0:
311,172,22994,1,8,0:3:0:0:
330,177,23081,1,4,0:3:0:0:
382,243,23253,1,4,0:3:0:0:
458,218,23426,1,4,0:3:0:0:
416,340,23598,5,8,0:3:0:0:
428,329,23684,1,4,0:3:0:0:
320,319,23856,1,4,0:3:0:0:
328,339,23943,1,8,0:3:0:0:
217,357,24115,5,4,1:0:0:0:
199,350,24201,1,8,3:0:0:0:
131,283,24374,1,8,0:3:0:0:
112,289,24460,1,4,0:3:0:0:
46,370,24632,1,4,0:3:0:0:
20,273,24805,5,4,1:0:0:0:
30,254,24891,1,8,0:3:0:0:
7,154,25063,1,8,0:3:0:0:
2,137,25150,1,4,0:3:0:0:
83,77,25322,1,4,0:3:0:0:
88,58,25408,1,8,0:3:0:0:
94,40,25494,2,0,P|163:59|191:121,1,142.500005435944,4|0,1:0|0:0,0:0:0:0:
250,221,26012,5,2,0:3:0:0:
330,238,26184,2,0,P|328:191|329:159,1,71.2500027179719,8|0,0:0|0:0,0:0:0:0:
435,118,26529,1,2,0:3:0:0:
435,118,26874,5,0,0:0:0:0:
490,189,27046,1,0,0:0:0:0:
490,189,27391,1,2,0:3:0:0:
490,189,27736,1,0,0:0:0:0:
435,118,27908,1,2,0:3:0:0:
442,125,28770,5,2,0:3:0:0:
442,125,29115,1,0,0:0:0:0:
497,196,29287,1,2,0:3:0:0:
239,14,29632,6,0,P|251:93|253:170,1,142.500005435944,4|0,0:1|0:0,0:0:0:0:
226,229,30150,1,2,0:3:0:0:
298,367,30322,2,0,P|302:312|304:208,1,142.500005435944,4|2,0:1|0:3,0:0:0:0:
435,65,31012,2,0,P|366:84|338:146,1,142.500005435944,4|0,1:0|0:0,0:0:0:0:
260,169,31530,5,2,0:3:0:0:
182,238,31701,2,0,P|184:191|183:159,1,71.2500027179719,8|0,0:0|0:0,0:0:0:0:
77,118,32047,1,2,0:3:0:0:
77,118,32392,5,0,0:0:0:0:
22,189,32564,1,2,0:3:0:0:
22,189,32909,1,2,0:3:0:0:
22,189,33254,1,0,0:0:0:0:
79,120,33426,1,2,0:3:0:0:
86,127,34288,1,2,0:3:0:0:
86,127,34633,1,0,0:0:0:0:
31,198,34805,1,2,0:3:0:0:
273,14,35150,6,0,P|261:93|259:170,1,142.500005435944,4|0,0:1|0:0,0:0:0:0:
286,229,35668,1,2,0:3:0:0:
214,367,35840,2,0,P|210:312|208:208,1,142.500005435944,4|2,0:1|0:3,0:0:0:0:
83,102,36529,6,0,L|162:114,1,71.2500027179719,4|0,1:0|0:0,0:0:0:0:
228,68,36874,2,0,L|307:80,1,71.2500027179719,0|2,0:0|0:3,0:0:0:0:
379,44,37219,2,0,P|424:57|428:162,1,142.500005435944,8|2,0:0|0:3,0:0:0:0:
443,141,37908,5,0,0:0:0:0:
367,185,38081,1,2,0:3:0:0:
367,185,38426,1,2,0:3:0:0:
367,185,38770,1,0,0:0:0:0:
453,152,38943,1,2,0:3:0:0:
460,159,39805,1,2,0:3:0:0:
460,159,40150,1,0,0:0:0:0:
381,199,40322,1,2,0:3:0:0:
314,112,40667,6,0,P|260:116|218:215,1,142.500005435944,4|0,0:1|0:0,0:0:0:0:
260,254,41184,1,2,0:3:0:0:
166,326,41357,2,0,L|182:247,1,71.2500027179719,4|0,0:1|0:0,0:0:0:0:
93,267,41701,2,0,L|109:188,1,71.2500027179719,2|0,0:3|0:0,0:0:0:0:
61,32,42046,2,0,L|30:186,1,142.500005435944,4|0,1:0|0:0,0:0:0:0:
160,73,42563,5,2,0:3:0:0:
231,40,42736,2,0,P|246:81|266:116,1,71.2500027179719,8|0,0:0|0:0,0:0:0:0:
326,190,43081,2,0,P|337:121|337:43,1,142.500005435944,2|0,0:3|0:0,0:0:0:0:
413,23,43598,5,2,0:3:0:0:
413,23,43943,1,2,0:3:0:0:
413,23,44288,1,0,0:0:0:0:
497,121,44460,1,2,0:3:0:0:
508,132,44977,1,2,0:3:0:0:
508,132,45322,1,2,0:3:0:0:
508,132,45667,1,0,0:0:0:0:
465,253,45839,1,2,0:3:0:0:
253,355,46184,6,0,L|262:274,1,71.2500027179719,4|0,0:1|0:0,0:0:0:0:
265,204,46529,2,0,L|256:123,1,71.2500027179719,2|0,0:3|0:0,0:0:0:0:
79,137,46874,2,0,P|134:150|163:236,1,142.500005435944,4|2,0:1|0:3,0:0:0:0:
508,193,47563,5,4,0:0:0:0:
439,224,47822,1,2,0:2:0:0:
370,194,48081,1,2,0:3:0:0:
355,186,48253,5,8,0:2:0:0:
424,217,48512,1,2,0:2:0:0:
493,187,48771,1,2,0:3:0:0:
478,181,48942,5,4,0:3:0:0:
409,211,49201,1,2,0:2:0:0:
340,180,49460,1,2,0:3:0:0:
325,174,49632,5,8,0:2:0:0:
394,205,49891,1,2,0:2:0:0:
463,175,50150,1,2,0:3:0:0:
448,169,50321,5,4,0:0:0:0:
379,199,50580,1,2,0:2:0:0:
310,168,50839,1,2,0:3:0:0:
295,162,51011,5,8,0:2:0:0:
364,193,51270,1,2,0:2:0:0:
433,163,51529,1,2,0:3:0:0:
418,157,51701,5,4,0:3:0:0:
349,187,51960,1,2,0:2:0:0:
280,156,52219,1,2,0:3:0:0:
265,150,52390,5,8,0:2:0:0:
334,181,52649,1,2,0:2:0:0:
403,151,52908,1,2,0:3:0:0:
119,289,53081,5,4,0:0:0:0:
87,185,53339,1,2,0:2:0:0:
141,258,53598,1,2,0:3:0:0:
236,254,53770,5,8,0:2:0:0:
307,277,54029,1,2,0:2:0:0:
377,301,54288,1,2,0:3:0:0:
365,219,54460,5,4,0:3:0:0:
397,115,54718,1,2,0:2:0:0:
343,188,54977,1,2,0:3:0:0:
248,184,55149,5,8,0:2:0:0:
177,207,55408,1,2,0:2:0:0:
107,231,55667,1,2,0:3:0:0:
121,153,55839,5,4,0:0:0:0:
89,49,56097,1,2,0:2:0:0:
143,122,56356,1,2,0:3:0:0:
238,118,56528,5,8,0:2:0:0:
309,141,56787,1,2,0:2:0:0:
379,165,57046,1,2,0:3:0:0:
441,95,57219,5,4,0:3:0:0:
441,95,57477,1,2,0:2:0:0:
441,95,57736,1,2,0:3:0:0:
316,76,57908,5,8,0:2:0:0:
316,76,58166,1,2,0:2:0:0:
316,76,58425,1,2,0:3:0:0:
246,215,58598,6,0,P|210:222|173:238,1,71.2500027179719,4|2,0:0|0:3,0:0:0:0:
178,235,58857,2,0,P|185:271|201:308,1,71.2500027179719,8|0,0:0|0:0,0:0:0:0:
198,302,59115,1,8,0:0:0:0:
282,144,59288,6,0,P|318:151|355:167,1,71.2500027179719,4|2,0:0|0:3,0:0:0:0:
350,164,59547,2,0,P|343:200|327:237,1,71.2500027179719,8|0,0:0|0:0,0:0:0:0:
329,231,59805,1,8,0:0:0:0:
247,74,59977,6,0,P|211:81|174:97,1,71.2500027179719,4|2,0:0|0:3,0:0:0:0:
179,94,60236,2,0,P|186:130|202:167,1,71.2500027179719,8|0,0:0|0:0,0:0:0:0:
200,161,60494,1,8,0:0:0:0:
328,318,60667,5,4,0:0:0:0:
337,309,60753,1,8,0:0:0:0:
254,274,60926,1,8,0:0:0:0:
257,286,61012,1,4,0:3:0:0:
329,231,61184,1,8,0:0:0:0:
184,224,61357,5,4,0:0:0:0:
175,215,61443,1,8,0:0:0:0:
258,180,61616,1,8,0:0:0:0:
255,192,61702,1,4,0:3:0:0:
183,137,61874,1,8,0:0:0:0:
335,126,62046,5,4,0:0:0:0:
344,117,62132,1,8,0:0:0:0:
261,82,62305,1,8,0:0:0:0:
264,94,62391,1,4,0:3:0:0:
336,39,62563,1,8,0:0:0:0:
78,49,62736,6,0,P|89:110|85:176,1,106.875004076958,4|0,0:0|0:0,0:0:0:0:
68,170,63081,1,8,0:0:0:0:
71,251,63253,1,8,0:0:0:0:
182,365,63426,2,0,P|193:304|189:238,1,106.875004076958,4|0,0:0|0:0,0:0:0:0:
169,244,63770,1,8,0:0:0:0:
169,164,63943,1,8,0:0:0:0:
254,11,64115,5,4,0:3:0:0:
254,11,64288,1,4,0:3:0:0:
253,88,64460,1,4,0:3:0:0:
250,164,64632,1,4,0:3:0:0:
254,11,64805,5,4,0:3:0:0:
254,11,64978,1,4,0:3:0:0:
264,153,65150,1,4,0:3:0:0:
267,229,65322,1,4,0:3:0:0:
254,11,65494,5,4,0:3:0:0:
254,11,65667,1,4,0:3:0:0:
251,219,65839,1,4,0:3:0:0:
248,297,66011,1,4,0:3:0:0:
254,11,66184,5,4,0:3:0:0:
254,11,66357,1,4,0:3:0:0:
257,375,66529,1,4,0:3:0:0:
257,375,66702,1,4,0:3:0:0:
273,141,66874,5,4,0:3:0:0:
247,128,66960,1,4,0:3:0:0:
219,122,67046,1,4,0:3:0:0:
191,126,67132,1,4,0:3:0:0:
166,141,67219,1,8,0:0:0:0:
146,161,67305,1,4,0:3:0:0:
121,175,67391,1,4,0:3:0:0:
93,181,67477,1,4,0:3:0:0:
48,161,67563,5,4,0:3:0:0:
57,188,67650,1,4,0:3:0:0:
60,216,67736,1,4,0:3:0:0:
62,244,67822,1,4,0:3:0:0:
62,272,67908,1,8,0:0:0:0:
59,300,67994,1,4,0:3:0:0:
54,328,68081,1,4,0:3:0:0:
48,355,68167,1,4,0:3:0:0:
15,338,68253,5,4,0:3:0:0:
47,310,68339,1,4,0:3:0:0:
85,290,68426,1,4,0:3:0:0:
127,283,68512,1,4,0:3:0:0:
168,293,68598,1,8,0:0:0:0:
203,316,68684,1,4,0:3:0:0:
238,340,68770,1,4,0:3:0:0:
278,353,68857,1,4,0:3:0:0:
320,356,68943,1,4,0:3:0:0:
362,354,69029,1,4,0:3:0:0:
404,348,69115,1,4,0:3:0:0:
443,333,69201,1,4,0:3:0:0:
481,312,69288,2,0,P|482:250|490:199,1,95,8|8,0:0|0:0,0:0:0:0:
209,217,69632,6,0,P|210:147|209:101,1,95,4|0,0:0|0:0,0:0:0:0:
192,106,69891,1,8,0:0:0:0:
173,92,69977,1,8,0:0:0:0:
276,39,70150,1,2,0:0:0:0:
366,28,70322,2,0,P|357:86|354:130,1,95,2|0,0:0|0:0,0:0:0:0:
354,122,70581,1,8,0:0:0:0:
354,122,70667,2,0,L|464:136,1,95,10|2,0:0|0:0,0:0:0:0:
289,232,71012,5,2,0:0:0:0:
289,232,71098,1,8,0:0:0:0:
205,269,71270,1,8,0:0:0:0:
205,269,71356,1,2,0:0:0:0:
280,323,71529,1,2,0:0:0:0:
280,323,71615,1,8,0:0:0:0:
196,360,71788,1,8,0:0:0:0:
196,360,71874,1,2,0:0:0:0:
73,354,72046,5,8,0:0:0:0:
76,330,72132,1,4,0:3:0:0:
79,306,72219,1,2,0:0:0:0:
82,282,72305,1,2,0:0:0:0:
87,258,72391,2,0,P|92:170|90:136,1,95,4|0,0:3|0:0,0:0:0:0:
70,152,72650,1,8,0:0:0:0:
47,145,72736,2,0,P|42:57|44:23,1,95,8|2,0:0|0:0,0:0:0:0:
125,36,73081,1,2,0:0:0:0:
146,25,73167,1,8,0:0:0:0:
213,74,73339,1,8,0:0:0:0:
236,79,73426,1,2,0:0:0:0:
353,42,73598,6,0,P|400:48|452:57,1,95,8|0,0:0|0:0,0:0:0:0:
446,56,73857,2,0,P|440:103|431:155,1,95,2|0,0:0|0:0,0:0:0:0:
361,173,74115,2,0,P|314:179|262:188,1,95,8|0,0:0|0:0,0:0:0:0:
268,187,74374,2,0,P|274:234|283:286,1,95,2|0,0:0|0:0,0:0:0:0:
354,304,74632,1,8,0:0:0:0:
373,171,74805,5,8,0:0:0:0:
397,176,74891,1,4,0:3:0:0:
421,181,74977,1,2,0:0:0:0:
444,186,75063,1,2,0:0:0:0:
468,192,75150,2,0,P|468:138|473:81,1,95,4|0,0:3|0:0,0:0:0:0:
457,77,75408,1,8,0:0:0:0:
438,62,75494,2,0,P|384:62|327:57,1,95,8|2,0:0|0:0,0:0:0:0:
240,105,75839,5,2,0:0:0:0:
218,115,75926,1,8,0:0:0:0:
179,3,76097,1,8,0:0:0:0:
200,17,76184,1,2,0:0:0:0:
117,106,76356,1,2,0:0:0:0:
119,81,76443,1,8,0:0:0:0:
44,136,76615,5,8,0:0:0:0:
44,136,76701,1,2,0:0:0:0:
55,214,76874,1,2,0:0:0:0:
55,214,76960,1,8,0:0:0:0:
66,292,77133,1,8,0:0:0:0:
66,292,77219,1,2,0:0:0:0:
77,370,77391,1,2,0:0:0:0:
374,353,77563,5,8,0:0:0:0:
351,348,77650,1,4,0:3:0:0:
328,343,77736,1,2,0:0:0:0:
305,338,77822,1,2,0:0:0:0:
282,332,77908,2,0,P|218:336|154:344,1,95,4|0,0:3|0:0,0:0:0:0:
166,327,78167,1,8,0:0:0:0:
144,316,78253,2,0,P|140:252|132:188,1,95,8|2,0:0|0:0,0:0:0:0:
175,86,78598,5,2,0:0:0:0:
189,105,78684,1,8,0:0:0:0:
58,145,78857,1,8,0:0:0:0:
67,123,78943,1,2,0:0:0:0:
187,80,79115,1,2,0:0:0:0:
201,105,79201,1,8,0:0:0:0:
43,142,79374,1,8,0:0:0:0:
56,116,79460,1,2,0:0:0:0:
252,193,79632,6,0,P|307:183|370:185,1,95,8|0,0:0|0:0,0:0:0:0:
345,182,79891,1,8,0:0:0:0:
344,182,79977,1,2,0:0:0:0:
94,357,80150,5,8,0:0:0:0:
86,310,80236,1,8,0:0:0:0:
78,263,80322,1,2,0:0:0:0:
71,216,80408,1,4,0:3:0:0:
71,216,80667,6,0,P|106:187|169:157,1,95,4|0,0:3|0:0,0:0:0:0:
172,170,80926,1,8,0:0:0:0:
193,179,81012,1,8,0:0:0:0:
256,95,81184,1,2,0:0:0:0:
345,147,81357,2,0,P|328:201|316:251,1,95,2|0,0:0|0:0,0:0:0:0:
318,238,81615,1,2,0:0:0:0:
318,238,81701,2,0,P|372:255|422:267,1,95,8|2,0:0|0:0,0:0:0:0:
253,359,82046,5,2,0:0:0:0:
253,359,82132,1,8,0:0:0:0:
183,311,82305,1,8,0:0:0:0:
183,311,82391,1,2,0:0:0:0:
112,358,82563,1,2,0:0:0:0:
112,358,82649,1,8,0:0:0:0:
42,310,82822,1,8,0:0:0:0:
42,310,82908,1,2,0:0:0:0:
120,106,83081,5,8,0:0:0:0:
125,129,83167,1,4,0:3:0:0:
130,152,83253,1,2,0:0:0:0:
135,175,83339,1,2,0:0:0:0:
141,198,83426,2,0,P|201:189|255:182,1,95,4|0,0:3|0:0,0:0:0:0:
244,162,83684,1,8,0:0:0:0:
255,141,83770,2,0,P|302:147|349:154,1,95,8|2,0:0|0:0,0:0:0:0:
398,234,84115,1,2,0:0:0:0:
421,232,84201,1,8,0:0:0:0:
487,165,84374,1,8,0:0:0:0:
463,161,84460,1,2,0:0:0:0:
350,304,84632,6,0,P|289:298|251:294,1,95,8|0,0:0|0:0,0:0:0:0:
188,343,84891,2,0,P|162:287|147:252,1,95,2|0,0:0|0:0,0:0:0:0:
73,222,85150,2,0,P|108:172|131:141,1,95,8|0,0:0|0:0,0:0:0:0:
120,61,85408,2,0,P|181:67|219:71,1,95,2|0,0:0|0:0,0:0:0:0:
282,21,85667,1,8,0:0:0:0:
420,118,85839,5,8,0:0:0:0:
416,141,85926,1,4,0:3:0:0:
412,164,86012,1,2,0:0:0:0:
408,187,86098,1,2,0:0:0:0:
405,210,86184,2,0,P|414:272|419:323,1,95,4|0,0:3|0:0,0:0:0:0:
394,311,86443,1,8,0:0:0:0:
372,320,86529,2,0,P|310:329|259:334,1,95,8|2,0:0|0:0,0:0:0:0:
141,308,86874,5,2,0:0:0:0:
156,290,86960,1,8,0:0:0:0:
26,269,87132,1,8,0:0:0:0:
34,290,87218,1,2,0:0:0:0:
117,188,87391,1,2,0:0:0:0:
95,185,87477,1,8,0:0:0:0:
41,90,87650,5,8,0:0:0:0:
41,90,87736,1,2,0:0:0:0:
131,100,87908,1,2,0:0:0:0:
131,100,87994,1,8,0:0:0:0:
221,110,88167,1,8,0:0:0:0:
221,110,88253,1,2,0:0:0:0:
311,120,88426,1,2,0:0:0:0:
442,53,88598,5,8,0:0:0:0:
439,76,88684,1,4,0:3:0:0:
436,99,88770,1,2,0:0:0:0:
432,122,88857,1,2,0:0:0:0:
429,145,88943,2,0,P|431:207|438:266,1,95,4|0,0:3|0:0,0:0:0:0:
414,253,89201,1,8,0:0:0:0:
395,267,89288,2,0,P|333:269|274:276,1,95,8|2,0:0|0:0,0:0:0:0:
166,338,89632,5,2,0:0:0:0:
182,310,89719,1,8,0:0:0:0:
137,196,89891,1,8,0:0:0:0:
130,166,89977,1,2,0:0:0:0:
159,355,90150,5,2,0:0:0:0:
181,323,90237,1,8,0:0:0:0:
139,183,90409,1,8,0:0:0:0:
134,147,90495,1,2,0:0:0:0:
64,270,90667,5,2,0:0:0:0:
111,273,90753,1,8,0:0:0:0:
214,239,90926,1,8,0:0:0:0:
261,242,91012,1,2,0:0:0:0:
339,321,91184,1,2,0:0:0:0:
386,324,91270,1,2,0:0:0:0:
433,329,91357,1,8,0:0:0:0:
480,332,91443,1,4,0:3:0:0:
480,332,91701,6,0,P|489:276|483:217,1,95,4|0,0:0|0:0,0:0:0:0:
453,220,91960,1,8,0:0:0:0:
417,207,92046,2,0,P|408:151|414:92,1,95,8|2,0:0|0:0,0:0:0:0:
315,186,92391,5,2,0:0:0:0:
321,163,92477,1,8,0:0:0:0:
241,166,92650,1,8,0:0:0:0:
234,143,92736,1,2,0:0:0:0:
166,185,92909,1,2,0:0:0:0:
149,169,92995,1,8,0:0:0:0:
110,238,93167,1,8,0:0:0:0:
87,233,93253,1,2,0:0:0:0:
47,87,93426,6,0,P|98:81|141:67,1,95,8|0,0:0|0:0,0:0:0:0:
146,45,93684,2,0,P|209:43|271:53,1,95,8|0,0:0|0:0,0:0:0:0:
254,66,93943,2,0,P|316:64|361:55,1,95,2|8,0:0|0:0,0:0:0:0:
353,81,94201,1,4,0:3:0:0:
358,104,94288,1,2,0:0:0:0:
363,127,94374,1,2,0:0:0:0:
368,150,94460,2,0,P|378:204|385:259,1,95,4|0,0:3|0:0,0:0:0:0:
366,261,94719,1,8,0:0:0:0:
351,279,94805,2,0,P|297:289|242:296,1,95,8|2,0:0|0:0,0:0:0:0:
142,286,95150,5,2,0:0:0:0:
165,292,95236,1,8,0:0:0:0:
162,212,95409,1,8,0:0:0:0:
185,205,95495,1,2,0:0:0:0:
143,137,95668,1,2,0:0:0:0:
159,120,95754,1,8,0:0:0:0:
90,81,95926,1,8,0:0:0:0:
95,58,96012,1,2,0:0:0:0:
29,167,96184,6,0,P|22:218|19:275,1,95,8|0,0:0|0:0,0:0:0:0:
14,284,96443,2,0,P|60:281|122:272,1,95,8|0,0:0|0:0,0:0:0:0:
126,258,96701,1,2,0:0:0:0:
257,363,96874,5,8,0:0:0:0:
280,359,96960,1,4,0:3:0:0:
303,355,97046,1,2,0:0:0:0:
326,351,97132,1,2,0:0:0:0:
349,347,97219,2,0,P|346:273|349:222,1,95,4|0,0:3|0:0,0:0:0:0:
364,236,97477,1,8,0:0:0:0:
381,220,97563,1,8,0:0:0:0:
466,234,97736,1,2,0:0:0:0:
425,138,97908,5,2,0:0:0:0:
432,160,97994,1,8,0:0:0:0:
354,103,98167,1,8,0:0:0:0:
349,125,98253,1,2,0:0:0:0:
310,37,98426,1,2,0:0:0:0:
294,53,98512,1,8,0:0:0:0:
207,9,98684,5,8,0:0:0:0:
212,30,98770,2,0,P|146:39|93:49,1,95,2|2,0:0|0:0,0:0:0:0:
121,67,99029,1,8,0:0:0:0:
39,129,99201,1,8,0:0:0:0:
34,150,99287,2,0,P|100:159|153:169,1,95,2|2,0:0|0:0,0:0:0:0:
276,244,99632,5,8,0:0:0:0:
253,251,99719,1,4,0:3:0:0:
230,258,99805,1,2,0:0:0:0:
207,266,99891,1,2,0:0:0:0:
185,274,99977,2,0,P|119:283|66:293,1,95,4|0,0:3|0:0,0:0:0:0:
75,305,100236,1,8,0:0:0:0:
61,324,100322,2,0,P|52:258|42:205,1,95,8|2,0:0|0:0,0:0:0:0:
146,182,100667,1,2,0:0:0:0:
160,201,100753,2,0,P|169:135|179:82,1,95,8|8,0:0|0:0,0:0:0:0:
247,124,101012,2,0,P|238:58|228:5,1,95,2|2,0:0|0:0,0:0:0:0:
421,93,101357,5,2,0:0:0:0:
410,129,101443,1,8,0:0:0:0:
352,191,101615,1,8,0:0:0:0:
371,223,101701,1,2,0:0:0:0:
485,280,101874,1,2,0:0:0:0:
478,327,101960,1,8,0:0:0:0:
325,352,102132,1,8,0:0:0:0:
325,352,102219,1,8,0:0:0:0:
287,345,102305,1,4,0:3:0:0:
249,338,102391,1,2,0:0:0:0:
211,334,102477,1,4,0:3:0:0:
211,334,102736,6,0,P|217:271|214:215,1,95,4|0,0:3|0:0,0:0:0:0:
180,227,102994,1,8,0:0:0:0:
143,215,103081,2,0,P|137:167|137:120,1,95,8|2,0:0|0:0,0:0:0:0:
217,33,103426,5,2,0:0:0:0:
208,54,103512,1,8,0:0:0:0:
305,56,103684,1,8,0:0:0:0:
286,69,103770,1,2,0:0:0:0:
369,119,103943,1,2,0:0:0:0:
346,121,104029,1,8,0:0:0:0:
392,205,104202,1,8,0:0:0:0:
372,195,104288,1,2,0:0:0:0:
238,313,104460,6,0,P|190:313|143:315,1,95,2|0,0:0|0:0,0:0:0:0:
124,300,104719,2,0,P|123:252|121:205,1,95,8|0,0:0|0:0,0:0:0:0:
104,187,104977,2,0,P|104:139|106:92,1,95,2|8,0:0|0:0,0:0:0:0:
130,94,105236,1,4,0:3:0:0:
153,96,105322,1,2,0:0:0:0:
176,98,105408,1,2,0:0:0:0:
199,100,105494,2,0,P|271:94|304:88,1,95,4|0,0:3|0:0,0:0:0:0:
309,72,105753,1,8,0:0:0:0:
322,52,105839,2,0,P|394:58|427:64,1,95,8|2,0:0|0:0,0:0:0:0:
479,154,106184,5,2,0:0:0:0:
475,177,106270,1,8,0:0:0:0:
397,192,106443,1,8,0:0:0:0:
405,213,106529,1,2,0:0:0:0:
344,265,106702,1,2,0:0:0:0:
362,280,106788,1,8,0:0:0:0:
334,354,106960,1,8,0:0:0:0:
357,358,107046,1,2,0:0:0:0:
264,297,107219,6,0,P|210:299|154:312,1,95,2|0,0:0|0:0,0:0:0:0:
151,321,107477,2,0,P|122:275|83:233,1,95,8|0,0:0|0:0,0:0:0:0:
73,235,107736,1,2,0:0:0:0:
136,106,107908,5,2,0:0:0:0:
159,109,107994,1,4,0:3:0:0:
182,112,108081,1,2,0:0:0:0:
205,115,108167,1,2,0:0:0:0:
228,118,108253,2,0,P|282:120|338:133,1,95,4|0,0:3|0:0,0:0:0:0:
344,119,108512,1,8,0:0:0:0:
366,111,108598,1,8,0:0:0:0:
436,149,108770,1,2,0:0:0:0:
386,219,108943,5,2,0:0:0:0:
394,241,109029,1,8,0:0:0:0:
319,260,109201,1,8,0:0:0:0:
314,283,109287,1,2,0:0:0:0:
240,262,109460,1,2,0:0:0:0:
224,279,109546,1,8,0:0:0:0:
131,303,109719,5,8,0:0:0:0:
136,282,109805,2,0,P|70:273|17:263,1,95,2|2,0:0|0:0,0:0:0:0:
45,245,110064,1,8,0:0:0:0:
113,155,110236,1,8,0:0:0:0:
108,176,110322,2,0,P|174:185|227:195,1,95,2|2,0:0|0:0,0:0:0:0:
369,172,110667,5,8,0:0:0:0:
346,164,110753,1,4,0:3:0:0:
323,156,110839,1,2,0:0:0:0:
300,148,110926,1,2,0:0:0:0:
277,140,111012,2,0,P|286:74|296:21,1,95,4|0,0:3|0:0,0:0:0:0:
272,31,111270,1,8,0:0:0:0:
255,14,111357,2,0,P|189:5|136:-5,1,95,8|2,0:0|0:0,0:0:0:0:
40,97,111701,1,2,0:0:0:0:
62,88,111788,2,0,P|53:154|43:207,1,95,8|8,0:0|0:0,0:0:0:0:
129,160,112046,2,0,P|138:226|148:279,1,95,2|2,0:0|0:0,0:0:0:0:
250,336,112391,5,2,0:0:0:0:
214,325,112477,1,8,0:0:0:0:
287,258,112650,1,8,0:0:0:0:
323,247,112736,1,2,0:0:0:0:
428,334,112908,1,2,0:0:0:0:
380,329,112994,1,8,0:0:0:0:
470,244,113167,1,0,0:0:0:0:
470,244,113253,1,2,0:0:0:0:
467,206,113339,1,4,0:3:0:0:
464,167,113426,1,2,0:0:0:0:
462,129,113512,1,2,0:0:0:0:
462,129,113770,6,0,P|386:129|291:66,1,170.999994781494,4|8,0:0|0:0,0:0:0:0:
304,36,114115,2,0,P|268:44|224:64,1,56.9999982604981,8|0,0:0|0:0,0:0:0:0:
109,44,114288,2,0,P|128:112|128:225,1,170.999994781494,2|4,0:0|0:2,0:0:0:0:
208,252,114633,1,2,0:0:0:0:
208,252,114719,1,2,0:0:0:0:
208,252,114805,2,0,P|179:300|125:336,1,113.999996520996,8|4,0:0|0:2,0:0:0:0:
373,270,115150,6,0,P|336:223|323:109,1,170.999994781494,4|8,0:3|0:0,0:0:0:0:
284,88,115494,2,0,P|331:73|370:69,1,56.9999982604981,8|0,0:0|0:0,0:0:0:0:
495,169,115667,2,0,P|479:270|435:328,1,170.999994781494,2|4,0:0|0:2,0:0:0:0:
357,354,116012,1,2,0:0:0:0:
357,354,116098,1,2,0:0:0:0:
357,354,116184,2,0,P|300:345|227:351,1,113.999996520996,0|4,0:0|0:2,0:0:0:0:
33,247,116529,5,4,0:0:0:0:
45,289,116615,1,8,0:0:0:0:
163,172,116788,1,8,0:0:0:0:
120,160,116874,1,2,0:0:0:0:
162,322,117046,1,2,0:0:0:0:
194,290,117132,1,8,0:0:0:0:
120,248,117305,5,8,0:0:0:0:
120,248,117391,1,2,0:0:0:0:
252,86,117563,1,8,0:0:0:0:
395,225,117736,1,4,0:2:0:0:
351,302,117908,5,4,0:3:0:0:
319,270,117994,1,8,0:0:0:0:
480,227,118167,1,8,0:0:0:0:
468,269,118253,1,2,0:0:0:0:
350,152,118426,1,2,0:0:0:0:
393,140,118512,1,8,0:0:0:0:
395,225,118684,5,8,0:0:0:0:
395,225,118770,1,2,0:0:0:0:
205,34,118943,5,8,0:0:0:0:
210,79,119029,1,4,0:3:0:0:
215,124,119115,1,4,0:2:0:0:
223,169,119201,1,2,0:0:0:0:
223,169,119288,6,0,P|158:207|53:218,1,170.999994781494,4|8,0:0|0:0,0:0:0:0:
27,246,119632,2,0,P|8:211|0:182,1,56.9999982604981,8|0,0:0|0:0,0:0:0:0:
126,55,119805,2,0,P|202:56|303:96,1,170.999994781494,2|4,0:0|0:2,0:0:0:0:
316,175,120150,1,2,0:0:0:0:
316,175,120236,1,2,0:0:0:0:
316,175,120322,2,0,P|365:172|431:147,1,113.999996520996,8|4,0:0|0:2,0:0:0:0:
384,329,120667,6,0,P|311:310|200:308,1,170.999994781494,4|8,0:3|0:0,0:0:0:0:
181,337,121012,2,0,P|144:322|121:308,1,56.9999982604981,8|0,0:0|0:0,0:0:0:0:
27,174,121184,2,0,P|121:170|210:190,1,170.999994781494,2|4,0:0|0:2,0:0:0:0:
250,123,121529,1,2,0:0:0:0:
250,123,121615,1,2,0:0:0:0:
250,123,121701,2,0,P|306:140|387:192,1,113.999996520996,8|4,0:0|0:2,0:0:0:0:
475,345,122046,5,4,0:0:0:0:
435,322,122132,1,8,0:0:0:0:
300,283,122305,1,8,0:0:0:0:
340,260,122391,1,2,0:0:0:0:
475,221,122564,1,2,0:0:0:0:
435,198,122650,1,8,0:0:0:0:
346,174,122822,5,8,0:0:0:0:
346,174,122908,1,2,0:0:0:0:
256,10,123081,1,8,0:0:0:0:
166,174,123253,1,0,0:2:0:0:
37,345,123425,5,4,0:3:0:0:
77,322,123511,1,8,0:0:0:0:
212,283,123684,1,8,0:0:0:0:
172,260,123770,1,2,0:0:0:0:
14,244,123943,2,0,P|18:185|1:65,1,170.999994781494,2|4,0:0|0:2,0:0:0:0:
65,21,124288,1,2,0:0:0:0:
121,29,124374,1,2,0:0:0:0:
177,37,124460,1,8,0:0:0:0:
240,131,124632,1,4,0:2:0:0:
448,53,124805,6,0,P|436:124|426:232,1,170.999994781494,4|8,0:0|0:0,0:0:0:0:
469,239,125150,2,0,P|439:288|431:323,1,56.9999982604981,8|0,0:0|0:0,0:0:0:0:
255,347,125322,2,0,P|264:274|331:203,1,170.999994781494,2|4,0:0|0:2,0:0:0:0:
351,132,125667,1,2,0:0:0:0:
351,132,125753,1,2,0:0:0:0:
351,132,125839,2,0,P|326:79|317:14,1,113.999996520996,8|4,0:0|0:2,0:0:0:0:
103,84,126184,6,0,P|66:129|49:257,1,170.999994781494,4|8,0:3|0:0,0:0:0:0:
23,278,126529,2,0,P|67:318|85:327,1,56.9999982604981,8|0,0:0|0:0,0:0:0:0:
223,369,126701,2,0,P|204:305|109:236,1,170.999994781494,2|4,0:0|0:2,0:0:0:0:
180,170,127046,1,2,0:0:0:0:
180,170,127132,1,2,0:0:0:0:
180,170,127219,2,0,P|182:114|194:38,1,113.999996520996,8|4,0:0|0:2,0:0:0:0:
458,95,127563,5,4,0:0:0:0:
458,95,127650,1,8,0:0:0:0:
423,252,127822,1,8,0:0:0:0:
423,252,127908,1,2,0:0:0:0:
266,217,128081,1,2,0:0:0:0:
266,217,128167,1,8,0:0:0:0:
301,60,128340,1,8,0:0:0:0:
301,60,128426,1,2,0:0:0:0:
367,150,128598,5,8,0:0:0:0:
101,118,128770,1,4,0:2:0:0:
192,63,128942,5,4,0:3:0:0:
192,63,129029,1,8,0:0:0:0:
157,220,129201,1,8,0:0:0:0:
157,220,129287,1,2,0:0:0:0:
0,185,129460,1,2,0:0:0:0:
0,185,129546,1,8,0:0:0:0:
0,185,129632,6,0,L|16:118,1,56.9999982604981,4|0,0:2|0:2,0:0:0:0:
35,28,129805,2,0,L|102:44,1,56.9999982604981,2|0,0:0|0:0,0:0:0:0:
192,63,129977,2,0,L|176:130,1,56.9999982604981,4|0,0:2|0:0,0:0:0:0:
157,220,130150,2,0,L|90:204,1,56.9999982604981,4|0,0:2|0:0,0:0:0:0:
194,339,130322,6,0,P|229:258|336:243,1,170.999994781494,4|8,0:0|0:0,0:0:0:0:
322,276,130667,2,0,P|361:265|391:246,1,56.9999982604981,8|0,0:0|0:0,0:0:0:0:
472,123,130839,2,0,P|462:195|452:304,1,170.999994781494,2|4,0:0|0:2,0:0:0:0:
389,344,131184,1,2,0:0:0:0:
389,344,131270,1,2,0:0:0:0:
389,344,131357,2,0,P|316:353|260:350,1,113.999996520996,8|4,0:0|0:2,0:0:0:0:
329,183,131701,6,0,P|316:133|245:25,1,170.999994781494,4|8,0:3|0:0,0:0:0:0:
209,46,132046,2,0,P|189:42|147:25,1,56.9999982604981,8|0,0:0|0:0,0:0:0:0:
49,179,132219,2,0,P|122:183|220:132,1,170.999994781494,2|4,0:0|0:2,0:0:0:0:
256,214,132563,1,2,0:0:0:0:
256,214,132650,1,2,0:0:0:0:
256,214,132736,2,0,P|234:286|224:354,1,113.999996520996,8|4,0:0|0:2,0:0:0:0:
449,342,133081,5,4,0:0:0:0:
449,342,133167,1,8,0:0:0:0:
353,201,133339,1,8,0:0:0:0:
353,201,133426,1,2,0:0:0:0:
495,204,133598,1,2,0:0:0:0:
495,204,133684,1,8,0:0:0:0:
310,338,133857,5,8,0:0:0:0:
310,338,133943,2,0,P|279:334|242:332,1,56.9999982604981,4|0,0:2|0:0,0:0:0:0:
193,266,134115,2,0,P|224:262|261:260,1,56.9999982604981,4|0,0:2|0:0,0:0:0:0:
303,193,134288,2,0,P|272:189|235:187,1,56.9999982604981,4|0,0:2|0:0,0:0:0:0:
62,209,134460,5,4,0:3:0:0:
62,209,134546,1,8,0:0:0:0:
178,38,134718,1,8,0:0:0:0:
178,38,134805,1,2,0:0:0:0:
7,42,134977,1,2,0:0:0:0:
7,42,135063,1,8,0:0:0:0:
256,192,135322,5,8,0:0:0:0:
312,184,135408,1,8,0:0:0:0:
368,177,135494,1,2,0:0:0:0:
512,192,135667,1,8,0:0:0:0:
512,192,135839,5,4,0:0:0:0:
256,192,152391,12,4,157908,0:0:0:0:
369,198,158167,6,0,L|253:212,1,106.875004076958,2|2,0:2|0:3,0:0:0:0:
194,250,158598,2,0,P|211:209|197:135,2,106.875004076958,8|2|2,0:2|0:2|0:3,0:0:0:0:
147,322,159288,6,0,L|41:343,1,106.875004076958,4|2,0:3|0:2,0:0:0:0:
24,362,159632,2,0,P|34:314|25:269,1,71.2500027179719,0|2,0:0|0:3,0:0:0:0:
63,84,159977,2,0,L|77:165,1,71.2500027179719,8|0,0:2|0:0,0:0:0:0:
61,172,160236,2,0,L|78:206,1,35.625001358986,2|0,0:2|0:0,0:0:0:0:
151,235,160494,1,2,0:3:0:0:
233,210,160667,6,0,P|300:204|326:197,1,71.2500027179719,4|0,0:3|0:0,0:0:0:0:
327,215,160926,2,0,L|447:224,1,106.875004076958,2|2,0:2|0:3,0:0:0:0:
490,290,161357,1,8,0:2:0:0:
508,184,161529,2,0,L|495:127,2,35.625001358986,0|2|0,0:0|0:2|0:0,0:0:0:0:
414,226,161874,2,0,P|407:283|393:322,1,71.2500027179719,2|4,0:3|0:3,0:0:0:0:
301,335,162219,5,0,0:0:0:0:
301,335,162305,2,0,P|304:269|325:197,1,106.875004076958,2|2,0:2|0:3,0:0:0:0:
346,132,162736,2,0,P|295:155|229:153,2,106.875004076958,8|2|2,0:2|0:2|0:3,0:0:0:0:
400,58,163426,6,0,L|274:28,1,106.875004076958,4|2,0:0|0:2,0:0:0:0:
279,50,163770,2,0,L|185:28,1,71.2500027179719,0|2,0:0|0:3,0:0:0:0:
171,141,164115,2,0,P|222:123|247:127,1,71.2500027179719,8|0,0:2|0:0,0:0:0:0:
259,143,164374,2,0,L|244:194,1,35.625001358986,2|0,0:2|0:0,0:0:0:0:
293,250,164632,1,2,0:3:0:0:
232,332,164805,6,0,L|213:239,1,71.2500027179719,4|0,0:3|0:0,0:0:0:0:
210,240,165063,2,0,P|148:255|102:236,1,106.875004076958,2|2,0:2|0:3,0:0:0:0:
59,172,165494,2,0,L|46:43,2,106.875004076958,8|2|2,0:2|0:2|0:3,0:0:0:0:
160,77,166184,6,0,L|152:181,1,71.2500027179719,4|0,0:3|0:0,0:0:0:0:
168,159,166443,1,2,0:2:0:0:
182,169,166529,1,0,0:0:0:0:
259,120,166701,1,2,0:3:0:0:
344,201,166874,6,0,L|324:161,2,35.625001358986,8|0|0,0:2|0:0|0:0,0:0:0:0:
318,230,167132,2,0,P|384:249|416:299,1,106.875004076958,2|2,0:2|0:3,0:0:0:0:
155,187,167563,6,0,L|175:147,2,35.625001358986,4|0|0,0:3|0:0|0:0,0:0:0:0:
175,222,167822,2,0,P|109:241|77:291,1,106.875004076958,2|2,0:2|0:2,0:0:0:0:
56,93,168253,5,8,0:2:0:0:
56,93,168339,2,0,L|48:42,1,35.625001358986,0|0,0:0|0:0,0:0:0:0:
109,150,168512,2,0,P|159:124|224:128,1,106.875004076958,2|2,0:2|0:3,0:0:0:0:
291,164,168943,6,0,L|423:149,1,106.875004076958,4|2,0:0|0:2,0:0:0:0:
499,140,169288,1,8,0:0:0:0:
499,140,169460,1,2,0:3:0:0:
447,289,169632,2,0,B|436:254|436:254|443:207,1,71.2500027179719,8|0,0:2|0:0,0:0:0:0:
424,32,169977,2,0,B|429:66|429:66|418:101,1,71.2500027179719,8|2,0:0|0:3,0:0:0:0:
346,266,170322,6,0,L|250:261,1,71.2500027179719,4|0,0:3|0:0,0:0:0:0:
176,221,170667,2,0,P|168:281|172:314,1,71.2500027179719,8|2,0:0|0:3,0:0:0:0:
314,165,171012,2,0,P|322:105|318:72,1,71.2500027179719,8|0,0:2|0:0,0:0:0:0:
144,120,171357,2,0,L|240:125,1,71.2500027179719,8|2,0:0|0:3,0:0:0:0:
411,137,171701,5,4,0:3:0:0:
456,248,171874,1,0,0:0:0:0:
364,326,172046,1,8,0:0:0:0:
336,215,172219,1,2,0:3:0:0:
456,248,172391,2,0,P|495:242|531:233,1,71.2500027179719,8|0,0:2|0:0,0:0:0:0:
336,215,172736,2,0,P|297:221|261:230,1,71.2500027179719,8|2,0:0|0:3,0:0:0:0:
196,179,173081,6,0,P|133:181|83:142,1,106.875004076958,4|2,0:3|0:2,0:0:0:0:
75,89,173426,1,8,0:0:0:0:
123,263,173598,1,2,0:3:0:0:
194,62,173770,5,8,0:2:0:0:
367,127,173943,1,0,0:0:0:0:
367,127,174029,1,2,0:2:0:0:
367,127,174115,1,8,0:0:0:0:
239,196,174288,1,2,0:3:0:0:
339,263,174460,6,0,P|394:233|418:209,1,71.2500027179719,4|0,0:0|0:0,0:0:0:0:
173,121,174805,2,0,P|118:151|94:175,1,71.2500027179719,8|2,0:0|0:3,0:0:0:0:
410,137,175150,6,0,P|424:102|432:49,1,71.2500027179719,4|0,0:3|0:0,0:0:0:0:
102,247,175494,2,0,P|88:282|80:335,1,71.2500027179719,8|2,0:0|0:3,0:0:0:0:
278,136,175839,5,4,0:0:0:0:
232,244,176012,1,0,0:0:0:0:
311,167,176184,5,8,0:0:0:0:
202,211,176357,1,2,0:3:0:0:
312,214,176529,5,4,0:3:0:0:
204,168,176702,1,0,0:0:0:0:
280,247,176874,5,8,0:0:0:0:
236,138,177047,1,2,0:3:0:0:
267,332,177219,5,4,0:0:0:0:
300,344,177305,1,4,0:3:0:0:
335,347,177391,1,4,0:3:0:0:
370,341,177477,1,4,0:3:0:0:
401,324,177563,1,8,0:0:0:0:
420,294,177650,1,4,0:3:0:0:
428,259,177736,1,4,0:3:0:0:
422,223,177822,1,4,0:3:0:0:
404,191,177908,5,4,0:3:0:0:
367,224,177994,1,4,0:3:0:0:
317,234,178081,1,4,0:3:0:0:
268,222,178167,1,4,0:3:0:0:
229,190,178253,1,8,0:0:0:0:
214,142,178339,1,4,0:3:0:0:
224,92,178426,1,4,0:3:0:0:
257,55,178512,1,4,0:3:0:0:
305,44,178598,6,0,L|312:117,1,47.5,4|0,0:0|0:0,0:0:0:0:
384,59,178770,2,0,L|391:132,1,47.5,0|0,0:0|0:0,0:0:0:0:
134,195,178943,6,0,L|127:268,1,47.5,8|0,0:0|0:0,0:0:0:0:
56,170,179115,2,0,L|49:243,1,47.5,4|0,0:3|0:0,0:0:0:0:
321,175,179288,6,0,L|301:237,1,47.5,8|0,0:0|0:0,0:0:0:0:
198,362,179460,2,0,L|218:300,1,47.5,4|0,0:3|0:0,0:0:0:0:
280,267,179632,6,0,L|238:276,1,38,4|4,0:0|0:3,0:0:0:0:
216,64,179977,6,0,L|236:156,1,80.750001540184,4|0,0:0|0:0,0:0:0:0:
184,208,180150,1,2,0:0:0:0:
184,208,180236,2,0,B|168:216|168:216|120:216|120:216|76:200|76:200|16:200,1,161.500003080368,8|0,0:0|0:0,0:0:0:0:
40,124,180494,2,0,L|136:124,1,80.750001540184,2|0,0:0|0:0,0:0:0:0:
240,284,180667,2,0,L|152:300,1,80.750001540184,4|0,0:3|0:0,0:0:0:0:
328,252,180839,2,0,B|336:276|336:276|336:320|312:340,1,80.750001540184,2|0,0:0|0:0,0:0:0:0:
292,160,181012,5,8,0:0:0:0:
316,152,181098,1,0,0:0:0:0:
372,152,181184,1,2,0:0:0:0:
392,144,181270,1,2,0:0:0:0:
436,108,181357,2,0,B|462:137|462:137|466:180|466:180|447:213|447:213|455:275,1,161.500003080368,4|0,0:3|0:0,0:0:0:0:
391,318,181615,1,8,0:0:0:0:
391,318,181701,2,0,B|358:285|358:285|362:230,1,80.750001540184,8|0,0:0|0:0,0:0:0:0:
216,352,181874,2,0,L|320:352,1,80.750001540184,2|0,0:0|0:0,0:0:0:0:
232,240,182046,5,4,0:3:0:0:
232,240,182132,2,0,B|200:240|200:240|196:236|196:236|154:223|154:223|112:236|112:236|108:240|108:240|76:240,1,161.500003080368,2|0,0:0|0:0,0:0:0:0:
220,108,182391,2,0,B|228:120|228:120|280:144|280:144|288:164,1,80.750001540184,8|0,0:0|0:0,0:0:0:0:
360,92,182563,2,0,B|357:106|357:106|376:159|376:159|368:179,1,80.750001540184,2|0,0:0|0:0,0:0:0:0:
480,68,182736,6,0,B|464:88|464:88|456:140|456:140|460:148|460:148|452:216|452:216|432:224,1,161.500003080368,4|0,0:0|0:0,0:0:0:0:
384,300,182994,1,8,0:0:0:0:
384,300,183081,2,0,L|320:232,1,80.750001540184,8|0,0:0|0:0,0:0:0:0:
128,300,183253,2,0,L|192:232,1,80.750001540184,2|0,0:0|0:0,0:0:0:0:
260,368,183426,1,4,0:3:0:0:
260,368,183512,2,0,B|260:332|260:332|252:328|252:328|256:320|256:320|260:252|260:252|256:248|256:248|260:236|260:236|256:212,1,161.500003080368,2|0,0:0|0:0,0:0:0:0:
364,96,183770,5,8,0:0:0:0:
313,124,183857,1,0,0:0:0:0:
257,135,183943,1,2,0:0:0:0:
201,129,184029,1,2,0:0:0:0:
151,107,184115,1,4,0:3:0:0:
180,316,184288,5,8,0:0:0:0:
180,316,184374,2,0,B|152:332|152:332|160:268|160:268|152:256|152:256|160:212|160:212|184:212|128:164,1,161.500003080368,8|0,0:0|0:0,0:0:0:0:
80,292,184632,2,0,B|76:324|76:324|32:360,1,80.750001540184,2|0,0:0|0:0,0:0:0:0:
292,272,184805,1,4,0:3:0:0:
292,272,184891,2,0,B|240:260|248:204,1,80.750001540184,2|0,0:0|0:0,0:0:0:0:
472,168,185063,2,0,B|424:176|424:176|400:192|400:192|372:184|372:184|304:196,1,161.500003080368,2|0,0:0|0:0,0:0:0:0:
240,48,185322,2,0,B|264:84|248:112|248:112|236:96,1,80.750001540184,8|0,0:0|0:0,0:0:0:0:
120,68,185494,6,0,B|112:96|112:96|120:148|120:148|104:204|104:204|80:160,1,161.500003080368,4|0,0:0|0:0,0:0:0:0:
184,280,185753,1,8,0:0:0:0:
184,280,185839,2,0,B|176:240|176:240|192:180,1,80.750001540184,8|0,0:0|0:0,0:0:0:0:
64,272,186012,2,0,B|100:292|100:292|116:344,1,80.750001540184,2|0,0:0|0:0,0:0:0:0:
264,248,186184,2,0,L|288:336,1,80.750001540184,4|0,0:3|0:0,0:0:0:0:
356,256,186357,2,0,B|344:216|344:216|356:148,1,80.750001540184,2|0,0:0|0:0,0:0:0:0:
456,52,186529,5,8,0:0:0:0:
464,108,186615,1,0,0:0:0:0:
472,164,186701,1,2,0:0:0:0:
480,220,186788,1,2,0:0:0:0:
492,276,186874,2,0,B|452:288|452:288|408:272,1,80.750001540184,4|0,0:3|0:0,0:0:0:0:
360,92,187046,1,8,0:0:0:0:
360,92,187132,2,0,B|320:80|320:80|276:96,1,80.750001540184,8|0,0:0|0:0,0:0:0:0:
240,272,187305,1,2,0:0:0:0:
240,272,187391,2,0,B|196:284|196:284|140:272,1,80.750001540184,2|0,0:0|0:0,0:0:0:0:
40,136,187563,6,0,P|64:172|56:228,1,80.750001540184,4|0,0:3|0:0,0:0:0:0:
176,56,187736,2,0,P|152:92|160:148,1,80.750001540184,2|0,0:0|0:0,0:0:0:0:
267,196,187908,2,0,L|235:284,1,80.750001540184,8|0,0:0|0:0,0:0:0:0:
392,304,188081,2,0,L|360:392,1,80.750001540184,2|0,0:0|0:0,0:0:0:0:
484,180,188253,5,4,0:0:0:0:
484,180,188339,2,0,B|487:207|487:207|436:196|436:196|432:188|432:188|384:176|384:176|364:192,1,161.500003080368,2|0,0:0|0:0,0:0:0:0:
400,72,188598,2,0,B|392:68|392:68|388:68|388:68|328:52|328:52|324:56|324:56|312:52,1,80.750001540184,8|0,0:0|0:0,0:0:0:0:
264,112,188770,2,0,B|254:118|254:118|251:114|251:114|200:101|200:101|197:97|197:97|173:93,1,80.750001540184,2|0,0:0|0:0,0:0:0:0:
56,160,188943,1,4,0:3:0:0:
56,160,189029,2,0,B|76:136|76:136|64:64,2,80.750001540184,2|0|0,0:0|0:0|0:0,0:0:0:0:
188,280,189288,5,8,0:0:0:0:
148,260,189374,1,0,0:0:0:0:
184,252,189460,1,2,0:0:0:0:
168,228,189546,1,2,0:0:0:0:
188,212,189632,2,0,B|160:180|160:180|180:144|180:144|172:84|172:84|144:64,1,161.500003080368,4|0,0:3|0:0,0:0:0:0:
332,148,189891,1,8,0:0:0:0:
332,148,189977,2,0,B|304:180|304:180|252:192,1,80.750001540184,8|0,0:0|0:0,0:0:0:0:
240,372,190150,2,0,B|268:340|268:340|320:328,1,80.750001540184,2|0,0:0|0:0,0:0:0:0:
416,196,190322,5,4,0:3:0:0:
416,196,190408,2,0,B|392:200|392:200|352:244|352:244|264:268,1,161.500003080368,2|0,0:0|0:0,0:0:0:0:
104,292,190667,2,0,B|112:300|112:300|168:308|168:308|180:300,1,80.750001540184,8|0,0:0|2:0,0:0:0:0:
196,160,190839,2,0,B|188:152|188:152|132:144|132:144|120:152,1,80.750001540184,8|0,0:0|2:0,0:0:0:0:
72,216,191012,6,0,B|146:226|146:226|151:224|151:224|150:230|150:230|155:227|155:227|228:236,1,161.500003080368,4|0,0:0|0:0,0:0:0:0:
344,256,191270,1,8,0:0:0:0:
344,256,191357,2,0,B|336:320|336:320|348:344,1,80.750001540184,8|0,0:0|0:0,0:0:0:0:
364,144,191529,2,0,B|372:80|372:80|360:56,1,80.750001540184,2|0,0:0|0:0,0:0:0:0:
428,220,191701,2,0,B|464:236|464:236|508:228,1,80.750001540184,4|0,0:3|0:0,0:0:0:0:
268,184,191874,5,2,0:0:0:0:
270,199,191960,1,2,0:0:0:0:
248,200,192046,5,8,0:0:0:0:
288,192,192132,1,0,0:0:0:0:
267,173,192219,1,2,0:0:0:0:
271,213,192305,1,2,0:0:0:0:
268,192,192391,6,0,B|240:184|240:184|216:188|216:188|212:176|212:176|152:144|152:144|112:160,1,161.500003080368,4|0,0:3|0:0,0:0:0:0:
140,240,192650,1,8,0:0:0:0:
140,240,192736,2,0,B|68:296,1,80.750001540184,8|0,0:0|0:0,0:0:0:0:
176,76,192908,2,0,B|104:20,1,80.750001540184,2|0,0:0|0:0,0:0:0:0:
24,160,193081,6,0,B|76:172|76:172|128:152|128:152|188:168,1,161.500003080368,4|0,0:3|0:0,0:0:0:0:
312,144,193339,1,2,0:0:0:0:
312,144,193426,2,0,B|324:164|324:164|296:176|268:148,1,80.750001540184,8|0,0:0|0:0,0:0:0:0:
232,248,193598,2,0,B|192:264|192:264|152:260,1,80.750001540184,2|0,0:0|0:0,0:0:0:0:
304,336,193770,5,4,0:0:0:0:
304,336,193857,2,0,B|340:310|340:310|340:304|340:304|391:270|391:270|397:270|397:270|453:231,1,161.500003080368,2|0,0:0|0:0,0:0:0:0:
448,100,194115,2,0,B|480:128|476:172,1,80.750001540184,8|0,0:0|0:0,0:0:0:0:
312,144,194288,2,0,B|232:128,1,80.750001540184,2|0,0:0|0:0,0:0:0:0:
48,64,194460,1,4,0:3:0:0:
48,64,194546,2,0,B|88:80|128:64|128:64|124:60|124:60|160:68|160:68|208:48,1,161.500003080368,2|0,0:0|0:0,0:0:0:0:
256,208,194805,5,8,0:0:0:0:
256,208,194891,1,0,0:0:0:0:
256,208,194977,1,2,0:0:0:0:
256,208,195063,1,2,0:0:0:0:
256,208,195150,2,0,B|248:256|248:256|252:260|252:260|256:304|256:304|252:300|252:300|240:356,1,161.500003080368,4|0,0:3|0:0,0:0:0:0:
152,284,195408,1,8,0:0:0:0:
152,284,195494,2,0,L|56:296,1,80.750001540184,8|0,0:0|0:0,0:0:0:0:
140,144,195667,2,0,L|52:156,1,80.750001540184,2|0,0:0|0:0,0:0:0:0:
256,60,195839,5,4,0:3:0:0:
256,60,195926,2,0,B|204:44|204:44|140:64|140:64|84:48,1,161.500003080368,2|0,0:0|0:0,0:0:0:0:
332,144,196184,2,0,L|240:156,1,80.750001540184,8|0,0:0|0:0,0:0:0:0:
408,280,196357,2,0,L|316:292,1,80.750001540184,8|0,0:0|0:0,0:0:0:0:
168,196,196529,5,4,0:0:0:0:
168,196,196615,2,0,B|160:216|160:216|164:284|164:284|156:296|156:296|160:356,1,161.500003080368,2|0,0:0|0:0,0:0:0:0:
68,256,196874,2,0,B|56:324|56:324|76:360,1,80.750001540184,8|0,0:0|0:0,0:0:0:0:
72,96,197046,2,0,B|84:164|84:164|64:200,1,80.750001540184,2|0,0:0|0:0,0:0:0:0:
308,104,197219,1,4,0:3:0:0:
308,104,197391,2,0,B|292:148|292:148|304:188,1,80.750001540184,2|0,0:0|0:0,0:0:0:0:
352,276,197563,5,8,0:0:0:0:
332,316,197650,1,0,0:0:0:0:
292,300,197736,1,2,0:0:0:0:
312,260,197823,1,2,0:0:0:0:
352,276,197908,6,0,L|512:260,1,161.500003080368,4|0,0:3|0:0,0:0:0:0:
216,336,198167,1,8,0:0:0:0:
216,336,198253,2,0,P|208:288|228:244,1,80.750001540184,8|0,0:0|0:0,0:0:0:0:
320,184,198426,2,0,L|412:196,1,80.750001540184,2|0,0:0|0:0,0:0:0:0:
252,128,198598,2,0,L|160:116,1,80.750001540184,4|0,0:3|0:0,0:0:0:0:
364,32,198770,6,0,B|368:56|368:56|344:88|344:88|324:92,1,80.750001540184,2|0,0:0|0:0,0:0:0:0:
252,128,198943,2,0,B|237:147|237:147|198:153|198:153|181:142,1,80.750001540184,8|0,0:0|0:0,0:0:0:0:
124,204,199115,2,0,B|100:208|100:208|67:183|67:183|64:164,1,80.750001540184,8|0,0:0|0:0,0:0:0:0:
180,48,199288,5,4,0:0:0:0:
180,48,199374,2,0,B|200:56|200:56|120:92|120:92|116:100|116:100|108:96|108:96|76:76,1,161.500003080368,2|0,0:0|0:0,0:0:0:0:
208,228,199632,2,0,B|264:208|264:208|288:212,1,80.750001540184,8|0,0:0|0:0,0:0:0:0:
268,296,199805,2,0,B|212:316|212:316|188:312,1,80.750001540184,2|0,0:0|0:0,0:0:0:0:
280,124,199977,2,0,B|284:104|284:104|260:68|260:68|264:44,1,80.750001540184,4|0,0:3|0:0,0:0:0:0:
268,296,200150,2,0,B|264:316|264:316|288:352|288:352|284:376,1,80.750001540184,2|0,0:0|0:0,0:0:0:0:
444,176,200322,5,8,0:0:0:0:
388,168,200408,1,0,0:0:0:0:
344,204,200494,1,2,0:0:0:0:
288,192,200581,1,2,0:0:0:0:
236,212,200667,2,0,B|228:224|228:224|176:224|176:224|164:212|164:212|112:212|112:212|88:224,1,161.500003080368,4|0,0:3|0:0,0:0:0:0:
132,284,200926,2,0,B|108:296|108:296|40:296,1,80.750001540184,2|8,0:0|0:0,0:0:0:0:
220,76,201184,6,0,B|240:116|216:160,1,80.750001540184,2|0,0:0|0:0,0:0:0:0:
308,128,201357,2,0,B|328:108|328:108|392:108|392:108|400:100|400:100|468:100,1,161.500003080368,4|0,0:3|0:0,0:0:0:0:
487,173,201615,2,0,L|486:265,1,80.750001540184,2|8,0:0|0:0,0:0:0:0:
284,232,201874,2,0,L|192:232,1,80.750001540184,8|0,0:0|0:0,0:0:0:0:
40,328,202046,6,0,B|36:280|36:280|52:256|52:256|48:208|48:208|20:172,1,161.500003080368,4|0,0:0|0:0,0:0:0:0:
104,136,202305,1,8,0:0:0:0:
104,136,202391,2,0,B|100:88|100:88|124:44,1,80.750001540184,8|0,0:0|0:0,0:0:0:0:
300,120,202563,2,0,P|272:152|224:160,1,80.750001540184,2|0,0:0|0:0,0:0:0:0:
388,64,202736,6,0,L|412:248,1,161.500003080368,4|0,0:3|0:0,0:0:0:0:
336,316,202994,6,0,L|315:147,1,161.500003080368,8|0,0:0|0:0,0:0:0:0:
192,88,203253,38,0,L|216:272,1,161.500003080368,2|0,0:0|0:0,0:0:0:0:
140,340,203511,6,0,L|119:171,1,161.500003080368,8|0,0:0|0:0,0:0:0:0:
388,64,203770,38,0,L|412:248,1,161.500003080368,2|0,0:0|0:0,0:0:0:0:
336,316,204028,6,0,L|315:147,1,161.500003080368,8|0,0:0|0:0,0:0:0:0:
300,32,204288,6,0,B|296:64|296:64|248:100,1,80.750001540184,2|0,0:0|0:0,0:0:0:0:
172,216,204460,2,0,B|192:188|192:188|256:172,1,80.750001540184,8|0,0:0|0:0,0:0:0:0:
148,56,204632,5,2,0:0:0:0:
144,71,204719,1,2,0:0:0:0:
140,86,204805,2,0,B|100:134|44:131|44:131|4:79,1,161.500003080368,4|0,0:0|0:0,0:0:0:0:
172,217,205063,1,8,0:0:0:0:
172,217,205150,2,0,B|214:235|214:235|235:276,1,80.750001540184,8|0,0:0|0:0,0:0:0:0:
301,100,205322,2,0,L|314:197,1,80.750001540184,2|0,0:0|0:0,0:0:0:0:
434,152,205494,6,0,B|403:228|403:228|420:319,1,161.500003080368,4|0,0:3|0:0,0:0:0:0:
301,368,205753,6,0,B|332:292|332:292|315:201,1,161.500003080368,8|0,0:0|0:0,0:0:0:0:
456,148,206012,38,0,B|425:224|425:224|442:315,1,161.500003080368,2|0,0:0|0:0,0:0:0:0:
323,364,206271,6,0,B|354:288|354:288|337:197,1,161.500003080368,8|0,0:0|0:0,0:0:0:0:
487,143,206529,38,0,B|456:219|456:219|473:310,1,161.500003080368,2|0,0:0|0:0,0:0:0:0:
354,359,206788,6,0,B|385:283|385:283|368:192,1,161.500003080368,8|0,0:0|0:0,0:0:0:0:
391,112,207046,6,0,L|381:23,1,80.750001540184,2|0,0:0|0:0,0:0:0:0:
301,257,207219,2,0,L|225:320,1,80.750001540184,8|0,0:0|0:0,0:0:0:0:
241,107,207391,5,2,0:0:0:0:
255,114,207477,1,2,0:0:0:0:
268,122,207563,2,0,B|247:156|247:156|201:156|201:156|171:177|171:177|136:159,1,161.500003080368,4|0,0:0|0:0,0:0:0:0:
52,49,207822,1,8,0:0:0:0:
52,49,207908,2,0,B|62:109|62:109|38:135,1,80.750001540184,8|0,0:0|0:0,0:0:0:0:
69,274,208081,2,0,B|59:214|59:214|83:188,1,80.750001540184,2|0,0:0|0:0,0:0:0:0:
214,196,208253,2,0,L|300:214,2,80.750001540184,4|0|0,0:3|0:0|0:0,0:0:0:0:
145,67,208512,6,0,B|192:79|235:60|235:60|240:63|240:63|272:59|325:85,1,161.500003080368,8|0,0:0|0:0,0:0:0:0:
391,293,208770,6,0,B|385:245|385:245|406:205|384:210|406:174|406:174|400:127,1,161.500003080368,2|0,0:0|0:0,0:0:0:0:
129,121,209029,38,0,B|176:133|206:111|206:111|228:119|228:119|256:113|309:139,1,161.500003080368,8|0,0:0|0:0,0:0:0:0:
368,324,209287,6,0,B|363:264|363:264|383:236|361:241|378:219|378:219|372:158,1,161.500003080368,2|0,0:0|0:0,0:0:0:0:
113,176,209546,38,0,B|148:190|169:167|169:167|218:176|218:176|252:167|293:194,1,161.500003080368,8|0,0:0|0:0,0:0:0:0:
352,379,209804,6,0,B|350:306|350:306|363:294|345:296|360:285|360:285|356:213,1,161.500003080368,2|8,0:0|0:0,0:0:0:0:
376,177,210063,1,0,0:0:0:0:
371,128,210150,1,2,0:0:0:0:
366,79,210236,1,2,0:0:0:0:
361,30,210322,1,4,0:0:0:0:
182,275,210494,6,0,B|215:301|215:301|265:295,1,80.750001540184,2|0,0:0|0:0,0:0:0:0:
222,140,210667,2,0,B|245:179|245:179|236:227,1,80.750001540184,8|0,0:0|0:0,0:0:0:0:
157,88,210839,2,0,B|185:61|185:61|232:57,1,80.750001540184,2|0,0:0|0:0,0:0:0:0:
445,111,211012,5,4,0:3:0:0:
445,111,211098,2,0,B|402:123|370:88|370:88|342:134|281:124,1,161.500003080368,2|0,0:0|0:0,0:0:0:0:
422,216,211357,2,0,L|511:237,1,80.750001540184,8|0,0:0|0:0,0:0:0:0:
333,289,211529,2,0,L|244:310,1,80.750001540184,2|0,0:0|0:0,0:0:0:0:
172,219,211701,5,4,0:3:0:0:
172,219,211788,2,0,B|129:211|96:231|96:231|72:207|72:207|20:198,1,161.500003080368,2|0,0:0|0:0,0:0:0:0:
144,114,212046,2,0,P|182:129|225:122,1,80.750001540184,8|0,0:0|0:0,0:0:0:0:
350,189,212219,1,2,0:0:0:0:
350,189,212305,2,0,P|343:148|316:114,2,80.750001540184,8|0|0,0:0|0:0|0:0,0:0:0:0:
198,273,212563,1,2,0:0:0:0:
198,273,212650,2,0,L|284:252,1,80.750001540184,2|8,0:0|0:0,0:0:0:0:
90,329,212822,2,0,B|68:262|68:262|83:192|83:192|62:204,1,161.500003080368,8|0,0:0|0:0,0:0:0:0:
189,37,213081,6,0,B|175:104|175:104|208:139|208:139|221:79,1,161.500003080368,4|0,0:0|0:0,0:0:0:0:
321,182,213339,1,8,0:0:0:0:
321,182,213426,2,0,B|326:144|326:144|321:135|321:135|332:61|332:61|299:28,1,161.500003080368,8|2,0:0|0:0,0:0:0:0:
427,142,213684,2,0,B|439:175|439:175|423:229,1,80.750001540184,8|2,0:0|0:0,0:0:0:0:
146,224,213943,5,2,0:0:0:0:
146,224,214029,2,0,B|125:187|125:187|156:47,1,161.500003080368,8|0,0:0|0:0,0:0:0:0:
150,70,214288,6,0,B|171:107|171:107|140:247,1,161.500003080368,2|0,0:0|0:0,0:0:0:0:
344,215,214546,38,0,B|323:178|323:178|354:38,1,161.500003080368,8|0,0:0|0:0,0:0:0:0:
348,61,214805,6,0,B|369:98|369:98|338:238,1,161.500003080368,2|0,0:0|0:0,0:0:0:0:
236,316,215063,38,0,B|252:256|252:256|239:221|239:221|256:161,1,161.500003080368,8|0,0:0|0:0,0:0:0:0:
255,161,215322,6,0,B|272:221|272:221|259:256|259:256|275:316,1,161.500003080368,2|8,0:0|0:0,0:0:0:0:
256,384,215581,5,8,0:0:0:0:
222,79,215753,1,2,0:0:0:0:
222,79,215839,2,0,B|255:61|255:61|388:104,1,161.500003080368,4|0,0:0|0:0,0:0:0:0:
164,176,216098,1,0,0:0:0:0:
164,176,216184,2,0,B|182:209|182:209|164:268,1,80.750001540184,8|0,0:0|0:0,0:0:0:0:
320,244,216357,2,0,L|327:140,1,80.750001540184,2|0,0:0|0:0,0:0:0:0:
420,190,216529,6,0,B|428:228|428:228|422:270|422:270|426:278|426:278|416:358,1,161.500003080368,4|0,0:3|0:0,0:0:0:0:
322,317,216788,1,2,0:0:0:0:
322,317,216874,2,0,B|311:344|311:344|287:364|241:356,1,80.750001540184,8|0,0:0|0:0,0:0:0:0:
261,163,217046,2,0,L|240:260,1,80.750001540184,2|0,0:0|0:0,0:0:0:0:
287,52,217219,5,4,0:3:0:0:
287,52,217305,2,0,B|238:38|208:62|208:62|208:57|208:57|174:80|122:68,1,161.500003080368,8|0,0:0|0:0,0:0:0:0:
384,87,217563,6,0,B|398:136|374:166|374:166|379:166|379:166|356:200|368:252,1,161.500003080368,2|0,0:0|0:0,0:0:0:0:
287,52,217822,38,0,B|238:66|208:42|208:42|208:47|208:47|174:24|122:36,1,161.500003080368,8|0,0:0|0:0,0:0:0:0:
384,87,218081,6,0,B|370:136|394:166|394:166|389:166|389:166|412:200|400:252,2,161.500003080368,2|8|2,0:0|0:0|0:0,0:0:0:0:
256,193,218512,5,2,0:0:0:0:
256,193,218598,2,0,B|232:200|232:200|215:207|184:200|184:200|168:183|168:183|137:175|116:182|116:182|99:195,1,161.500003080368,4|0,0:0|0:0,0:0:0:0:
28,240,218857,1,8,0:0:0:0:
28,240,218943,2,0,B|11:204|18:167|30:156,1,80.750001540184,8|0,0:0|0:0,0:0:0:0:
180,271,219115,2,0,B|197:307|190:344|178:355,1,80.750001540184,2|0,0:0|0:0,0:0:0:0:
13,337,219288,6,0,L|112:319,1,80.750001540184,4|0,0:3|0:0,0:0:0:0:
276,291,219460,2,0,L|375:273,1,80.750001540184,2|0,0:0|0:0,0:0:0:0:
466,293,219632,2,0,B|447:245|461:204|461:204|452:182|452:182|458:131,1,161.500003080368,8|0,0:0|0:0,0:0:0:0:
355,112,219891,2,0,B|364:177|364:177|352:200,1,80.750001540184,2|0,0:0|0:0,0:0:0:0:
131,196,220063,6,0,B|203:161|203:161|284:185,1,161.500003080368,8|0,0:0|0:0,0:0:0:0:
128,184,220322,6,0,B|200:149|200:149|281:173,1,161.500003080368,8|0,0:0|0:0,0:0:0:0:
128,172,220581,38,0,B|200:137|200:137|281:161,1,161.500003080368,8|0,0:0|0:0,0:0:0:0:
360,211,220839,6,0,P|390:233|445:223,1,80.750001540184,2|0,0:0|0:0,0:0:0:0:
485,50,221012,1,8,0:0:0:0:
439,34,221098,1,0,0:0:0:0:
391,43,221184,1,2,0:0:0:0:
352,72,221270,1,2,0:0:0:0:
331,116,221357,2,0,B|270:71|270:71|176:89|176:89|110:35,1,242.250004620552,4|0,0:0|0:0,0:0:0:0:
118,149,221701,6,0,B|122:191|122:191|91:233,1,80.750001540184,8|0,0:0|0:0,0:0:0:0:
196,326,221874,2,0,L|171:222,1,80.750001540184,2|0,0:0|0:0,0:0:0:0:
40,338,222046,1,4,0:3:0:0:
40,338,222132,2,0,B|76:319|76:319|120:328,1,80.750001540184,2|0,0:0|0:0,0:0:0:0:
343,278,222305,1,2,0:0:0:0:
343,278,222391,2,0,L|256:267,1,80.750001540184,8|0,0:0|0:0,0:0:0:0:
205,167,222563,2,0,P|249:184|299:167,1,80.750001540184,2|0,0:0|0:0,0:0:0:0:
440,106,222736,5,4,0:3:0:0:
430,111,222822,2,0,L|450:28,2,80.750001540184,8|0|0,0:0|0:0|0:0,0:0:0:0:
469,184,223081,2,0,B|433:198|433:198|390:185|390:185|385:190|385:190|338:207|338:207|307:193,1,161.500003080368,8|2,0:0|0:0,0:0:0:0:
237,197,223339,2,0,B|186:213|186:213|148:206,2,80.750001540184,2|0|0,0:0|0:0|0:0,0:0:0:0:
336,104,223598,5,2,0:0:0:0:
284,80,223684,1,2,0:0:0:0:
236,92,223770,1,2,0:0:0:0:
194,77,223857,2,0,B|161:80|161:80|137:96|137:96|103:99|103:99|63:89|63:89|96:68,1,161.500003080368,8|0,0:0|0:0,0:0:0:0:
360,312,224115,6,0,B|348:312|348:312|344:308|344:308|284:308|284:308|280:304|280:304|264:304,1,90.2499975900651,4|0,0:0|0:0,0:0:0:0:
268,232,224288,1,8,0:0:0:0:
200,260,224374,2,0,B|188:260|188:260|184:256|184:256|124:256|124:256|120:252|120:252|104:252,1,90.2499975900651,8|8,0:0|0:0,0:0:0:0:
360,312,224546,1,8,0:0:0:0:
360,312,224632,2,0,B|372:312|372:312|376:316|376:316|436:316|436:316|440:320|440:320|456:320,1,90.2499975900651,2|0,0:0|0:0,0:0:0:0:
452,56,224805,2,0,P|472:128|460:156,1,90.2499975900651,2|0,0:3|0:0,0:0:0:0:
324,64,224977,6,0,B|312:64|312:64|308:60|308:60|284:60|284:60|280:56|280:56|276:60|276:60|178:60|178:60|176:64|176:64|136:64,2,180.49999518013,2|8|2,0:0|0:0|0:0,0:0:0:0:
160,352,225494,6,0,B|120:352|104:316|104:316|104:280,1,90.2499975900651,4|0,0:3|0:0,0:0:0:0:
292,168,225667,1,8,0:0:0:0:
288,240,225753,2,0,B|288:280|252:296|252:296|216:296,1,90.2499975900651,8|0,0:0|0:0,0:0:0:0:
108,176,225926,1,8,0:0:0:0:
108,176,226012,2,0,B|148:176|164:212|164:212|164:248,1,90.2499975900651,2|0,0:0|0:0,0:0:0:0:
228,80,226184,2,0,B|228:104|228:104|232:108|232:108|232:144|232:144|236:148|236:148|236:184,1,90.2499975900651,2|0,0:3|0:0,0:0:0:0:
372,76,226357,6,0,B|372:148|372:148|392:192|392:192|392:216|392:216|388:220|388:220|392:224|392:224|392:264,2,180.49999518013,2|8|2,0:0|0:0|0:0,0:0:0:0:
284,24,226788,1,2,0:0:0:0:
228,80,226874,6,0,B|216:76|216:76|208:80|208:80|164:80|164:80|148:76|148:76|132:80,1,90.2499975900651,4|0,0:0|0:0,0:0:0:0:
16,220,227046,1,8,0:0:0:0:
72,272,227132,2,0,B|84:276|84:276|92:272|92:272|136:272|136:272|152:276|152:276|168:272,1,90.2499975900651,8|0,0:0|0:0,0:0:0:0:
328,248,227305,1,8,0:0:0:0:
272,304,227391,2,0,B|216:264|248:180|248:180|300:156,1,180.49999518013,2|2,0:0|0:3,0:0:0:0:
200,128,227650,1,8,0:0:0:0:
136,176,227736,6,0,B|124:164|124:164|124:104|124:104|128:96|128:96|128:36|128:36|124:28|124:28|124:68,2,180.49999518013,2|8|2,0:0|0:0|0:0,0:0:0:0:
356,316,228253,6,0,B|384:288|388:264|388:264|380:224,1,90.2499975900651,4|0,0:3|0:0,0:0:0:0:
204,272,228426,1,2,0:0:0:0:
204,272,228512,1,8,0:0:0:0:
204,272,228598,2,0,B|244:272|244:272|256:268|256:268|300:268,1,90.2499975900651,8|0,0:0|0:0,0:0:0:0:
344,104,228770,2,0,B|316:132|312:156|312:156|320:196,1,90.2499975900651,2|0,0:0|0:0,0:0:0:0:
192,184,228943,2,0,B|168:156|168:124|168:124|184:96,1,90.2499975900651,2|0,0:3|0:0,0:0:0:0:
400,172,229115,6,0,B|424:220|424:220|408:280|408:280|412:284|412:284|408:288|408:288|404:284|404:284|408:312|408:312|428:332,2,180.49999518013,2|8|2,0:0|0:0|0:0,0:0:0:0:
512,96,229546,1,2,0:0:0:0:
440,64,229632,6,0,B|380:80|380:80|344:68,1,90.2499975900651,4|0,0:0|0:0,0:0:0:0:
148,192,229805,1,8,0:0:0:0:
224,168,229891,2,0,B|284:152|284:152|320:164,1,90.2499975900651,8|0,0:0|0:0,0:0:0:0:
172,48,230063,1,8,0:0:0:0:
100,80,230150,2,0,B|44:104|44:104|41:101|41:101|56:144|56:144|40:192|40:192|48:228,1,180.49999518013,2|2,0:0|0:3,0:0:0:0:
96,296,230408,1,8,0:0:0:0:
152,348,230494,6,0,B|188:336|188:336|224:264|224:264|228:264|228:264|192:208,2,180.49999518013,2|8|2,0:0|0:0|0:0,0:0:0:0:
356,312,231012,6,0,B|420:312|420:312|440:296|440:296|444:296|444:296|444:292|444:292|456:276|456:276|456:204,1,180.49999518013,4|0,0:3|0:0,0:0:0:0:
324,140,231270,1,8,0:0:0:0:
388,96,231357,2,0,B|404:140|404:140|388:180,1,90.2499975900651,8|0,0:0|0:0,0:0:0:0:
260,180,231529,2,0,B|248:136|248:136|260:96|260:96|236:32|236:32|264:52,1,180.49999518013,2|2,0:0|0:3,0:0:0:0:
116,96,231788,1,8,0:0:0:0:
92,168,231874,6,0,B|76:212|76:212|84:240|84:240|76:316|76:316|56:292,2,180.49999518013,2|8|2,0:0|0:0|0:0,0:0:0:0:
192,104,232305,1,8,0:0:0:0:
236,168,232391,6,0,B|376:168|376:168|352:200,1,180.49999518013,4|0,0:0|0:0,0:0:0:0:
288,84,232650,1,8,0:0:0:0:
364,84,232736,2,0,B|428:84|428:84|456:56,1,90.2499975900651,8|0,0:0|0:0,0:0:0:0:
416,320,232908,2,0,B|352:308|352:308|296:320|296:320|240:308,1,180.49999518013,2|2,0:0|0:3,0:0:0:0:
152,176,233167,1,8,0:0:0:0:
116,244,233253,6,0,B|124:312|124:312|104:336,1,90.2499975900651,2|0,0:0|0:0,0:0:0:0:
48,160,233426,2,0,B|56:92|56:92|36:68,1,90.2499975900651,8|0,0:0|0:0,0:0:0:0:
232,208,233598,2,0,B|260:212|260:212|324:192,1,90.2499975900651,2|0,0:0|0:0,0:0:0:0:
452,52,233770,6,0,L|432:248,1,180.49999518013,4|0,0:3|0:0,0:0:0:0:
360,256,234029,1,8,0:0:0:0:
288,280,234115,2,0,B|280:352|280:352|304:376,1,90.2499975900651,8|0,0:0|0:0,0:0:0:0:
344,96,234288,6,0,B|300:132|260:112|260:112|232:156|160:144|160:144|96:204|120:128|152:200|88:160|152:152,1,270.749992770195,2|4,0:0|0:2,0:0:0:0:
28,36,234632,5,2,0:0:0:0:
32,52,234719,1,2,0:0:0:0:
36,68,234805,2,0,L|56:160,1,90.2499975900651,8|0,0:0|0:0,0:0:0:0:
88,272,234977,2,0,L|108:364,1,90.2499975900651,4|0,0:2|0:0,0:0:0:0:
192,296,235150,6,0,B|180:220|180:220|228:188|228:188|272:220|272:220|260:304,1,270.749992770195,4|8,0:0|0:0,0:0:0:0:
336,348,235494,2,0,L|428:336,1,90.2499975900651,8|0,0:0|0:0,0:0:0:0:
456,256,235667,6,0,B|488:220|472:168|472:168|468:172|468:172|512:128|480:60|480:60|436:96,1,270.749992770195,2|8,0:0|0:0,0:0:0:0:
368,52,236012,2,0,P|360:100|372:140,1,90.2499975900651,2|0,0:0|0:0,0:0:0:0:
164,184,236184,2,0,B|128:172|128:172|108:148|124:96,1,90.2499975900651,8|0,0:0|0:0,0:0:0:0:
276,180,236357,2,0,B|256:240|256:240|272:272,1,90.2499975900651,2|0,0:0|0:0,0:0:0:0:
200,40,236529,5,4,0:3:0:0:
384,280,236701,2,0,B|400:268|400:268|408:208|408:208|416:196,1,90.2499975900651,2|0,0:0|0:0,0:0:0:0:
340,372,236874,2,0,B|276:364|276:364|252:328,1,90.2499975900651,8|0,0:0|0:0,0:0:0:0:
144,104,237046,6,0,B|152:176|152:176|144:200|144:200|151:258|151:258|175:274|175:274|187:370,1,270.749992770195,2|8,0:0|0:0,0:0:0:0:
92,328,237391,2,0,B|56:296|56:296|4:304,1,90.2499975900651,2|0,0:0|0:0,0:0:0:0:
240,184,237563,2,0,L|356:212,1,90.2499975900651,8|0,0:0|0:0,0:0:0:0:
264,28,237736,2,0,B|284:92|284:92|332:108,1,90.2499975900651,2|0,0:0|0:0,0:0:0:0:
216,344,237908,6,0,B|208:268|208:268|172:248|172:248|164:160,1,180.49999518013,4|0,0:0|0:0,0:0:0:0:
160,60,238167,1,8,0:0:0:0:
84,36,238253,2,0,B|68:84|68:84|84:132,1,90.2499975900651,8|0,0:0|0:0,0:0:0:0:
108,328,238426,5,2,0:0:0:0:
39,360,238512,2,0,B|31:304|31:304|35:308|35:308|74:212|74:212|100:204,1,180.49999518013,8|0,0:0|0:0,0:0:0:0:
284,88,238770,2,0,B|268:132|268:132|216:160,1,90.2499975900651,2|0,0:0|0:0,0:0:0:0:
278,219,238943,2,0,B|368:208,1,90.2499975900651,2|0,0:3|0:0,0:0:0:0:
304,344,239115,2,0,B|260:328|260:328|239:289,1,90.2499975900651,2|0,0:0|0:0,0:0:0:0:
400,136,239288,6,0,B|440:172|440:172|456:244|420:276|420:276|384:284,1,180.49999518013,4|0,0:3|0:0,0:0:0:0:
320,88,239546,1,8,0:0:0:0:
292,160,239632,2,0,L|260:252,1,90.2499975900651,8|0,0:0|0:0,0:0:0:0:
204,48,239805,1,2,0:0:0:0:
204,48,239891,2,0,B|216:88|216:88|164:228,1,180.49999518013,8|8,0:0|0:0,0:0:0:0:
112,280,240150,2,0,B|152:300|152:300|204:292,1,90.2499975900651,2|0,0:0|0:0,0:0:0:0:
64,76,240322,2,0,L|96:176,1,90.2499975900651,2|0,0:3|0:0,0:0:0:0:
336,180,240494,2,0,B|284:172|252:208,1,90.2499975900651,2|0,0:0|0:0,0:0:0:0:
384,88,240667,6,0,B|432:116|432:116|440:192|440:192|400:248,1,180.49999518013,4|0,0:0|0:0,0:0:0:0:
192,252,240926,1,8,0:0:0:0:
184,172,241012,2,0,B|172:156|172:156|164:108|164:108|172:84,1,90.2499975900651,8|0,0:0|0:0,0:0:0:0:
348,292,241184,6,0,B|344:308|344:308|292:348|292:348|212:344|212:344|196:328,1,180.49999518013,2|0,0:0|0:0,0:0:0:0:
192,252,241443,1,8,0:0:0:0:
253,206,241529,2,0,B|293:190|293:190|316:132,1,90.2499975900651,2|0,0:0|0:0,0:0:0:0:
108,304,241701,2,0,L|4:320,1,90.2499975900651,8|0,0:1|0:0,0:0:0:0:
208,32,241874,1,2,0:0:0:0:
32,184,242046,6,0,B|64:216|120:200,1,90.2499975900651,4|0,0:3|0:0,0:0:0:0:
188,184,242219,1,8,0:0:0:0:
244,232,242305,2,0,B|289:232|317:181,1,90.2499975900651,8|0,0:0|0:0,0:0:0:0:
316,104,242477,1,8,0:0:0:0:
392,112,242563,2,0,B|423:80|407:24,1,90.2499975900651,2|0,0:0|0:0,0:0:0:0:
432,184,242736,6,0,B|436:227|436:227|440:230|440:230|437:233|437:233|441:278,1,90.2499975900651,6|0,0:3|0:0,0:0:0:0:
404,336,242908,1,2,0:0:0:0:
364,272,242994,1,2,0:0:0:0:
324,336,243081,2,0,B|308:352|280:348|280:348|260:332|264:304,1,90.2499975900651,2|0,0:3|0:0,0:0:0:0:
208,140,243253,2,0,B|192:124|164:128|164:128|144:144|148:172,1,90.2499975900651,2|0,0:0|0:0,0:0:0:0:
336,56,243426,6,0,B|324:112|324:112|320:116|320:116|324:120|324:120|300:232,1,180.49999518013,4|0,0:0|0:0,0:0:0:0:
168,296,243684,1,8,0:0:0:0:
92,312,243770,2,0,P|48:292|0:296,1,90.2499975900651,8|0,0:0|0:0,0:0:0:0:
256,344,243943,1,2,0:0:0:0:
256,344,244029,2,0,B|312:336|312:336|340:300|340:300|396:288|396:288|436:324,1,180.49999518013,0|8,0:0|0:0,0:0:0:0:
416,200,244288,1,2,0:0:0:0:
344,216,244374,1,2,0:0:0:0:
272,228,244460,2,0,B|260:196|260:196|276:124,1,90.2499975900651,2|0,0:3|0:0,0:0:0:0:
488,184,244632,2,0,L|472:312,1,90.2499975900651,2|0,0:0|0:0,0:0:0:0:
192,240,244805,6,0,B|180:208|180:208|192:148|192:148|181:84|181:84|208:60,1,180.49999518013,4|0,0:0|0:0,0:0:0:0:
264,32,245063,1,8,0:0:0:0:
268,112,245150,1,8,0:0:0:0:
32,192,245322,1,2,0:0:0:0:
32,192,245408,2,0,B|20:216|20:216|52:288|52:288|60:280|60:280|136:304,1,180.49999518013,8|0,0:0|0:0,0:0:0:0:
232,204,245667,1,2,0:0:0:0:
216,208,245753,1,2,0:0:0:0:
200,212,245839,2,0,B|156:164|156:164|164:116,1,90.2499975900651,8|0,0:0|0:0,0:0:0:0:
196,344,246012,6,0,P|248:348|276:324,1,90.2499975900651,8|0,0:0|0:0,0:0:0:0:
344,360,246184,1,4,0:0:0:0:
