osu file format v14

[General]
AudioFilename: audio.mp3
AudioLeadIn: 0
PreviewTime: 180165
Countdown: 0
SampleSet: None
StackLeniency: 0.7
Mode: 3
LetterboxInBreaks: 0
SpecialStyle: 0
WidescreenStoryboard: 0

[Editor]
Bookmarks: 14648,25682,47751,58786,64303,67062,69820,91889,113958,136027,158096,169131,174648,177407,180165,202234,224303,246372,249131
DistanceSpacing: 1
BeatDivisor: 4
GridSize: 32
TimelineZoom: 2.1

[Metadata]
Title:Invasion
TitleUnicode:Invasion
Artist:Andromedik
ArtistUnicode:Andromedik
Creator:Leniane
Version:From Outer Space
Source:
Tags:featured artist
BeatmapID:1757454
BeatmapSetID:839547

[Difficulty]
HPDrainRate:8
CircleSize:4
OverallDifficulty:8.8
ApproachRate:5
SliderMultiplier:1.4
SliderTickRate:1

[Events]
//Background and Video events
0,0,"invasionbg.jpg",0,0
//Break Periods
//Storyboard Layer 0 (Background)
//Storyboard Layer 1 (Fail)
//Storyboard Layer 2 (Pass)
//Storyboard Layer 3 (Foreground)
//Storyboard Sound Samples

[TimingPoints]
3614,344.827586206897,4,3,1,40,1,0
113958,-100,4,3,1,40,0,1
136027,-100,4,3,1,40,0,0
180165,-100,4,3,1,40,0,1
202234,-100,4,3,1,40,0,0
224303,-100,4,3,1,40,0,1
246372,-100,4,3,1,40,0,0

[HitObjects]
64,192,3613,5,0,0:0:0:0:
448,192,3613,1,0,0:0:0:0:
320,192,3872,1,0,0:0:0:0:
192,192,4131,1,0,0:0:0:0:
64,192,4303,1,0,0:0:0:0:
192,192,4562,1,0,0:0:0:0:
320,192,4820,1,0,0:0:0:0:
448,192,4993,1,0,0:0:0:0:
64,192,5251,1,0,0:0:0:0:
320,192,5510,1,0,0:0:0:0:
192,192,5682,1,0,0:0:0:0:
448,192,5941,1,0,0:0:0:0:
64,192,6200,1,0,0:0:0:0:
320,192,6372,1,0,0:0:0:0:
192,192,6631,1,0,0:0:0:0:
64,192,6889,1,0,0:0:0:0:
448,192,7062,1,0,0:0:0:0:
192,192,7320,1,0,0:0:0:0:
320,192,7579,1,0,0:0:0:0:
64,192,7751,1,0,0:0:0:0:
320,192,8010,1,0,0:0:0:0:
448,192,8269,1,0,0:0:0:0:
192,192,8441,1,0,0:0:0:0:
448,192,8700,1,0,0:0:0:0:
64,192,8958,1,0,0:0:0:0:
320,192,9131,1,0,0:0:0:0:
192,192,9389,1,0,0:0:0:0:
448,192,9648,1,0,0:0:0:0:
64,192,9820,1,0,0:0:0:0:
192,192,10079,1,0,0:0:0:0:
448,192,10338,1,0,0:0:0:0:
320,192,10510,1,0,0:0:0:0:
192,192,10769,1,0,0:0:0:0:
64,192,11027,1,0,0:0:0:0:
448,192,11200,1,0,0:0:0:0:
192,192,11458,1,0,0:0:0:0:
64,192,11717,1,0,0:0:0:0:
320,192,11889,1,0,0:0:0:0:
192,192,12148,1,0,0:0:0:0:
448,192,12407,1,0,0:0:0:0:
64,192,12579,1,0,0:0:0:0:
448,192,12838,1,0,0:0:0:0:
192,192,13096,1,0,0:0:0:0:
320,192,13269,1,0,0:0:0:0:
64,192,13527,1,0,0:0:0:0:
448,192,13786,1,0,0:0:0:0:
192,192,13958,1,0,0:0:0:0:
448,192,14217,1,0,0:0:0:0:
64,192,14476,1,0,0:0:0:0:
320,192,14648,1,0,0:0:0:0:
448,192,14648,1,0,0:0:0:0:
192,192,14907,1,0,0:0:0:0:
64,192,15165,1,0,0:0:0:0:
320,192,15338,128,0,15424:0:0:0:0:
64,192,15596,1,0,0:0:0:0:
320,192,15855,1,0,0:0:0:0:
448,192,16027,128,0,16114:0:0:0:0:
192,192,16286,1,0,0:0:0:0:
64,192,16545,1,0,0:0:0:0:
320,192,16717,128,0,16803:0:0:0:0:
64,192,16976,1,0,0:0:0:0:
320,192,17234,1,0,0:0:0:0:
64,192,17407,128,0,17493:0:0:0:0:
320,192,17665,1,0,0:0:0:0:
192,192,17924,1,0,0:0:0:0:
448,192,18096,128,0,18182:0:0:0:0:
64,192,18355,1,0,0:0:0:0:
448,192,18614,1,0,0:0:0:0:
192,192,18786,128,0,18872:0:0:0:0:
320,192,19045,1,0,0:0:0:0:
192,192,19303,1,0,0:0:0:0:
448,192,19476,128,0,19562:0:0:0:0:
64,192,19734,1,0,0:0:0:0:
448,192,19993,1,0,0:0:0:0:
320,192,20165,128,0,20251:0:0:0:0:
192,192,20424,1,0,0:0:0:0:
448,192,20682,1,0,0:0:0:0:
64,192,20855,128,0,20941:0:0:0:0:
320,192,21114,1,0,0:0:0:0:
64,192,21372,1,0,0:0:0:0:
448,192,21545,128,0,21631:0:0:0:0:
192,192,21803,1,0,0:0:0:0:
448,192,22062,1,0,0:0:0:0:
64,192,22234,128,0,22320:0:0:0:0:
320,192,22493,1,0,0:0:0:0:
64,192,22751,1,0,0:0:0:0:
448,192,22924,128,0,23010:0:0:0:0:
64,192,23182,1,0,0:0:0:0:
448,192,23441,1,0,0:0:0:0:
192,192,23614,128,0,23700:0:0:0:0:
320,192,23872,1,0,0:0:0:0:
192,192,24131,1,0,0:0:0:0:
320,192,24303,1,0,0:0:0:0:
448,192,24303,1,0,0:0:0:0:
64,192,24303,1,0,0:0:0:0:
64,192,24562,1,0,0:0:0:0:
448,192,24820,1,0,0:0:0:0:
64,192,24993,1,0,0:0:0:0:
192,192,24993,1,0,0:0:0:0:
320,192,24993,1,0,0:0:0:0:
320,192,25251,1,0,0:0:0:0:
192,192,25510,1,0,0:0:0:0:
448,192,25682,128,0,27062:0:0:0:0:
64,192,25682,1,0,0:0:0:0:
320,192,25682,1,0,0:0:0:0:
320,192,26200,1,0,0:0:0:0:
64,192,26372,1,0,0:0:0:0:
192,192,26372,1,0,0:0:0:0:
64,192,26717,1,0,0:0:0:0:
320,192,27579,1,0,0:0:0:0:
320,192,28096,1,0,0:0:0:0:
192,192,28958,1,0,0:0:0:0:
192,192,29476,1,0,0:0:0:0:
64,192,29820,1,0,0:0:0:0:
192,192,29820,1,0,0:0:0:0:
320,192,29820,1,0,0:0:0:0:
448,192,30338,1,0,0:0:0:0:
192,192,30510,1,0,0:0:0:0:
320,192,30510,1,0,0:0:0:0:
448,192,30510,1,0,0:0:0:0:
448,192,30855,1,0,0:0:0:0:
64,192,31200,128,0,32579:0:0:0:0:
320,192,31200,1,0,0:0:0:0:
448,192,31200,1,0,0:0:0:0:
320,192,31717,1,0,0:0:0:0:
192,192,31889,1,0,0:0:0:0:
448,192,31889,1,0,0:0:0:0:
448,192,32234,1,0,0:0:0:0:
320,192,33096,1,0,0:0:0:0:
320,192,33614,1,0,0:0:0:0:
192,192,34476,1,0,0:0:0:0:
192,192,34993,1,0,0:0:0:0:
192,192,35338,1,0,0:0:0:0:
320,192,35338,1,0,0:0:0:0:
64,192,35338,1,0,0:0:0:0:
64,192,35855,1,0,0:0:0:0:
64,192,36027,1,0,0:0:0:0:
192,192,36027,1,0,0:0:0:0:
448,192,36027,1,0,0:0:0:0:
64,192,36372,1,0,0:0:0:0:
192,192,36717,128,0,38096:0:0:0:0:
320,192,36717,1,0,0:0:0:0:
448,192,36717,1,0,0:0:0:0:
320,192,37234,1,0,0:0:0:0:
64,192,37407,1,0,0:0:0:0:
448,192,37407,1,0,0:0:0:0:
64,192,37751,1,0,0:0:0:0:
192,192,38614,1,0,0:0:0:0:
192,192,39131,1,0,0:0:0:0:
320,192,39993,1,0,0:0:0:0:
320,192,40510,1,0,0:0:0:0:
320,192,40855,1,0,0:0:0:0:
192,192,40855,1,0,0:0:0:0:
448,192,40855,1,0,0:0:0:0:
448,192,41372,1,0,0:0:0:0:
64,192,41545,1,0,0:0:0:0:
320,192,41545,1,0,0:0:0:0:
448,192,41545,1,0,0:0:0:0:
448,192,41889,1,0,0:0:0:0:
320,192,42234,128,0,43614:0:0:0:0:
192,192,42234,1,0,0:0:0:0:
64,192,42234,1,0,0:0:0:0:
64,192,42751,1,0,0:0:0:0:
448,192,42924,1,0,0:0:0:0:
192,192,42924,1,0,0:0:0:0:
448,192,43269,1,0,0:0:0:0:
192,192,44131,1,0,0:0:0:0:
192,192,44648,1,0,0:0:0:0:
320,192,45510,1,0,0:0:0:0:
320,192,46027,1,0,0:0:0:0:
192,192,46372,1,0,0:0:0:0:
320,192,46372,1,0,0:0:0:0:
448,192,46372,1,0,0:0:0:0:
64,192,46889,1,0,0:0:0:0:
64,192,47062,1,0,0:0:0:0:
192,192,47062,1,0,0:0:0:0:
320,192,47062,1,0,0:0:0:0:
64,192,47407,1,0,0:0:0:0:
448,192,47751,128,0,49131:0:0:0:0:
320,192,47751,1,0,0:0:0:0:
192,192,47751,128,0,47838:0:0:0:0:
64,192,48010,128,0,48096:0:0:0:0:
320,192,48269,128,0,48355:0:0:0:0:
64,192,48441,128,0,48527:0:0:0:0:
192,192,48441,1,0,0:0:0:0:
320,192,48700,128,0,48786:0:0:0:0:
192,192,48958,128,0,49045:0:0:0:0:
64,192,49131,128,0,49217:0:0:0:0:
448,192,49389,128,0,49476:0:0:0:0:
192,192,49648,128,0,49734:0:0:0:0:
448,192,49820,128,0,49907:0:0:0:0:
64,192,50079,128,0,50165:0:0:0:0:
320,192,50338,128,0,50424:0:0:0:0:
192,192,50510,128,0,50596:0:0:0:0:
448,192,50769,128,0,50855:0:0:0:0:
320,192,51027,128,0,51114:0:0:0:0:
64,192,51200,128,0,51286:0:0:0:0:
448,192,51458,128,0,51545:0:0:0:0:
192,192,51717,128,0,51803:0:0:0:0:
320,192,51889,128,0,51976:0:0:0:0:
64,192,52148,128,0,52234:0:0:0:0:
320,192,52407,128,0,52493:0:0:0:0:
448,192,52579,128,0,52665:0:0:0:0:
192,192,52838,128,0,52924:0:0:0:0:
448,192,53096,128,0,53182:0:0:0:0:
64,192,53269,128,0,54648:0:0:0:0:
192,192,53269,1,0,0:0:0:0:
320,192,53269,128,0,53355:0:0:0:0:
448,192,53527,128,0,53614:0:0:0:0:
192,192,53786,128,0,53872:0:0:0:0:
448,192,53958,128,0,54045:0:0:0:0:
320,192,53958,1,0,0:0:0:0:
192,192,54217,128,0,54303:0:0:0:0:
320,192,54476,128,0,54562:0:0:0:0:
448,192,54648,128,0,54734:0:0:0:0:
64,192,54907,128,0,54993:0:0:0:0:
320,192,55165,128,0,55251:0:0:0:0:
64,192,55338,128,0,55424:0:0:0:0:
448,192,55596,128,0,55682:0:0:0:0:
192,192,55855,128,0,55941:0:0:0:0:
320,192,56027,128,0,56114:0:0:0:0:
448,192,56114,1,0,0:0:0:0:
64,192,56286,128,0,56372:0:0:0:0:
320,192,56372,1,0,0:0:0:0:
192,192,56545,128,0,56631:0:0:0:0:
64,192,56631,1,0,0:0:0:0:
448,192,56717,128,0,56803:0:0:0:0:
192,192,56803,1,0,0:0:0:0:
64,192,56976,128,0,57062:0:0:0:0:
448,192,57062,1,0,0:0:0:0:
320,192,57234,128,0,57320:0:0:0:0:
64,192,57320,1,0,0:0:0:0:
192,192,57407,128,0,57493:0:0:0:0:
320,192,57493,1,0,0:0:0:0:
448,192,57665,128,0,57751:0:0:0:0:
192,192,57751,1,0,0:0:0:0:
192,192,57924,128,0,58010:0:0:0:0:
64,192,58096,128,0,58182:0:0:0:0:
320,192,58355,128,0,58441:0:0:0:0:
192,192,58614,128,0,58700:0:0:0:0:
64,192,58786,1,0,0:0:0:0:
320,192,58786,1,0,0:0:0:0:
448,192,58786,128,0,58872:0:0:0:0:
64,192,59045,128,0,59131:0:0:0:0:
192,192,59131,1,0,0:0:0:0:
320,192,59131,1,0,0:0:0:0:
320,192,59303,128,0,59389:0:0:0:0:
448,192,59476,1,0,0:0:0:0:
64,192,59476,128,0,59562:0:0:0:0:
448,192,59734,128,0,59820:0:0:0:0:
320,192,59820,1,0,0:0:0:0:
192,192,59820,1,0,0:0:0:0:
320,192,59993,128,0,60079:0:0:0:0:
448,192,60165,1,0,0:0:0:0:
192,192,60165,128,0,60251:0:0:0:0:
448,192,60424,128,0,60510:0:0:0:0:
64,192,60510,1,0,0:0:0:0:
320,192,60510,1,0,0:0:0:0:
64,192,60682,128,0,60769:0:0:0:0:
448,192,60855,1,0,0:0:0:0:
192,192,60855,128,0,60941:0:0:0:0:
448,192,61114,128,0,61200:0:0:0:0:
320,192,61200,1,0,0:0:0:0:
64,192,61200,1,0,0:0:0:0:
320,192,61372,128,0,61458:0:0:0:0:
192,192,61545,1,0,0:0:0:0:
64,192,61545,128,0,61631:0:0:0:0:
192,192,61803,128,0,61889:0:0:0:0:
320,192,61889,1,0,0:0:0:0:
448,192,61889,1,0,0:0:0:0:
448,192,62062,128,0,62148:0:0:0:0:
64,192,62234,1,0,0:0:0:0:
192,192,62234,128,0,62320:0:0:0:0:
64,192,62493,128,0,62579:0:0:0:0:
320,192,62579,1,0,0:0:0:0:
448,192,62579,1,0,0:0:0:0:
448,192,62751,128,0,62838:0:0:0:0:
192,192,62924,1,0,0:0:0:0:
320,192,62924,128,0,63010:0:0:0:0:
192,192,63182,128,0,63269:0:0:0:0:
64,192,63269,1,0,0:0:0:0:
448,192,63269,1,0,0:0:0:0:
64,192,63441,128,0,63527:0:0:0:0:
320,192,63614,1,0,0:0:0:0:
192,192,63614,128,0,63700:0:0:0:0:
320,192,63872,128,0,63958:0:0:0:0:
64,192,63958,1,0,0:0:0:0:
448,192,63958,1,0,0:0:0:0:
448,192,64131,128,0,64217:0:0:0:0:
64,192,64303,1,0,0:0:0:0:
320,192,64303,1,0,0:0:0:0:
64,192,64476,1,0,0:0:0:0:
192,192,64476,1,0,0:0:0:0:
192,192,64648,1,0,0:0:0:0:
448,192,64648,1,0,0:0:0:0:
320,192,64820,1,0,0:0:0:0:
448,192,64820,1,0,0:0:0:0:
64,192,64993,1,0,0:0:0:0:
320,192,64993,1,0,0:0:0:0:
64,192,65165,1,0,0:0:0:0:
192,192,65165,1,0,0:0:0:0:
192,192,65338,1,0,0:0:0:0:
448,192,65338,1,0,0:0:0:0:
448,192,65510,1,0,0:0:0:0:
320,192,65510,1,0,0:0:0:0:
64,192,65682,1,0,0:0:0:0:
192,192,65682,1,0,0:0:0:0:
192,192,65855,1,0,0:0:0:0:
448,192,65855,1,0,0:0:0:0:
320,192,66027,1,0,0:0:0:0:
448,192,66027,1,0,0:0:0:0:
320,192,66200,1,0,0:0:0:0:
64,192,66200,1,0,0:0:0:0:
192,192,66372,1,0,0:0:0:0:
64,192,66372,1,0,0:0:0:0:
192,192,66545,1,0,0:0:0:0:
448,192,66545,1,0,0:0:0:0:
320,192,66717,1,0,0:0:0:0:
448,192,66717,1,0,0:0:0:0:
320,192,66889,1,0,0:0:0:0:
64,192,66889,1,0,0:0:0:0:
448,192,67062,1,0,0:0:0:0:
64,192,67062,1,0,0:0:0:0:
320,192,67148,1,0,0:0:0:0:
448,192,67234,1,0,0:0:0:0:
192,192,67234,1,0,0:0:0:0:
64,192,67320,1,0,0:0:0:0:
192,192,67407,1,0,0:0:0:0:
320,192,67407,1,0,0:0:0:0:
448,192,67493,1,0,0:0:0:0:
320,192,67579,1,0,0:0:0:0:
64,192,67579,1,0,0:0:0:0:
192,192,67665,1,0,0:0:0:0:
448,192,67751,1,0,0:0:0:0:
64,192,67751,1,0,0:0:0:0:
320,192,67838,1,0,0:0:0:0:
448,192,67924,1,0,0:0:0:0:
192,192,67924,1,0,0:0:0:0:
64,192,68010,1,0,0:0:0:0:
192,192,68096,1,0,0:0:0:0:
320,192,68096,1,0,0:0:0:0:
448,192,68182,1,0,0:0:0:0:
64,192,68269,1,0,0:0:0:0:
192,192,68269,1,0,0:0:0:0:
320,192,68355,1,0,0:0:0:0:
192,192,68441,1,0,0:0:0:0:
448,192,68441,1,0,0:0:0:0:
64,192,68527,1,0,0:0:0:0:
448,192,68614,1,0,0:0:0:0:
320,192,68614,1,0,0:0:0:0:
192,192,68700,1,0,0:0:0:0:
320,192,68786,1,0,0:0:0:0:
64,192,68786,1,0,0:0:0:0:
448,192,68872,1,0,0:0:0:0:
64,192,68958,1,0,0:0:0:0:
192,192,68958,1,0,0:0:0:0:
320,192,69045,1,0,0:0:0:0:
448,192,69131,1,0,0:0:0:0:
64,192,69131,1,0,0:0:0:0:
192,192,69217,1,0,0:0:0:0:
64,192,69303,1,0,0:0:0:0:
320,192,69303,1,0,0:0:0:0:
64,192,69476,1,0,0:0:0:0:
448,192,69476,1,0,0:0:0:0:
320,192,69476,1,0,0:0:0:0:
320,192,69648,1,0,0:0:0:0:
192,192,69648,1,0,0:0:0:0:
64,192,69820,1,0,0:0:0:0:
448,192,69820,128,0,69907:0:0:0:0:
192,192,70079,128,0,70165:0:0:0:0:
64,192,70165,1,0,0:0:0:0:
320,192,70165,1,0,0:0:0:0:
448,192,70165,1,0,0:0:0:0:
64,192,70338,128,0,70424:0:0:0:0:
64,192,70510,128,0,70596:0:0:0:0:
192,192,70682,1,0,0:0:0:0:
320,192,70682,1,0,0:0:0:0:
64,192,70769,128,0,70855:0:0:0:0:
192,192,70855,1,0,0:0:0:0:
320,192,70855,1,0,0:0:0:0:
448,192,70855,1,0,0:0:0:0:
64,192,71027,128,0,71114:0:0:0:0:
448,192,71200,1,0,0:0:0:0:
192,192,71200,1,0,0:0:0:0:
64,192,71286,128,0,71372:0:0:0:0:
64,192,71545,128,0,71631:0:0:0:0:
320,192,71545,1,0,0:0:0:0:
448,192,71545,1,0,0:0:0:0:
64,192,71803,128,0,71889:0:0:0:0:
64,192,72062,128,0,72148:0:0:0:0:
448,192,72062,1,0,0:0:0:0:
64,192,72234,128,0,72320:0:0:0:0:
192,192,72234,1,0,0:0:0:0:
320,192,72234,1,0,0:0:0:0:
448,192,72407,128,0,72493:0:0:0:0:
192,192,72493,128,0,72579:0:0:0:0:
320,192,72579,128,0,72665:0:0:0:0:
64,192,72579,1,0,0:0:0:0:
64,192,72838,128,0,72924:0:0:0:0:
192,192,72924,1,0,0:0:0:0:
448,192,72924,1,0,0:0:0:0:
320,192,72924,1,0,0:0:0:0:
192,192,73096,128,0,73182:0:0:0:0:
192,192,73269,128,0,73355:0:0:0:0:
64,192,73441,1,0,0:0:0:0:
448,192,73441,1,0,0:0:0:0:
192,192,73527,128,0,73614:0:0:0:0:
64,192,73614,1,0,0:0:0:0:
320,192,73614,1,0,0:0:0:0:
448,192,73614,1,0,0:0:0:0:
192,192,73786,128,0,73872:0:0:0:0:
320,192,73958,1,0,0:0:0:0:
448,192,73958,1,0,0:0:0:0:
192,192,74045,128,0,74131:0:0:0:0:
192,192,74303,128,0,74389:0:0:0:0:
64,192,74303,1,0,0:0:0:0:
320,192,74303,1,0,0:0:0:0:
192,192,74562,128,0,74648:0:0:0:0:
192,192,74820,128,0,74907:0:0:0:0:
320,192,74820,1,0,0:0:0:0:
192,192,74993,128,0,75079:0:0:0:0:
448,192,74993,1,0,0:0:0:0:
64,192,74993,1,0,0:0:0:0:
320,192,75165,128,0,75251:0:0:0:0:
448,192,75251,128,0,75338:0:0:0:0:
64,192,75338,128,0,75424:0:0:0:0:
320,192,75338,1,0,0:0:0:0:
320,192,75596,128,0,75682:0:0:0:0:
192,192,75682,1,0,0:0:0:0:
64,192,75682,1,0,0:0:0:0:
448,192,75682,1,0,0:0:0:0:
448,192,75855,128,0,75941:0:0:0:0:
448,192,76027,128,0,76114:0:0:0:0:
64,192,76200,1,0,0:0:0:0:
320,192,76200,1,0,0:0:0:0:
448,192,76286,128,0,76372:0:0:0:0:
320,192,76372,1,0,0:0:0:0:
192,192,76372,1,0,0:0:0:0:
64,192,76372,1,0,0:0:0:0:
448,192,76545,128,0,76631:0:0:0:0:
192,192,76717,1,0,0:0:0:0:
320,192,76717,1,0,0:0:0:0:
448,192,76803,128,0,76889:0:0:0:0:
448,192,77062,128,0,77148:0:0:0:0:
64,192,77062,1,0,0:0:0:0:
320,192,77062,1,0,0:0:0:0:
448,192,77320,128,0,77407:0:0:0:0:
448,192,77579,128,0,77665:0:0:0:0:
64,192,77579,1,0,0:0:0:0:
192,192,77579,1,0,0:0:0:0:
448,192,77751,128,0,77838:0:0:0:0:
192,192,77751,1,0,0:0:0:0:
320,192,77751,1,0,0:0:0:0:
64,192,77924,128,0,78010:0:0:0:0:
320,192,78010,128,0,78096:0:0:0:0:
192,192,78096,128,0,78182:0:0:0:0:
64,192,78096,1,0,0:0:0:0:
64,192,78355,128,0,78441:0:0:0:0:
192,192,78441,1,0,0:0:0:0:
320,192,78441,1,0,0:0:0:0:
448,192,78441,1,0,0:0:0:0:
320,192,78614,128,0,78700:0:0:0:0:
320,192,78786,128,0,78872:0:0:0:0:
448,192,78958,1,0,0:0:0:0:
64,192,78958,1,0,0:0:0:0:
320,192,79045,128,0,79131:0:0:0:0:
64,192,79131,1,0,0:0:0:0:
192,192,79131,1,0,0:0:0:0:
448,192,79131,1,0,0:0:0:0:
320,192,79303,128,0,79389:0:0:0:0:
192,192,79476,1,0,0:0:0:0:
448,192,79476,1,0,0:0:0:0:
320,192,79562,128,0,79648:0:0:0:0:
320,192,79820,128,0,79907:0:0:0:0:
64,192,79820,1,0,0:0:0:0:
448,192,79820,1,0,0:0:0:0:
448,192,79993,1,0,0:0:0:0:
192,192,79993,1,0,0:0:0:0:
64,192,80079,128,0,80165:0:0:0:0:
64,192,80338,128,0,80424:0:0:0:0:
320,192,80338,1,0,0:0:0:0:
320,192,80424,1,0,0:0:0:0:
192,192,80424,1,0,0:0:0:0:
448,192,80510,1,0,0:0:0:0:
192,192,80510,1,0,0:0:0:0:
320,192,80510,1,0,0:0:0:0:
64,192,80596,128,0,80682:0:0:0:0:
448,192,80855,128,0,80941:0:0:0:0:
320,192,80855,1,0,0:0:0:0:
320,192,81114,128,0,81200:0:0:0:0:
64,192,81200,1,0,0:0:0:0:
192,192,81200,1,0,0:0:0:0:
448,192,81200,1,0,0:0:0:0:
64,192,81372,128,0,81458:0:0:0:0:
64,192,81545,128,0,81631:0:0:0:0:
192,192,81717,1,0,0:0:0:0:
320,192,81717,1,0,0:0:0:0:
64,192,81803,128,0,81889:0:0:0:0:
192,192,81889,1,0,0:0:0:0:
320,192,81889,1,0,0:0:0:0:
448,192,81889,1,0,0:0:0:0:
64,192,82062,128,0,82148:0:0:0:0:
320,192,82234,1,0,0:0:0:0:
448,192,82234,1,0,0:0:0:0:
64,192,82320,128,0,82407:0:0:0:0:
64,192,82579,128,0,82665:0:0:0:0:
320,192,82579,1,0,0:0:0:0:
192,192,82579,1,0,0:0:0:0:
64,192,82838,128,0,82924:0:0:0:0:
64,192,83096,128,0,83182:0:0:0:0:
192,192,83096,1,0,0:0:0:0:
448,192,83096,1,0,0:0:0:0:
64,192,83269,128,0,83355:0:0:0:0:
320,192,83269,1,0,0:0:0:0:
448,192,83269,1,0,0:0:0:0:
192,192,83441,128,0,83527:0:0:0:0:
448,192,83527,128,0,83614:0:0:0:0:
64,192,83614,128,0,83700:0:0:0:0:
192,192,83614,1,0,0:0:0:0:
192,192,83872,128,0,83958:0:0:0:0:
320,192,83958,1,0,0:0:0:0:
448,192,83958,1,0,0:0:0:0:
64,192,83958,1,0,0:0:0:0:
448,192,84131,128,0,84217:0:0:0:0:
448,192,84303,128,0,84389:0:0:0:0:
64,192,84476,1,0,0:0:0:0:
320,192,84476,1,0,0:0:0:0:
448,192,84562,128,0,84648:0:0:0:0:
320,192,84648,1,0,0:0:0:0:
192,192,84648,1,0,0:0:0:0:
64,192,84648,1,0,0:0:0:0:
448,192,84820,128,0,84907:0:0:0:0:
192,192,84993,1,0,0:0:0:0:
320,192,84993,1,0,0:0:0:0:
448,192,85079,128,0,85165:0:0:0:0:
448,192,85338,128,0,85424:0:0:0:0:
192,192,85338,1,0,0:0:0:0:
64,192,85338,1,0,0:0:0:0:
448,192,85596,128,0,85682:0:0:0:0:
448,192,85855,128,0,85941:0:0:0:0:
192,192,85855,1,0,0:0:0:0:
64,192,85855,1,0,0:0:0:0:
448,192,86027,128,0,86114:0:0:0:0:
192,192,86027,1,0,0:0:0:0:
320,192,86027,1,0,0:0:0:0:
64,192,86200,128,0,86286:0:0:0:0:
192,192,86286,128,0,86372:0:0:0:0:
320,192,86372,128,0,86458:0:0:0:0:
64,192,86372,1,0,0:0:0:0:
64,192,86631,128,0,86717:0:0:0:0:
192,192,86717,1,0,0:0:0:0:
320,192,86717,1,0,0:0:0:0:
448,192,86717,1,0,0:0:0:0:
192,192,86889,128,0,86976:0:0:0:0:
192,192,87062,128,0,87148:0:0:0:0:
448,192,87234,1,0,0:0:0:0:
64,192,87234,1,0,0:0:0:0:
192,192,87320,128,0,87407:0:0:0:0:
320,192,87407,1,0,0:0:0:0:
448,192,87407,1,0,0:0:0:0:
64,192,87407,1,0,0:0:0:0:
192,192,87579,128,0,87665:0:0:0:0:
320,192,87751,1,0,0:0:0:0:
64,192,87751,1,0,0:0:0:0:
192,192,87838,128,0,87924:0:0:0:0:
192,192,88096,128,0,88182:0:0:0:0:
64,192,88096,1,0,0:0:0:0:
448,192,88096,1,0,0:0:0:0:
192,192,88355,128,0,88441:0:0:0:0:
192,192,88614,128,0,88700:0:0:0:0:
320,192,88614,1,0,0:0:0:0:
448,192,88614,1,0,0:0:0:0:
192,192,88786,128,0,88872:0:0:0:0:
320,192,88786,1,0,0:0:0:0:
64,192,88786,1,0,0:0:0:0:
448,192,88958,128,0,89045:0:0:0:0:
320,192,89045,128,0,89131:0:0:0:0:
192,192,89131,128,0,89217:0:0:0:0:
448,192,89131,1,0,0:0:0:0:
448,192,89389,128,0,89476:0:0:0:0:
320,192,89476,1,0,0:0:0:0:
192,192,89476,1,0,0:0:0:0:
64,192,89476,1,0,0:0:0:0:
320,192,89648,128,0,89734:0:0:0:0:
320,192,89820,128,0,89907:0:0:0:0:
192,192,89993,1,0,0:0:0:0:
448,192,89993,1,0,0:0:0:0:
320,192,90079,128,0,90165:0:0:0:0:
64,192,90165,1,0,0:0:0:0:
192,192,90165,1,0,0:0:0:0:
448,192,90165,1,0,0:0:0:0:
320,192,90338,128,0,90424:0:0:0:0:
448,192,90510,1,0,0:0:0:0:
64,192,90510,1,0,0:0:0:0:
320,192,90596,128,0,90682:0:0:0:0:
320,192,90855,128,0,90941:0:0:0:0:
192,192,90855,1,0,0:0:0:0:
448,192,90855,1,0,0:0:0:0:
192,192,91027,1,0,0:0:0:0:
64,192,91027,1,0,0:0:0:0:
448,192,91114,128,0,91200:0:0:0:0:
448,192,91372,128,0,91458:0:0:0:0:
192,192,91372,1,0,0:0:0:0:
320,192,91458,1,0,0:0:0:0:
192,192,91458,1,0,0:0:0:0:
64,192,91545,1,0,0:0:0:0:
192,192,91545,1,0,0:0:0:0:
320,192,91545,1,0,0:0:0:0:
448,192,91631,128,0,91717:0:0:0:0:
64,192,91889,128,0,91976:0:0:0:0:
448,192,91889,1,0,0:0:0:0:
320,192,92148,128,0,92234:0:0:0:0:
448,192,92234,1,0,0:0:0:0:
192,192,92234,1,0,0:0:0:0:
64,192,92234,1,0,0:0:0:0:
448,192,92407,128,0,92493:0:0:0:0:
192,192,92579,128,0,92665:0:0:0:0:
64,192,92751,1,0,0:0:0:0:
448,192,92751,1,0,0:0:0:0:
192,192,92838,128,0,92924:0:0:0:0:
320,192,92924,1,0,0:0:0:0:
448,192,92924,1,0,0:0:0:0:
64,192,92924,1,0,0:0:0:0:
448,192,93096,128,0,93182:0:0:0:0:
320,192,93269,1,0,0:0:0:0:
192,192,93269,1,0,0:0:0:0:
448,192,93355,128,0,93441:0:0:0:0:
192,192,93614,128,0,93700:0:0:0:0:
320,192,93614,1,0,0:0:0:0:
64,192,93614,1,0,0:0:0:0:
192,192,93872,128,0,93958:0:0:0:0:
448,192,94131,128,0,94217:0:0:0:0:
320,192,94131,1,0,0:0:0:0:
448,192,94303,128,0,94389:0:0:0:0:
192,192,94303,1,0,0:0:0:0:
64,192,94303,1,0,0:0:0:0:
320,192,94476,128,0,94562:0:0:0:0:
64,192,94562,128,0,94648:0:0:0:0:
192,192,94648,128,0,94734:0:0:0:0:
320,192,94648,1,0,0:0:0:0:
448,192,94907,128,0,94993:0:0:0:0:
320,192,94993,1,0,0:0:0:0:
192,192,94993,1,0,0:0:0:0:
64,192,94993,1,0,0:0:0:0:
320,192,95165,128,0,95251:0:0:0:0:
64,192,95338,128,0,95424:0:0:0:0:
192,192,95510,1,0,0:0:0:0:
448,192,95510,1,0,0:0:0:0:
64,192,95596,128,0,95682:0:0:0:0:
192,192,95682,1,0,0:0:0:0:
320,192,95682,1,0,0:0:0:0:
448,192,95682,1,0,0:0:0:0:
320,192,95855,128,0,95941:0:0:0:0:
192,192,96027,1,0,0:0:0:0:
64,192,96027,1,0,0:0:0:0:
320,192,96114,128,0,96200:0:0:0:0:
64,192,96372,128,0,96458:0:0:0:0:
192,192,96372,1,0,0:0:0:0:
448,192,96372,1,0,0:0:0:0:
64,192,96631,128,0,96717:0:0:0:0:
320,192,96889,128,0,96976:0:0:0:0:
448,192,96889,1,0,0:0:0:0:
320,192,97062,128,0,97148:0:0:0:0:
192,192,97062,1,0,0:0:0:0:
448,192,97062,1,0,0:0:0:0:
64,192,97234,128,0,97320:0:0:0:0:
192,192,97320,128,0,97407:0:0:0:0:
448,192,97407,128,0,97493:0:0:0:0:
64,192,97407,1,0,0:0:0:0:
320,192,97665,128,0,97751:0:0:0:0:
192,192,97751,1,0,0:0:0:0:
64,192,97751,1,0,0:0:0:0:
448,192,97751,1,0,0:0:0:0:
64,192,97924,128,0,98010:0:0:0:0:
192,192,98096,128,0,98182:0:0:0:0:
448,192,98269,1,0,0:0:0:0:
64,192,98269,1,0,0:0:0:0:
192,192,98355,128,0,98441:0:0:0:0:
320,192,98441,1,0,0:0:0:0:
448,192,98441,1,0,0:0:0:0:
64,192,98441,1,0,0:0:0:0:
64,192,98614,128,0,98700:0:0:0:0:
192,192,98786,1,0,0:0:0:0:
448,192,98786,1,0,0:0:0:0:
64,192,98872,128,0,98958:0:0:0:0:
192,192,99131,128,0,99217:0:0:0:0:
320,192,99131,1,0,0:0:0:0:
448,192,99131,1,0,0:0:0:0:
192,192,99389,128,0,99476:0:0:0:0:
64,192,99648,128,0,99734:0:0:0:0:
320,192,99648,1,0,0:0:0:0:
448,192,99648,1,0,0:0:0:0:
64,192,99820,128,0,99907:0:0:0:0:
192,192,99820,1,0,0:0:0:0:
320,192,99820,1,0,0:0:0:0:
448,192,99993,128,0,100079:0:0:0:0:
192,192,100079,128,0,100165:0:0:0:0:
320,192,100165,128,0,100251:0:0:0:0:
448,192,100165,1,0,0:0:0:0:
192,192,100424,128,0,100510:0:0:0:0:
64,192,100510,1,0,0:0:0:0:
320,192,100510,1,0,0:0:0:0:
448,192,100510,1,0,0:0:0:0:
448,192,100682,128,0,100769:0:0:0:0:
64,192,100855,128,0,100941:0:0:0:0:
192,192,101027,1,0,0:0:0:0:
448,192,101027,1,0,0:0:0:0:
64,192,101114,128,0,101200:0:0:0:0:
192,192,101200,1,0,0:0:0:0:
320,192,101200,1,0,0:0:0:0:
448,192,101200,1,0,0:0:0:0:
448,192,101372,128,0,101458:0:0:0:0:
320,192,101545,1,0,0:0:0:0:
192,192,101545,1,0,0:0:0:0:
448,192,101631,128,0,101717:0:0:0:0:
64,192,101889,128,0,101976:0:0:0:0:
192,192,101889,1,0,0:0:0:0:
448,192,101889,1,0,0:0:0:0:
192,192,102062,1,0,0:0:0:0:
448,192,102062,1,0,0:0:0:0:
320,192,102148,128,0,102234:0:0:0:0:
320,192,102407,128,0,102493:0:0:0:0:
64,192,102407,1,0,0:0:0:0:
192,192,102493,1,0,0:0:0:0:
64,192,102493,1,0,0:0:0:0:
192,192,102579,1,0,0:0:0:0:
64,192,102579,1,0,0:0:0:0:
448,192,102579,1,0,0:0:0:0:
320,192,102665,128,0,102751:0:0:0:0:
448,192,102924,128,0,103010:0:0:0:0:
64,192,102924,1,0,0:0:0:0:
192,192,103182,128,0,103269:0:0:0:0:
320,192,103269,1,0,0:0:0:0:
448,192,103269,1,0,0:0:0:0:
64,192,103269,1,0,0:0:0:0:
64,192,103441,128,0,103527:0:0:0:0:
320,192,103614,128,0,103700:0:0:0:0:
64,192,103786,1,0,0:0:0:0:
448,192,103786,1,0,0:0:0:0:
320,192,103872,128,0,103958:0:0:0:0:
192,192,103958,1,0,0:0:0:0:
64,192,103958,1,0,0:0:0:0:
448,192,103958,1,0,0:0:0:0:
64,192,104131,128,0,104217:0:0:0:0:
320,192,104303,1,0,0:0:0:0:
448,192,104303,1,0,0:0:0:0:
64,192,104389,128,0,104476:0:0:0:0:
320,192,104648,128,0,104734:0:0:0:0:
64,192,104648,1,0,0:0:0:0:
192,192,104648,1,0,0:0:0:0:
320,192,104907,128,0,104993:0:0:0:0:
64,192,105165,128,0,105251:0:0:0:0:
192,192,105165,1,0,0:0:0:0:
448,192,105165,1,0,0:0:0:0:
64,192,105338,128,0,105424:0:0:0:0:
320,192,105338,1,0,0:0:0:0:
448,192,105338,1,0,0:0:0:0:
192,192,105510,128,0,105596:0:0:0:0:
448,192,105596,128,0,105682:0:0:0:0:
320,192,105682,128,0,105769:0:0:0:0:
192,192,105682,1,0,0:0:0:0:
64,192,105941,128,0,106027:0:0:0:0:
320,192,106027,1,0,0:0:0:0:
192,192,106027,1,0,0:0:0:0:
448,192,106027,1,0,0:0:0:0:
192,192,106200,128,0,106286:0:0:0:0:
448,192,106372,128,0,106458:0:0:0:0:
320,192,106545,1,0,0:0:0:0:
64,192,106545,1,0,0:0:0:0:
448,192,106631,128,0,106717:0:0:0:0:
320,192,106717,1,0,0:0:0:0:
64,192,106717,1,0,0:0:0:0:
192,192,106717,1,0,0:0:0:0:
192,192,106889,128,0,106976:0:0:0:0:
64,192,107062,1,0,0:0:0:0:
448,192,107062,1,0,0:0:0:0:
192,192,107148,128,0,107234:0:0:0:0:
448,192,107407,128,0,107493:0:0:0:0:
192,192,107407,1,0,0:0:0:0:
64,192,107407,1,0,0:0:0:0:
448,192,107665,128,0,107751:0:0:0:0:
192,192,107924,128,0,108010:0:0:0:0:
448,192,107924,1,0,0:0:0:0:
192,192,108096,128,0,108182:0:0:0:0:
64,192,108096,1,0,0:0:0:0:
320,192,108096,1,0,0:0:0:0:
448,192,108269,128,0,108355:0:0:0:0:
320,192,108355,128,0,108441:0:0:0:0:
64,192,108441,128,0,108527:0:0:0:0:
448,192,108441,1,0,0:0:0:0:
192,192,108700,128,0,108786:0:0:0:0:
320,192,108786,1,0,0:0:0:0:
448,192,108786,1,0,0:0:0:0:
64,192,108786,1,0,0:0:0:0:
448,192,108958,128,0,109045:0:0:0:0:
320,192,109131,128,0,109217:0:0:0:0:
64,192,109303,1,0,0:0:0:0:
192,192,109303,1,0,0:0:0:0:
320,192,109389,128,0,109476:0:0:0:0:
192,192,109476,1,0,0:0:0:0:
64,192,109476,1,0,0:0:0:0:
448,192,109476,1,0,0:0:0:0:
448,192,109648,128,0,109734:0:0:0:0:
320,192,109820,1,0,0:0:0:0:
192,192,109820,1,0,0:0:0:0:
448,192,109907,128,0,109993:0:0:0:0:
320,192,110165,128,0,110251:0:0:0:0:
192,192,110165,1,0,0:0:0:0:
64,192,110165,1,0,0:0:0:0:
320,192,110424,128,0,110510:0:0:0:0:
448,192,110682,128,0,110769:0:0:0:0:
64,192,110682,1,0,0:0:0:0:
320,192,110682,1,0,0:0:0:0:
448,192,110855,128,0,110941:0:0:0:0:
192,192,110855,1,0,0:0:0:0:
320,192,110855,1,0,0:0:0:0:
64,192,111027,128,0,111114:0:0:0:0:
320,192,111114,128,0,111200:0:0:0:0:
192,192,111200,128,0,111286:0:0:0:0:
64,192,111200,1,0,0:0:0:0:
320,192,111458,128,0,111545:0:0:0:0:
192,192,111545,1,0,0:0:0:0:
64,192,111545,1,0,0:0:0:0:
448,192,111545,1,0,0:0:0:0:
64,192,111717,128,0,111803:0:0:0:0:
448,192,111889,128,0,111976:0:0:0:0:
320,192,112062,1,0,0:0:0:0:
192,192,112062,1,0,0:0:0:0:
448,192,112148,128,0,112234:0:0:0:0:
320,192,112234,1,0,0:0:0:0:
192,192,112234,1,0,0:0:0:0:
64,192,112234,1,0,0:0:0:0:
64,192,112407,128,0,112493:0:0:0:0:
192,192,112579,1,0,0:0:0:0:
448,192,112579,1,0,0:0:0:0:
64,192,112665,128,0,112751:0:0:0:0:
448,192,112924,128,0,113010:0:0:0:0:
320,192,112924,1,0,0:0:0:0:
192,192,112924,1,0,0:0:0:0:
320,192,113096,1,0,0:0:0:0:
64,192,113096,1,0,0:0:0:0:
192,192,113182,128,0,113269:0:0:0:0:
192,192,113441,128,0,113527:0:0:0:0:
448,192,113441,1,0,0:0:0:0:
320,192,113527,1,0,0:0:0:0:
448,192,113527,1,0,0:0:0:0:
64,192,113614,1,0,0:0:0:0:
320,192,113614,1,0,0:0:0:0:
448,192,113614,1,0,0:0:0:0:
192,192,113700,128,0,113786:0:0:0:0:
448,192,113958,128,0,114045:0:0:0:0:
320,192,113958,1,0,0:0:0:0:
192,192,114131,1,0,0:0:0:0:
64,192,114217,128,0,114303:0:0:0:0:
192,192,114303,1,0,0:0:0:0:
320,192,114303,1,0,0:0:0:0:
448,192,114303,1,0,0:0:0:0:
320,192,114476,128,0,114562:0:0:0:0:
192,192,114648,1,0,0:0:0:0:
320,192,114820,128,0,114907:0:0:0:0:
64,192,114820,1,0,0:0:0:0:
192,192,114993,1,0,0:0:0:0:
64,192,114993,1,0,0:0:0:0:
448,192,114993,1,0,0:0:0:0:
192,192,115165,128,0,115251:0:0:0:0:
64,192,115338,128,0,115424:0:0:0:0:
448,192,115338,1,0,0:0:0:0:
320,192,115510,1,0,0:0:0:0:
448,192,115596,128,0,115682:0:0:0:0:
320,192,115682,1,0,0:0:0:0:
64,192,115682,1,0,0:0:0:0:
192,192,115682,1,0,0:0:0:0:
192,192,115855,128,0,115941:0:0:0:0:
448,192,116027,1,0,0:0:0:0:
192,192,116200,128,0,116286:0:0:0:0:
64,192,116200,1,0,0:0:0:0:
448,192,116372,1,0,0:0:0:0:
320,192,116372,1,0,0:0:0:0:
64,192,116372,1,0,0:0:0:0:
320,192,116545,128,0,116631:0:0:0:0:
192,192,116717,128,0,116803:0:0:0:0:
448,192,116717,1,0,0:0:0:0:
320,192,116889,1,0,0:0:0:0:
448,192,116976,128,0,117062:0:0:0:0:
320,192,117062,1,0,0:0:0:0:
192,192,117062,1,0,0:0:0:0:
64,192,117062,1,0,0:0:0:0:
64,192,117234,128,0,117320:0:0:0:0:
448,192,117407,1,0,0:0:0:0:
64,192,117579,128,0,117665:0:0:0:0:
320,192,117579,1,0,0:0:0:0:
192,192,117751,1,0,0:0:0:0:
320,192,117751,1,0,0:0:0:0:
448,192,117751,1,0,0:0:0:0:
448,192,117924,128,0,118010:0:0:0:0:
320,192,118096,128,0,118182:0:0:0:0:
64,192,118096,1,0,0:0:0:0:
192,192,118269,1,0,0:0:0:0:
64,192,118355,128,0,118441:0:0:0:0:
192,192,118441,1,0,0:0:0:0:
320,192,118441,1,0,0:0:0:0:
448,192,118441,1,0,0:0:0:0:
448,192,118614,128,0,118700:0:0:0:0:
64,192,118786,1,0,0:0:0:0:
448,192,118958,128,0,119045:0:0:0:0:
192,192,118958,1,0,0:0:0:0:
320,192,119131,1,0,0:0:0:0:
192,192,119131,1,0,0:0:0:0:
64,192,119131,1,0,0:0:0:0:
320,192,119303,128,0,119389:0:0:0:0:
64,192,119476,128,0,119562:0:0:0:0:
448,192,119476,1,0,0:0:0:0:
320,192,119648,1,0,0:0:0:0:
448,192,119734,128,0,119820:0:0:0:0:
320,192,119820,1,0,0:0:0:0:
192,192,119820,1,0,0:0:0:0:
64,192,119820,1,0,0:0:0:0:
192,192,119993,128,0,120079:0:0:0:0:
64,192,120165,1,0,0:0:0:0:
192,192,120338,128,0,120424:0:0:0:0:
448,192,120338,1,0,0:0:0:0:
320,192,120510,1,0,0:0:0:0:
448,192,120510,1,0,0:0:0:0:
64,192,120510,1,0,0:0:0:0:
320,192,120682,128,0,120769:0:0:0:0:
448,192,120855,128,0,120941:0:0:0:0:
64,192,120855,1,0,0:0:0:0:
192,192,121027,1,0,0:0:0:0:
64,192,121114,128,0,121200:0:0:0:0:
320,192,121200,1,0,0:0:0:0:
448,192,121200,1,0,0:0:0:0:
192,192,121200,1,0,0:0:0:0:
320,192,121372,128,0,121458:0:0:0:0:
192,192,121545,1,0,0:0:0:0:
320,192,121717,128,0,121803:0:0:0:0:
64,192,121717,1,0,0:0:0:0:
448,192,121889,1,0,0:0:0:0:
192,192,121889,1,0,0:0:0:0:
64,192,121889,1,0,0:0:0:0:
192,192,122062,128,0,122148:0:0:0:0:
320,192,122234,128,0,122320:0:0:0:0:
448,192,122234,1,0,0:0:0:0:
192,192,122407,1,0,0:0:0:0:
64,192,122493,128,0,122579:0:0:0:0:
192,192,122579,1,0,0:0:0:0:
448,192,122579,1,0,0:0:0:0:
320,192,122579,1,0,0:0:0:0:
448,192,122751,128,0,122838:0:0:0:0:
64,192,122924,1,0,0:0:0:0:
448,192,123096,128,0,123182:0:0:0:0:
192,192,123096,1,0,0:0:0:0:
320,192,123269,1,0,0:0:0:0:
192,192,123269,1,0,0:0:0:0:
64,192,123269,1,0,0:0:0:0:
64,192,123441,128,0,123527:0:0:0:0:
192,192,123614,128,0,123700:0:0:0:0:
448,192,123614,1,0,0:0:0:0:
320,192,123786,1,0,0:0:0:0:
448,192,123872,128,0,123958:0:0:0:0:
192,192,123958,1,0,0:0:0:0:
64,192,123958,1,0,0:0:0:0:
320,192,123958,1,0,0:0:0:0:
64,192,124131,128,0,124217:0:0:0:0:
448,192,124131,1,0,0:0:0:0:
320,192,124303,1,0,0:0:0:0:
64,192,124476,128,0,124562:0:0:0:0:
192,192,124476,1,0,0:0:0:0:
320,192,124562,1,0,0:0:0:0:
448,192,124562,1,0,0:0:0:0:
192,192,124648,1,0,0:0:0:0:
64,192,124648,1,0,0:0:0:0:
448,192,124648,1,0,0:0:0:0:
192,192,124820,128,0,124907:0:0:0:0:
64,192,124993,128,0,125079:0:0:0:0:
448,192,124993,1,0,0:0:0:0:
192,192,125165,1,0,0:0:0:0:
448,192,125251,128,0,125338:0:0:0:0:
320,192,125338,1,0,0:0:0:0:
192,192,125338,1,0,0:0:0:0:
64,192,125338,1,0,0:0:0:0:
320,192,125510,128,0,125596:0:0:0:0:
192,192,125682,1,0,0:0:0:0:
320,192,125855,128,0,125941:0:0:0:0:
64,192,125855,1,0,0:0:0:0:
192,192,126027,1,0,0:0:0:0:
448,192,126027,1,0,0:0:0:0:
64,192,126027,1,0,0:0:0:0:
192,192,126200,128,0,126286:0:0:0:0:
448,192,126372,128,0,126458:0:0:0:0:
64,192,126372,1,0,0:0:0:0:
192,192,126545,1,0,0:0:0:0:
64,192,126631,128,0,126717:0:0:0:0:
192,192,126717,1,0,0:0:0:0:
448,192,126717,1,0,0:0:0:0:
320,192,126717,1,0,0:0:0:0:
192,192,126889,128,0,126976:0:0:0:0:
320,192,127062,1,0,0:0:0:0:
192,192,127234,128,0,127320:0:0:0:0:
448,192,127234,1,0,0:0:0:0:
64,192,127407,1,0,0:0:0:0:
320,192,127407,1,0,0:0:0:0:
448,192,127407,1,0,0:0:0:0:
320,192,127579,128,0,127665:0:0:0:0:
192,192,127751,128,0,127838:0:0:0:0:
64,192,127751,1,0,0:0:0:0:
320,192,127924,1,0,0:0:0:0:
64,192,128010,128,0,128096:0:0:0:0:
192,192,128096,1,0,0:0:0:0:
320,192,128096,1,0,0:0:0:0:
448,192,128096,1,0,0:0:0:0:
448,192,128269,128,0,128355:0:0:0:0:
64,192,128441,1,0,0:0:0:0:
448,192,128614,128,0,128700:0:0:0:0:
192,192,128614,1,0,0:0:0:0:
320,192,128786,1,0,0:0:0:0:
192,192,128786,1,0,0:0:0:0:
64,192,128786,1,0,0:0:0:0:
64,192,128958,128,0,129045:0:0:0:0:
320,192,129131,128,0,129217:0:0:0:0:
448,192,129131,1,0,0:0:0:0:
192,192,129303,1,0,0:0:0:0:
448,192,129389,128,0,129476:0:0:0:0:
320,192,129476,1,0,0:0:0:0:
192,192,129476,1,0,0:0:0:0:
64,192,129476,1,0,0:0:0:0:
64,192,129648,128,0,129734:0:0:0:0:
448,192,129820,1,0,0:0:0:0:
64,192,129993,128,0,130079:0:0:0:0:
320,192,129993,1,0,0:0:0:0:
192,192,130165,1,0,0:0:0:0:
320,192,130165,1,0,0:0:0:0:
448,192,130165,1,0,0:0:0:0:
192,192,130338,128,0,130424:0:0:0:0:
448,192,130510,128,0,130596:0:0:0:0:
64,192,130510,1,0,0:0:0:0:
320,192,130682,1,0,0:0:0:0:
64,192,130769,128,0,130855:0:0:0:0:
192,192,130855,1,0,0:0:0:0:
320,192,130855,1,0,0:0:0:0:
448,192,130855,1,0,0:0:0:0:
192,192,131027,128,0,131114:0:0:0:0:
448,192,131200,1,0,0:0:0:0:
192,192,131372,128,0,131458:0:0:0:0:
64,192,131372,1,0,0:0:0:0:
320,192,131545,1,0,0:0:0:0:
64,192,131545,1,0,0:0:0:0:
448,192,131545,1,0,0:0:0:0:
320,192,131717,128,0,131803:0:0:0:0:
64,192,131889,128,0,131976:0:0:0:0:
448,192,131889,1,0,0:0:0:0:
192,192,132062,1,0,0:0:0:0:
448,192,132148,128,0,132234:0:0:0:0:
192,192,132234,1,0,0:0:0:0:
64,192,132234,1,0,0:0:0:0:
320,192,132234,1,0,0:0:0:0:
320,192,132407,128,0,132493:0:0:0:0:
192,192,132579,1,0,0:0:0:0:
320,192,132751,128,0,132838:0:0:0:0:
64,192,132751,1,0,0:0:0:0:
64,192,132924,1,0,0:0:0:0:
192,192,132924,1,0,0:0:0:0:
448,192,132924,1,0,0:0:0:0:
192,192,133096,128,0,133182:0:0:0:0:
320,192,133269,128,0,133355:0:0:0:0:
64,192,133269,1,0,0:0:0:0:
192,192,133441,1,0,0:0:0:0:
448,192,133527,128,0,133614:0:0:0:0:
320,192,133614,1,0,0:0:0:0:
64,192,133614,1,0,0:0:0:0:
192,192,133614,1,0,0:0:0:0:
64,192,133786,128,0,133872:0:0:0:0:
448,192,133958,1,0,0:0:0:0:
64,192,134131,128,0,134217:0:0:0:0:
320,192,134131,1,0,0:0:0:0:
192,192,134303,1,0,0:0:0:0:
320,192,134303,1,0,0:0:0:0:
448,192,134303,1,0,0:0:0:0:
448,192,134476,128,0,134562:0:0:0:0:
192,192,134648,128,0,134734:0:0:0:0:
64,192,134648,1,0,0:0:0:0:
320,192,134820,1,0,0:0:0:0:
64,192,134907,128,0,134993:0:0:0:0:
320,192,134993,1,0,0:0:0:0:
448,192,134993,1,0,0:0:0:0:
192,192,134993,1,0,0:0:0:0:
448,192,135165,128,0,135251:0:0:0:0:
64,192,135165,1,0,0:0:0:0:
192,192,135338,1,0,0:0:0:0:
448,192,135510,128,0,135596:0:0:0:0:
320,192,135510,1,0,0:0:0:0:
192,192,135596,1,0,0:0:0:0:
64,192,135596,1,0,0:0:0:0:
320,192,135682,1,0,0:0:0:0:
448,192,135682,1,0,0:0:0:0:
64,192,135682,1,0,0:0:0:0:
320,192,135855,128,0,135941:0:0:0:0:
64,192,136027,128,0,138786:0:0:0:0:
192,192,136027,128,0,137407:0:0:0:0:
448,192,136717,1,0,0:0:0:0:
448,192,137407,1,0,0:0:0:0:
320,192,138096,1,0,0:0:0:0:
320,192,138786,1,0,0:0:0:0:
320,192,139476,128,0,141545:0:0:0:0:
192,192,139476,1,0,0:0:0:0:
192,192,140165,1,0,0:0:0:0:
64,192,140855,1,0,0:0:0:0:
64,192,141545,1,0,0:0:0:0:
448,192,141545,128,0,144303:0:0:0:0:
192,192,141545,128,0,142924:0:0:0:0:
320,192,142234,1,0,0:0:0:0:
64,192,142924,1,0,0:0:0:0:
192,192,143614,1,0,0:0:0:0:
192,192,144303,128,0,147062:0:0:0:0:
320,192,144303,1,0,0:0:0:0:
448,192,144993,1,0,0:0:0:0:
64,192,145682,1,0,0:0:0:0:
320,192,146372,1,0,0:0:0:0:
448,192,147062,128,0,149820:0:0:0:0:
320,192,147062,128,0,148441:0:0:0:0:
64,192,147062,1,0,0:0:0:0:
192,192,147751,1,0,0:0:0:0:
64,192,148441,1,0,0:0:0:0:
320,192,149131,1,0,0:0:0:0:
320,192,149820,128,0,152579:0:0:0:0:
192,192,149820,1,0,0:0:0:0:
192,192,150510,128,0,152579:0:0:0:0:
64,192,150510,1,0,0:0:0:0:
448,192,151200,1,0,0:0:0:0:
64,192,151889,1,0,0:0:0:0:
64,192,152579,128,0,158010:0:0:0:0:
448,192,152579,1,0,0:0:0:0:
448,192,153269,1,0,0:0:0:0:
192,192,153958,1,0,0:0:0:0:
192,192,154648,1,0,0:0:0:0:
320,192,155338,1,0,0:0:0:0:
192,192,155338,128,0,158010:0:0:0:0:
320,192,156027,1,0,0:0:0:0:
448,192,156717,1,0,0:0:0:0:
320,192,156717,128,0,158010:0:0:0:0:
448,192,157407,128,0,158096:0:0:0:0:
64,192,158096,128,0,159476:0:0:0:0:
192,192,158096,1,0,0:0:0:0:
320,192,158096,128,0,158182:0:0:0:0:
448,192,158355,128,0,158441:0:0:0:0:
192,192,158614,128,0,158700:0:0:0:0:
448,192,158786,128,0,158872:0:0:0:0:
320,192,158786,1,0,0:0:0:0:
192,192,159045,128,0,159131:0:0:0:0:
320,192,159303,128,0,159389:0:0:0:0:
448,192,159476,128,0,159562:0:0:0:0:
64,192,159734,128,0,159820:0:0:0:0:
320,192,159993,128,0,160079:0:0:0:0:
64,192,160165,128,0,160251:0:0:0:0:
448,192,160424,128,0,160510:0:0:0:0:
192,192,160682,128,0,160769:0:0:0:0:
320,192,160855,128,0,160941:0:0:0:0:
64,192,161114,128,0,161200:0:0:0:0:
192,192,161372,128,0,161458:0:0:0:0:
448,192,161545,128,0,161631:0:0:0:0:
64,192,161803,128,0,161889:0:0:0:0:
320,192,162062,128,0,162148:0:0:0:0:
192,192,162234,128,0,162320:0:0:0:0:
448,192,162493,128,0,162579:0:0:0:0:
192,192,162751,128,0,162838:0:0:0:0:
64,192,162924,128,0,163010:0:0:0:0:
320,192,163182,128,0,163269:0:0:0:0:
64,192,163441,128,0,163527:0:0:0:0:
448,192,163614,128,0,164993:0:0:0:0:
320,192,163614,1,0,0:0:0:0:
192,192,163614,128,0,163700:0:0:0:0:
64,192,163872,128,0,163958:0:0:0:0:
320,192,164131,128,0,164217:0:0:0:0:
64,192,164303,128,0,164389:0:0:0:0:
192,192,164303,1,0,0:0:0:0:
320,192,164562,128,0,164648:0:0:0:0:
192,192,164820,128,0,164907:0:0:0:0:
64,192,164993,128,0,165079:0:0:0:0:
448,192,165251,128,0,165338:0:0:0:0:
192,192,165510,128,0,165596:0:0:0:0:
448,192,165682,128,0,165769:0:0:0:0:
64,192,165941,128,0,166027:0:0:0:0:
320,192,166200,128,0,166286:0:0:0:0:
192,192,166372,128,0,166458:0:0:0:0:
64,192,166458,1,0,0:0:0:0:
448,192,166631,128,0,166717:0:0:0:0:
192,192,166717,1,0,0:0:0:0:
320,192,166889,128,0,166976:0:0:0:0:
448,192,166976,1,0,0:0:0:0:
64,192,167062,128,0,167148:0:0:0:0:
320,192,167148,1,0,0:0:0:0:
448,192,167320,128,0,167407:0:0:0:0:
64,192,167407,1,0,0:0:0:0:
192,192,167579,128,0,167665:0:0:0:0:
448,192,167665,1,0,0:0:0:0:
320,192,167751,128,0,167838:0:0:0:0:
192,192,167838,1,0,0:0:0:0:
64,192,168010,128,0,168096:0:0:0:0:
320,192,168096,1,0,0:0:0:0:
320,192,168269,128,0,168355:0:0:0:0:
448,192,168441,128,0,168527:0:0:0:0:
192,192,168700,128,0,168786:0:0:0:0:
320,192,168958,128,0,169045:0:0:0:0:
448,192,169131,1,0,0:0:0:0:
192,192,169131,1,0,0:0:0:0:
64,192,169131,128,0,169217:0:0:0:0:
448,192,169389,128,0,169476:0:0:0:0:
320,192,169476,1,0,0:0:0:0:
192,192,169476,1,0,0:0:0:0:
192,192,169648,128,0,169734:0:0:0:0:
64,192,169820,1,0,0:0:0:0:
448,192,169820,128,0,169907:0:0:0:0:
64,192,170079,128,0,170165:0:0:0:0:
192,192,170165,1,0,0:0:0:0:
320,192,170165,1,0,0:0:0:0:
192,192,170338,128,0,170424:0:0:0:0:
64,192,170510,1,0,0:0:0:0:
320,192,170510,128,0,170596:0:0:0:0:
64,192,170769,128,0,170855:0:0:0:0:
448,192,170855,1,0,0:0:0:0:
192,192,170855,1,0,0:0:0:0:
448,192,171027,128,0,171114:0:0:0:0:
64,192,171200,1,0,0:0:0:0:
320,192,171200,128,0,171286:0:0:0:0:
64,192,171458,128,0,171545:0:0:0:0:
192,192,171545,1,0,0:0:0:0:
448,192,171545,1,0,0:0:0:0:
192,192,171717,128,0,171803:0:0:0:0:
320,192,171889,1,0,0:0:0:0:
448,192,171889,128,0,171976:0:0:0:0:
320,192,172148,128,0,172234:0:0:0:0:
192,192,172234,1,0,0:0:0:0:
64,192,172234,1,0,0:0:0:0:
64,192,172407,128,0,172493:0:0:0:0:
448,192,172579,1,0,0:0:0:0:
320,192,172579,128,0,172665:0:0:0:0:
448,192,172838,128,0,172924:0:0:0:0:
192,192,172924,1,0,0:0:0:0:
64,192,172924,1,0,0:0:0:0:
64,192,173096,128,0,173182:0:0:0:0:
320,192,173269,1,0,0:0:0:0:
192,192,173269,128,0,173355:0:0:0:0:
320,192,173527,128,0,173614:0:0:0:0:
448,192,173614,1,0,0:0:0:0:
64,192,173614,1,0,0:0:0:0:
448,192,173786,128,0,173872:0:0:0:0:
192,192,173958,1,0,0:0:0:0:
320,192,173958,128,0,174045:0:0:0:0:
192,192,174217,128,0,174303:0:0:0:0:
448,192,174303,1,0,0:0:0:0:
64,192,174303,1,0,0:0:0:0:
64,192,174476,128,0,174562:0:0:0:0:
448,192,174648,1,0,0:0:0:0:
192,192,174648,1,0,0:0:0:0:
448,192,174820,1,0,0:0:0:0:
320,192,174820,1,0,0:0:0:0:
320,192,174993,1,0,0:0:0:0:
64,192,174993,1,0,0:0:0:0:
192,192,175165,1,0,0:0:0:0:
64,192,175165,1,0,0:0:0:0:
448,192,175338,1,0,0:0:0:0:
192,192,175338,1,0,0:0:0:0:
448,192,175510,1,0,0:0:0:0:
320,192,175510,1,0,0:0:0:0:
320,192,175682,1,0,0:0:0:0:
64,192,175682,1,0,0:0:0:0:
64,192,175855,1,0,0:0:0:0:
192,192,175855,1,0,0:0:0:0:
448,192,176027,1,0,0:0:0:0:
320,192,176027,1,0,0:0:0:0:
320,192,176200,1,0,0:0:0:0:
64,192,176200,1,0,0:0:0:0:
192,192,176372,1,0,0:0:0:0:
64,192,176372,1,0,0:0:0:0:
192,192,176545,1,0,0:0:0:0:
448,192,176545,1,0,0:0:0:0:
320,192,176717,1,0,0:0:0:0:
448,192,176717,1,0,0:0:0:0:
320,192,176889,1,0,0:0:0:0:
64,192,176889,1,0,0:0:0:0:
192,192,177062,1,0,0:0:0:0:
64,192,177062,1,0,0:0:0:0:
192,192,177234,1,0,0:0:0:0:
448,192,177234,1,0,0:0:0:0:
64,192,177407,1,0,0:0:0:0:
448,192,177407,1,0,0:0:0:0:
192,192,177493,1,0,0:0:0:0:
64,192,177579,1,0,0:0:0:0:
320,192,177579,1,0,0:0:0:0:
448,192,177665,1,0,0:0:0:0:
320,192,177751,1,0,0:0:0:0:
192,192,177751,1,0,0:0:0:0:
64,192,177838,1,0,0:0:0:0:
192,192,177924,1,0,0:0:0:0:
448,192,177924,1,0,0:0:0:0:
320,192,178010,1,0,0:0:0:0:
64,192,178096,1,0,0:0:0:0:
448,192,178096,1,0,0:0:0:0:
192,192,178182,1,0,0:0:0:0:
64,192,178269,1,0,0:0:0:0:
320,192,178269,1,0,0:0:0:0:
448,192,178355,1,0,0:0:0:0:
320,192,178441,1,0,0:0:0:0:
192,192,178441,1,0,0:0:0:0:
64,192,178527,1,0,0:0:0:0:
448,192,178614,1,0,0:0:0:0:
320,192,178614,1,0,0:0:0:0:
192,192,178700,1,0,0:0:0:0:
320,192,178786,1,0,0:0:0:0:
64,192,178786,1,0,0:0:0:0:
448,192,178872,1,0,0:0:0:0:
64,192,178958,1,0,0:0:0:0:
192,192,178958,1,0,0:0:0:0:
320,192,179045,1,0,0:0:0:0:
192,192,179131,1,0,0:0:0:0:
448,192,179131,1,0,0:0:0:0:
64,192,179217,1,0,0:0:0:0:
448,192,179303,1,0,0:0:0:0:
320,192,179303,1,0,0:0:0:0:
192,192,179389,1,0,0:0:0:0:
64,192,179476,1,0,0:0:0:0:
448,192,179476,1,0,0:0:0:0:
320,192,179562,1,0,0:0:0:0:
448,192,179648,1,0,0:0:0:0:
192,192,179648,1,0,0:0:0:0:
448,192,179820,1,0,0:0:0:0:
64,192,179820,1,0,0:0:0:0:
192,192,179820,1,0,0:0:0:0:
192,192,179993,1,0,0:0:0:0:
320,192,179993,1,0,0:0:0:0:
448,192,180165,128,0,180251:0:0:0:0:
320,192,180165,1,0,0:0:0:0:
64,192,180424,128,0,180510:0:0:0:0:
192,192,180510,1,0,0:0:0:0:
320,192,180510,1,0,0:0:0:0:
448,192,180510,1,0,0:0:0:0:
320,192,180682,128,0,180769:0:0:0:0:
320,192,180855,128,0,180941:0:0:0:0:
64,192,181027,1,0,0:0:0:0:
192,192,181027,1,0,0:0:0:0:
320,192,181114,128,0,181200:0:0:0:0:
64,192,181200,128,0,181286:0:0:0:0:
192,192,181200,1,0,0:0:0:0:
448,192,181200,1,0,0:0:0:0:
320,192,181286,128,0,181372:0:0:0:0:
448,192,181372,128,0,181458:0:0:0:0:
192,192,181458,128,0,181545:0:0:0:0:
64,192,181545,128,0,181631:0:0:0:0:
320,192,181545,1,0,0:0:0:0:
448,192,181803,128,0,181889:0:0:0:0:
320,192,181889,1,0,0:0:0:0:
192,192,181889,1,0,0:0:0:0:
64,192,181889,1,0,0:0:0:0:
192,192,182062,128,0,182148:0:0:0:0:
320,192,182234,128,0,182320:0:0:0:0:
448,192,182407,1,0,0:0:0:0:
192,192,182407,1,0,0:0:0:0:
320,192,182493,128,0,182579:0:0:0:0:
192,192,182579,1,0,0:0:0:0:
64,192,182579,1,0,0:0:0:0:
448,192,182579,1,0,0:0:0:0:
64,192,182751,128,0,182838:0:0:0:0:
320,192,182924,128,0,183010:0:0:0:0:
448,192,182924,1,0,0:0:0:0:
192,192,183182,128,0,183269:0:0:0:0:
320,192,183269,1,0,0:0:0:0:
448,192,183269,1,0,0:0:0:0:
64,192,183269,1,0,0:0:0:0:
448,192,183441,128,0,183527:0:0:0:0:
448,192,183614,128,0,183700:0:0:0:0:
320,192,183786,1,0,0:0:0:0:
192,192,183786,1,0,0:0:0:0:
448,192,183872,128,0,183958:0:0:0:0:
192,192,183958,128,0,184045:0:0:0:0:
320,192,183958,1,0,0:0:0:0:
64,192,183958,1,0,0:0:0:0:
448,192,184045,128,0,184131:0:0:0:0:
64,192,184131,128,0,184217:0:0:0:0:
320,192,184217,128,0,184303:0:0:0:0:
192,192,184303,128,0,184389:0:0:0:0:
64,192,184303,1,0,0:0:0:0:
320,192,184562,128,0,184648:0:0:0:0:
192,192,184648,1,0,0:0:0:0:
64,192,184648,1,0,0:0:0:0:
448,192,184648,1,0,0:0:0:0:
64,192,184820,128,0,184907:0:0:0:0:
448,192,184993,128,0,185079:0:0:0:0:
64,192,185165,1,0,0:0:0:0:
320,192,185165,1,0,0:0:0:0:
448,192,185251,128,0,185338:0:0:0:0:
320,192,185338,1,0,0:0:0:0:
192,192,185338,1,0,0:0:0:0:
64,192,185338,1,0,0:0:0:0:
192,192,185510,128,0,185596:0:0:0:0:
64,192,185682,128,0,185769:0:0:0:0:
320,192,185682,1,0,0:0:0:0:
448,192,185941,128,0,186027:0:0:0:0:
320,192,186027,1,0,0:0:0:0:
192,192,186027,1,0,0:0:0:0:
64,192,186027,1,0,0:0:0:0:
192,192,186200,128,0,186286:0:0:0:0:
192,192,186372,128,0,186458:0:0:0:0:
64,192,186545,1,0,0:0:0:0:
448,192,186545,1,0,0:0:0:0:
192,192,186631,128,0,186717:0:0:0:0:
448,192,186717,128,0,186803:0:0:0:0:
320,192,186717,1,0,0:0:0:0:
64,192,186717,1,0,0:0:0:0:
192,192,186803,128,0,186889:0:0:0:0:
320,192,186889,128,0,186976:0:0:0:0:
64,192,186976,128,0,187062:0:0:0:0:
448,192,187062,128,0,187148:0:0:0:0:
192,192,187062,1,0,0:0:0:0:
64,192,187320,128,0,187407:0:0:0:0:
192,192,187407,1,0,0:0:0:0:
320,192,187407,1,0,0:0:0:0:
448,192,187407,1,0,0:0:0:0:
320,192,187579,128,0,187665:0:0:0:0:
192,192,187751,128,0,187838:0:0:0:0:
320,192,187924,1,0,0:0:0:0:
64,192,187924,1,0,0:0:0:0:
192,192,188010,128,0,188096:0:0:0:0:
320,192,188096,1,0,0:0:0:0:
448,192,188096,1,0,0:0:0:0:
64,192,188096,1,0,0:0:0:0:
448,192,188269,128,0,188355:0:0:0:0:
192,192,188441,128,0,188527:0:0:0:0:
64,192,188441,1,0,0:0:0:0:
320,192,188700,128,0,188786:0:0:0:0:
192,192,188786,1,0,0:0:0:0:
64,192,188786,1,0,0:0:0:0:
448,192,188786,1,0,0:0:0:0:
64,192,188958,128,0,189045:0:0:0:0:
64,192,189131,128,0,189217:0:0:0:0:
320,192,189303,1,0,0:0:0:0:
192,192,189303,1,0,0:0:0:0:
64,192,189389,128,0,189476:0:0:0:0:
320,192,189476,128,0,189562:0:0:0:0:
192,192,189476,1,0,0:0:0:0:
448,192,189476,1,0,0:0:0:0:
64,192,189562,128,0,189648:0:0:0:0:
448,192,189648,128,0,189734:0:0:0:0:
192,192,189734,128,0,189820:0:0:0:0:
320,192,189820,128,0,189907:0:0:0:0:
64,192,189820,1,0,0:0:0:0:
192,192,190079,128,0,190165:0:0:0:0:
320,192,190165,1,0,0:0:0:0:
448,192,190165,1,0,0:0:0:0:
64,192,190165,1,0,0:0:0:0:
448,192,190338,128,0,190424:0:0:0:0:
192,192,190338,1,0,0:0:0:0:
64,192,190510,128,0,190596:0:0:0:0:
320,192,190682,1,0,0:0:0:0:
448,192,190682,1,0,0:0:0:0:
64,192,190769,128,0,190855:0:0:0:0:
192,192,190769,1,0,0:0:0:0:
192,192,190855,1,0,0:0:0:0:
320,192,190855,1,0,0:0:0:0:
448,192,190855,1,0,0:0:0:0:
320,192,191027,128,0,191114:0:0:0:0:
64,192,191200,128,0,191286:0:0:0:0:
192,192,191200,1,0,0:0:0:0:
448,192,191458,128,0,191545:0:0:0:0:
320,192,191545,1,0,0:0:0:0:
192,192,191545,1,0,0:0:0:0:
64,192,191545,1,0,0:0:0:0:
192,192,191717,128,0,191803:0:0:0:0:
192,192,191889,128,0,191976:0:0:0:0:
448,192,192062,1,0,0:0:0:0:
320,192,192062,1,0,0:0:0:0:
192,192,192148,128,0,192234:0:0:0:0:
448,192,192234,128,0,192320:0:0:0:0:
320,192,192234,1,0,0:0:0:0:
64,192,192234,1,0,0:0:0:0:
192,192,192320,128,0,192407:0:0:0:0:
64,192,192407,128,0,192493:0:0:0:0:
320,192,192493,128,0,192579:0:0:0:0:
448,192,192579,128,0,192665:0:0:0:0:
192,192,192579,1,0,0:0:0:0:
64,192,192838,128,0,192924:0:0:0:0:
192,192,192924,1,0,0:0:0:0:
320,192,192924,1,0,0:0:0:0:
448,192,192924,1,0,0:0:0:0:
320,192,193096,128,0,193182:0:0:0:0:
192,192,193269,128,0,193355:0:0:0:0:
64,192,193441,1,0,0:0:0:0:
320,192,193441,1,0,0:0:0:0:
192,192,193527,128,0,193614:0:0:0:0:
320,192,193614,1,0,0:0:0:0:
448,192,193614,1,0,0:0:0:0:
64,192,193614,1,0,0:0:0:0:
448,192,193786,128,0,193872:0:0:0:0:
192,192,193958,128,0,194045:0:0:0:0:
64,192,193958,1,0,0:0:0:0:
320,192,194217,128,0,194303:0:0:0:0:
192,192,194303,1,0,0:0:0:0:
64,192,194303,1,0,0:0:0:0:
448,192,194303,1,0,0:0:0:0:
64,192,194476,128,0,194562:0:0:0:0:
64,192,194648,128,0,194734:0:0:0:0:
192,192,194820,1,0,0:0:0:0:
320,192,194820,1,0,0:0:0:0:
64,192,194907,128,0,194993:0:0:0:0:
320,192,194993,128,0,195079:0:0:0:0:
192,192,194993,1,0,0:0:0:0:
448,192,194993,1,0,0:0:0:0:
64,192,195079,128,0,195165:0:0:0:0:
448,192,195165,128,0,195251:0:0:0:0:
192,192,195251,128,0,195338:0:0:0:0:
320,192,195338,128,0,195424:0:0:0:0:
448,192,195338,1,0,0:0:0:0:
192,192,195596,128,0,195682:0:0:0:0:
320,192,195682,1,0,0:0:0:0:
448,192,195682,1,0,0:0:0:0:
64,192,195682,1,0,0:0:0:0:
448,192,195855,128,0,195941:0:0:0:0:
64,192,196027,128,0,196114:0:0:0:0:
448,192,196200,1,0,0:0:0:0:
192,192,196200,1,0,0:0:0:0:
64,192,196286,128,0,196372:0:0:0:0:
192,192,196372,1,0,0:0:0:0:
320,192,196372,1,0,0:0:0:0:
448,192,196372,1,0,0:0:0:0:
320,192,196545,128,0,196631:0:0:0:0:
448,192,196717,128,0,196803:0:0:0:0:
192,192,196717,1,0,0:0:0:0:
64,192,196976,128,0,197062:0:0:0:0:
192,192,197062,1,0,0:0:0:0:
320,192,197062,1,0,0:0:0:0:
448,192,197062,1,0,0:0:0:0:
320,192,197234,128,0,197320:0:0:0:0:
320,192,197407,128,0,197493:0:0:0:0:
448,192,197579,1,0,0:0:0:0:
64,192,197579,1,0,0:0:0:0:
320,192,197665,128,0,197751:0:0:0:0:
64,192,197751,128,0,197838:0:0:0:0:
192,192,197751,1,0,0:0:0:0:
448,192,197751,1,0,0:0:0:0:
320,192,197838,128,0,197924:0:0:0:0:
192,192,197924,128,0,198010:0:0:0:0:
448,192,198010,128,0,198096:0:0:0:0:
64,192,198096,128,0,198182:0:0:0:0:
320,192,198096,1,0,0:0:0:0:
448,192,198355,128,0,198441:0:0:0:0:
320,192,198441,1,0,0:0:0:0:
192,192,198441,1,0,0:0:0:0:
64,192,198441,1,0,0:0:0:0:
192,192,198614,128,0,198700:0:0:0:0:
320,192,198786,128,0,198872:0:0:0:0:
192,192,198958,1,0,0:0:0:0:
448,192,198958,1,0,0:0:0:0:
320,192,199045,128,0,199131:0:0:0:0:
192,192,199131,1,0,0:0:0:0:
64,192,199131,1,0,0:0:0:0:
448,192,199131,1,0,0:0:0:0:
64,192,199303,128,0,199389:0:0:0:0:
320,192,199476,128,0,199562:0:0:0:0:
448,192,199476,1,0,0:0:0:0:
192,192,199734,128,0,199820:0:0:0:0:
320,192,199820,1,0,0:0:0:0:
448,192,199820,1,0,0:0:0:0:
64,192,199820,1,0,0:0:0:0:
448,192,199993,128,0,200079:0:0:0:0:
448,192,200165,128,0,200251:0:0:0:0:
192,192,200338,1,0,0:0:0:0:
320,192,200338,1,0,0:0:0:0:
448,192,200424,128,0,200510:0:0:0:0:
192,192,200510,128,0,200596:0:0:0:0:
320,192,200510,1,0,0:0:0:0:
64,192,200510,1,0,0:0:0:0:
448,192,200596,128,0,200682:0:0:0:0:
64,192,200682,128,0,200769:0:0:0:0:
320,192,200769,128,0,200855:0:0:0:0:
192,192,200855,128,0,200941:0:0:0:0:
448,192,200855,1,0,0:0:0:0:
320,192,201114,128,0,201200:0:0:0:0:
192,192,201200,1,0,0:0:0:0:
64,192,201200,1,0,0:0:0:0:
448,192,201200,1,0,0:0:0:0:
64,192,201372,128,0,201458:0:0:0:0:
320,192,201372,1,0,0:0:0:0:
448,192,201545,128,0,201631:0:0:0:0:
192,192,201717,1,0,0:0:0:0:
64,192,201717,1,0,0:0:0:0:
448,192,201803,128,0,201889:0:0:0:0:
320,192,201803,1,0,0:0:0:0:
320,192,201889,1,0,0:0:0:0:
192,192,201889,1,0,0:0:0:0:
64,192,201889,1,0,0:0:0:0:
192,192,202062,128,0,202148:0:0:0:0:
448,192,202234,5,0,0:0:0:0:
64,192,202234,128,0,202320:0:0:0:0:
320,192,202493,128,0,202579:0:0:0:0:
448,192,202579,1,0,0:0:0:0:
192,192,202579,1,0,0:0:0:0:
64,192,202579,1,0,0:0:0:0:
448,192,202751,128,0,202838:0:0:0:0:
448,192,202924,128,0,203010:0:0:0:0:
320,192,203096,1,0,0:0:0:0:
192,192,203096,1,0,0:0:0:0:
448,192,203182,128,0,203269:0:0:0:0:
320,192,203269,1,0,0:0:0:0:
192,192,203269,1,0,0:0:0:0:
64,192,203269,1,0,0:0:0:0:
448,192,203441,128,0,203527:0:0:0:0:
64,192,203614,1,0,0:0:0:0:
320,192,203614,1,0,0:0:0:0:
448,192,203700,128,0,203786:0:0:0:0:
448,192,203958,128,0,204045:0:0:0:0:
192,192,203958,1,0,0:0:0:0:
64,192,203958,1,0,0:0:0:0:
448,192,204217,128,0,204303:0:0:0:0:
448,192,204476,128,0,204562:0:0:0:0:
64,192,204476,1,0,0:0:0:0:
448,192,204648,128,0,204734:0:0:0:0:
320,192,204648,1,0,0:0:0:0:
192,192,204648,1,0,0:0:0:0:
64,192,204820,128,0,204907:0:0:0:0:
320,192,204907,128,0,204993:0:0:0:0:
192,192,204993,128,0,205079:0:0:0:0:
448,192,204993,1,0,0:0:0:0:
448,192,205251,128,0,205338:0:0:0:0:
320,192,205338,1,0,0:0:0:0:
64,192,205338,1,0,0:0:0:0:
192,192,205338,1,0,0:0:0:0:
320,192,205510,128,0,205596:0:0:0:0:
320,192,205682,128,0,205769:0:0:0:0:
448,192,205855,1,0,0:0:0:0:
64,192,205855,1,0,0:0:0:0:
320,192,205941,128,0,206027:0:0:0:0:
448,192,206027,1,0,0:0:0:0:
192,192,206027,1,0,0:0:0:0:
64,192,206027,1,0,0:0:0:0:
320,192,206200,128,0,206286:0:0:0:0:
192,192,206372,1,0,0:0:0:0:
64,192,206372,1,0,0:0:0:0:
320,192,206458,128,0,206545:0:0:0:0:
320,192,206717,128,0,206803:0:0:0:0:
448,192,206717,1,0,0:0:0:0:
192,192,206717,1,0,0:0:0:0:
320,192,206976,128,0,207062:0:0:0:0:
320,192,207234,128,0,207320:0:0:0:0:
192,192,207234,1,0,0:0:0:0:
320,192,207407,128,0,207493:0:0:0:0:
64,192,207407,1,0,0:0:0:0:
448,192,207407,1,0,0:0:0:0:
192,192,207579,128,0,207665:0:0:0:0:
64,192,207665,128,0,207751:0:0:0:0:
448,192,207751,128,0,207838:0:0:0:0:
192,192,207751,1,0,0:0:0:0:
192,192,208010,128,0,208096:0:0:0:0:
320,192,208096,1,0,0:0:0:0:
448,192,208096,1,0,0:0:0:0:
64,192,208096,1,0,0:0:0:0:
64,192,208269,128,0,208355:0:0:0:0:
64,192,208441,128,0,208527:0:0:0:0:
448,192,208614,1,0,0:0:0:0:
192,192,208614,1,0,0:0:0:0:
64,192,208700,128,0,208786:0:0:0:0:
192,192,208786,1,0,0:0:0:0:
320,192,208786,1,0,0:0:0:0:
448,192,208786,1,0,0:0:0:0:
64,192,208958,128,0,209045:0:0:0:0:
320,192,209131,1,0,0:0:0:0:
192,192,209131,1,0,0:0:0:0:
64,192,209217,128,0,209303:0:0:0:0:
64,192,209476,128,0,209562:0:0:0:0:
448,192,209476,1,0,0:0:0:0:
192,192,209476,1,0,0:0:0:0:
64,192,209734,128,0,209820:0:0:0:0:
64,192,209993,128,0,210079:0:0:0:0:
448,192,209993,1,0,0:0:0:0:
320,192,209993,1,0,0:0:0:0:
64,192,210165,128,0,210251:0:0:0:0:
320,192,210165,1,0,0:0:0:0:
192,192,210165,1,0,0:0:0:0:
448,192,210338,128,0,210424:0:0:0:0:
192,192,210424,128,0,210510:0:0:0:0:
320,192,210510,128,0,210596:0:0:0:0:
448,192,210510,1,0,0:0:0:0:
448,192,210769,128,0,210855:0:0:0:0:
320,192,210855,1,0,0:0:0:0:
192,192,210855,1,0,0:0:0:0:
64,192,210855,1,0,0:0:0:0:
192,192,211027,128,0,211114:0:0:0:0:
192,192,211200,128,0,211286:0:0:0:0:
64,192,211372,1,0,0:0:0:0:
448,192,211372,1,0,0:0:0:0:
192,192,211458,128,0,211545:0:0:0:0:
448,192,211545,1,0,0:0:0:0:
320,192,211545,1,0,0:0:0:0:
64,192,211545,1,0,0:0:0:0:
192,192,211717,128,0,211803:0:0:0:0:
320,192,211889,1,0,0:0:0:0:
64,192,211889,1,0,0:0:0:0:
192,192,211976,128,0,212062:0:0:0:0:
192,192,212234,128,0,212320:0:0:0:0:
448,192,212234,1,0,0:0:0:0:
64,192,212234,1,0,0:0:0:0:
64,192,212407,1,0,0:0:0:0:
320,192,212407,1,0,0:0:0:0:
448,192,212493,128,0,212579:0:0:0:0:
448,192,212751,128,0,212838:0:0:0:0:
192,192,212751,1,0,0:0:0:0:
192,192,212838,1,0,0:0:0:0:
320,192,212838,1,0,0:0:0:0:
64,192,212924,1,0,0:0:0:0:
320,192,212924,1,0,0:0:0:0:
192,192,212924,1,0,0:0:0:0:
448,192,213010,128,0,213096:0:0:0:0:
64,192,213269,128,0,213355:0:0:0:0:
192,192,213269,1,0,0:0:0:0:
192,192,213527,128,0,213614:0:0:0:0:
448,192,213614,1,0,0:0:0:0:
320,192,213614,1,0,0:0:0:0:
64,192,213614,1,0,0:0:0:0:
448,192,213786,128,0,213872:0:0:0:0:
448,192,213958,128,0,214045:0:0:0:0:
320,192,214131,1,0,0:0:0:0:
192,192,214131,1,0,0:0:0:0:
448,192,214217,128,0,214303:0:0:0:0:
320,192,214303,1,0,0:0:0:0:
192,192,214303,1,0,0:0:0:0:
64,192,214303,1,0,0:0:0:0:
448,192,214476,128,0,214562:0:0:0:0:
192,192,214648,1,0,0:0:0:0:
64,192,214648,1,0,0:0:0:0:
448,192,214734,128,0,214820:0:0:0:0:
448,192,214993,128,0,215079:0:0:0:0:
192,192,214993,1,0,0:0:0:0:
320,192,214993,1,0,0:0:0:0:
448,192,215251,128,0,215338:0:0:0:0:
448,192,215510,128,0,215596:0:0:0:0:
320,192,215510,1,0,0:0:0:0:
64,192,215510,1,0,0:0:0:0:
448,192,215682,128,0,215769:0:0:0:0:
192,192,215682,1,0,0:0:0:0:
64,192,215682,1,0,0:0:0:0:
320,192,215855,128,0,215941:0:0:0:0:
64,192,215941,128,0,216027:0:0:0:0:
448,192,216027,128,0,216114:0:0:0:0:
320,192,216027,1,0,0:0:0:0:
320,192,216286,128,0,216372:0:0:0:0:
192,192,216372,1,0,0:0:0:0:
64,192,216372,1,0,0:0:0:0:
448,192,216372,1,0,0:0:0:0:
64,192,216545,128,0,216631:0:0:0:0:
64,192,216717,128,0,216803:0:0:0:0:
448,192,216889,1,0,0:0:0:0:
192,192,216889,1,0,0:0:0:0:
64,192,216976,128,0,217062:0:0:0:0:
192,192,217062,1,0,0:0:0:0:
320,192,217062,1,0,0:0:0:0:
448,192,217062,1,0,0:0:0:0:
64,192,217234,128,0,217320:0:0:0:0:
320,192,217407,1,0,0:0:0:0:
192,192,217407,1,0,0:0:0:0:
64,192,217493,128,0,217579:0:0:0:0:
64,192,217751,128,0,217838:0:0:0:0:
320,192,217751,1,0,0:0:0:0:
448,192,217751,1,0,0:0:0:0:
64,192,218010,128,0,218096:0:0:0:0:
64,192,218269,128,0,218355:0:0:0:0:
320,192,218269,1,0,0:0:0:0:
448,192,218269,1,0,0:0:0:0:
64,192,218441,128,0,218527:0:0:0:0:
320,192,218441,1,0,0:0:0:0:
192,192,218441,1,0,0:0:0:0:
448,192,218614,128,0,218700:0:0:0:0:
320,192,218700,128,0,218786:0:0:0:0:
192,192,218786,128,0,218872:0:0:0:0:
448,192,218786,1,0,0:0:0:0:
448,192,219045,128,0,219131:0:0:0:0:
320,192,219131,1,0,0:0:0:0:
192,192,219131,1,0,0:0:0:0:
64,192,219131,1,0,0:0:0:0:
320,192,219303,128,0,219389:0:0:0:0:
320,192,219476,128,0,219562:0:0:0:0:
64,192,219648,1,0,0:0:0:0:
448,192,219648,1,0,0:0:0:0:
320,192,219734,128,0,219820:0:0:0:0:
192,192,219820,1,0,0:0:0:0:
64,192,219820,1,0,0:0:0:0:
448,192,219820,1,0,0:0:0:0:
320,192,219993,128,0,220079:0:0:0:0:
192,192,220165,1,0,0:0:0:0:
448,192,220165,1,0,0:0:0:0:
320,192,220251,128,0,220338:0:0:0:0:
320,192,220510,128,0,220596:0:0:0:0:
448,192,220510,1,0,0:0:0:0:
64,192,220510,1,0,0:0:0:0:
320,192,220769,128,0,220855:0:0:0:0:
320,192,221027,128,0,221114:0:0:0:0:
192,192,221027,1,0,0:0:0:0:
64,192,221027,1,0,0:0:0:0:
320,192,221200,128,0,221286:0:0:0:0:
192,192,221200,1,0,0:0:0:0:
448,192,221200,1,0,0:0:0:0:
64,192,221372,128,0,221458:0:0:0:0:
192,192,221458,128,0,221545:0:0:0:0:
320,192,221545,128,0,221631:0:0:0:0:
64,192,221545,1,0,0:0:0:0:
64,192,221803,128,0,221889:0:0:0:0:
192,192,221889,1,0,0:0:0:0:
320,192,221889,1,0,0:0:0:0:
448,192,221889,1,0,0:0:0:0:
192,192,222062,128,0,222148:0:0:0:0:
192,192,222234,128,0,222320:0:0:0:0:
320,192,222407,1,0,0:0:0:0:
64,192,222407,1,0,0:0:0:0:
192,192,222493,128,0,222579:0:0:0:0:
448,192,222579,1,0,0:0:0:0:
320,192,222579,1,0,0:0:0:0:
64,192,222579,1,0,0:0:0:0:
192,192,222751,128,0,222838:0:0:0:0:
64,192,222924,1,0,0:0:0:0:
448,192,222924,1,0,0:0:0:0:
192,192,223010,128,0,223096:0:0:0:0:
192,192,223269,128,0,223355:0:0:0:0:
320,192,223269,1,0,0:0:0:0:
64,192,223269,1,0,0:0:0:0:
320,192,223441,1,0,0:0:0:0:
448,192,223441,1,0,0:0:0:0:
64,192,223527,128,0,223614:0:0:0:0:
64,192,223786,128,0,223872:0:0:0:0:
320,192,223786,1,0,0:0:0:0:
192,192,223872,1,0,0:0:0:0:
320,192,223872,1,0,0:0:0:0:
448,192,223958,1,0,0:0:0:0:
320,192,223958,1,0,0:0:0:0:
192,192,223958,1,0,0:0:0:0:
64,192,224045,128,0,224131:0:0:0:0:
192,192,224303,128,0,224389:0:0:0:0:
64,192,224303,1,0,0:0:0:0:
320,192,224476,1,0,0:0:0:0:
448,192,224562,128,0,224648:0:0:0:0:
320,192,224648,1,0,0:0:0:0:
192,192,224648,1,0,0:0:0:0:
64,192,224648,1,0,0:0:0:0:
64,192,224820,128,0,224907:0:0:0:0:
320,192,224993,1,0,0:0:0:0:
64,192,225165,128,0,225251:0:0:0:0:
448,192,225165,1,0,0:0:0:0:
320,192,225338,1,0,0:0:0:0:
448,192,225338,1,0,0:0:0:0:
192,192,225338,1,0,0:0:0:0:
192,192,225510,128,0,225596:0:0:0:0:
320,192,225682,128,0,225769:0:0:0:0:
64,192,225682,1,0,0:0:0:0:
192,192,225855,1,0,0:0:0:0:
64,192,225941,128,0,226027:0:0:0:0:
192,192,226027,1,0,0:0:0:0:
448,192,226027,1,0,0:0:0:0:
320,192,226027,1,0,0:0:0:0:
448,192,226200,128,0,226286:0:0:0:0:
64,192,226372,1,0,0:0:0:0:
448,192,226545,128,0,226631:0:0:0:0:
192,192,226545,1,0,0:0:0:0:
64,192,226717,1,0,0:0:0:0:
192,192,226717,1,0,0:0:0:0:
320,192,226717,1,0,0:0:0:0:
320,192,226889,128,0,226976:0:0:0:0:
448,192,227062,128,0,227148:0:0:0:0:
64,192,227062,1,0,0:0:0:0:
192,192,227234,1,0,0:0:0:0:
64,192,227320,128,0,227407:0:0:0:0:
192,192,227407,1,0,0:0:0:0:
320,192,227407,1,0,0:0:0:0:
448,192,227407,1,0,0:0:0:0:
320,192,227579,128,0,227665:0:0:0:0:
64,192,227751,1,0,0:0:0:0:
320,192,227924,128,0,228010:0:0:0:0:
192,192,227924,1,0,0:0:0:0:
448,192,228096,1,0,0:0:0:0:
192,192,228096,1,0,0:0:0:0:
64,192,228096,1,0,0:0:0:0:
192,192,228269,128,0,228355:0:0:0:0:
64,192,228441,128,0,228527:0:0:0:0:
448,192,228441,1,0,0:0:0:0:
320,192,228614,1,0,0:0:0:0:
448,192,228700,128,0,228786:0:0:0:0:
320,192,228786,1,0,0:0:0:0:
192,192,228786,1,0,0:0:0:0:
64,192,228786,1,0,0:0:0:0:
192,192,228958,128,0,229045:0:0:0:0:
448,192,229131,1,0,0:0:0:0:
192,192,229303,128,0,229389:0:0:0:0:
320,192,229303,1,0,0:0:0:0:
64,192,229476,1,0,0:0:0:0:
320,192,229476,1,0,0:0:0:0:
448,192,229476,1,0,0:0:0:0:
320,192,229648,128,0,229734:0:0:0:0:
448,192,229820,128,0,229907:0:0:0:0:
64,192,229820,1,0,0:0:0:0:
192,192,229993,1,0,0:0:0:0:
64,192,230079,128,0,230165:0:0:0:0:
192,192,230165,1,0,0:0:0:0:
320,192,230165,1,0,0:0:0:0:
448,192,230165,1,0,0:0:0:0:
320,192,230338,128,0,230424:0:0:0:0:
448,192,230510,1,0,0:0:0:0:
320,192,230682,128,0,230769:0:0:0:0:
64,192,230682,1,0,0:0:0:0:
192,192,230855,1,0,0:0:0:0:
64,192,230855,1,0,0:0:0:0:
448,192,230855,1,0,0:0:0:0:
192,192,231027,128,0,231114:0:0:0:0:
64,192,231200,128,0,231286:0:0:0:0:
448,192,231200,1,0,0:0:0:0:
320,192,231372,1,0,0:0:0:0:
448,192,231458,128,0,231545:0:0:0:0:
192,192,231545,1,0,0:0:0:0:
64,192,231545,1,0,0:0:0:0:
320,192,231545,1,0,0:0:0:0:
192,192,231717,128,0,231803:0:0:0:0:
320,192,231889,1,0,0:0:0:0:
192,192,232062,128,0,232148:0:0:0:0:
448,192,232062,1,0,0:0:0:0:
64,192,232234,1,0,0:0:0:0:
320,192,232234,1,0,0:0:0:0:
448,192,232234,1,0,0:0:0:0:
320,192,232407,128,0,232493:0:0:0:0:
192,192,232579,128,0,232665:0:0:0:0:
64,192,232579,1,0,0:0:0:0:
320,192,232751,1,0,0:0:0:0:
448,192,232838,128,0,232924:0:0:0:0:
320,192,232924,1,0,0:0:0:0:
64,192,232924,1,0,0:0:0:0:
192,192,232924,1,0,0:0:0:0:
64,192,233096,128,0,233182:0:0:0:0:
448,192,233269,1,0,0:0:0:0:
64,192,233441,128,0,233527:0:0:0:0:
320,192,233441,1,0,0:0:0:0:
192,192,233614,1,0,0:0:0:0:
320,192,233614,1,0,0:0:0:0:
448,192,233614,1,0,0:0:0:0:
448,192,233786,128,0,233872:0:0:0:0:
320,192,233958,128,0,234045:0:0:0:0:
64,192,233958,1,0,0:0:0:0:
192,192,234131,1,0,0:0:0:0:
64,192,234217,128,0,234303:0:0:0:0:
320,192,234303,1,0,0:0:0:0:
448,192,234303,1,0,0:0:0:0:
192,192,234303,1,0,0:0:0:0:
448,192,234476,128,0,234562:0:0:0:0:
64,192,234476,1,0,0:0:0:0:
192,192,234648,1,0,0:0:0:0:
448,192,234820,128,0,234907:0:0:0:0:
320,192,234820,1,0,0:0:0:0:
192,192,234907,1,0,0:0:0:0:
64,192,234907,1,0,0:0:0:0:
320,192,234993,1,0,0:0:0:0:
448,192,234993,1,0,0:0:0:0:
64,192,234993,1,0,0:0:0:0:
320,192,235165,128,0,235251:0:0:0:0:
448,192,235338,128,0,235424:0:0:0:0:
64,192,235338,1,0,0:0:0:0:
320,192,235510,1,0,0:0:0:0:
64,192,235596,128,0,235682:0:0:0:0:
192,192,235682,1,0,0:0:0:0:
320,192,235682,1,0,0:0:0:0:
448,192,235682,1,0,0:0:0:0:
192,192,235855,128,0,235941:0:0:0:0:
320,192,236027,1,0,0:0:0:0:
192,192,236200,128,0,236286:0:0:0:0:
448,192,236200,1,0,0:0:0:0:
320,192,236372,1,0,0:0:0:0:
64,192,236372,1,0,0:0:0:0:
448,192,236372,1,0,0:0:0:0:
320,192,236545,128,0,236631:0:0:0:0:
64,192,236717,128,0,236803:0:0:0:0:
448,192,236717,1,0,0:0:0:0:
320,192,236889,1,0,0:0:0:0:
448,192,236976,128,0,237062:0:0:0:0:
320,192,237062,1,0,0:0:0:0:
64,192,237062,1,0,0:0:0:0:
192,192,237062,1,0,0:0:0:0:
320,192,237234,128,0,237320:0:0:0:0:
192,192,237407,1,0,0:0:0:0:
320,192,237579,128,0,237665:0:0:0:0:
64,192,237579,1,0,0:0:0:0:
448,192,237751,1,0,0:0:0:0:
192,192,237751,1,0,0:0:0:0:
64,192,237751,1,0,0:0:0:0:
192,192,237924,128,0,238010:0:0:0:0:
320,192,238096,128,0,238182:0:0:0:0:
448,192,238096,1,0,0:0:0:0:
192,192,238269,1,0,0:0:0:0:
448,192,238355,128,0,238441:0:0:0:0:
320,192,238441,1,0,0:0:0:0:
192,192,238441,1,0,0:0:0:0:
64,192,238441,1,0,0:0:0:0:
64,192,238614,128,0,238700:0:0:0:0:
448,192,238786,1,0,0:0:0:0:
64,192,238958,128,0,239045:0:0:0:0:
320,192,238958,1,0,0:0:0:0:
192,192,239131,1,0,0:0:0:0:
320,192,239131,1,0,0:0:0:0:
448,192,239131,1,0,0:0:0:0:
448,192,239303,128,0,239389:0:0:0:0:
192,192,239476,128,0,239562:0:0:0:0:
64,192,239476,1,0,0:0:0:0:
320,192,239648,1,0,0:0:0:0:
64,192,239734,128,0,239820:0:0:0:0:
192,192,239820,1,0,0:0:0:0:
320,192,239820,1,0,0:0:0:0:
448,192,239820,1,0,0:0:0:0:
448,192,239993,128,0,240079:0:0:0:0:
64,192,240165,1,0,0:0:0:0:
448,192,240338,128,0,240424:0:0:0:0:
192,192,240338,1,0,0:0:0:0:
320,192,240510,1,0,0:0:0:0:
192,192,240510,1,0,0:0:0:0:
64,192,240510,1,0,0:0:0:0:
320,192,240682,128,0,240769:0:0:0:0:
64,192,240855,128,0,240941:0:0:0:0:
448,192,240855,1,0,0:0:0:0:
192,192,241027,1,0,0:0:0:0:
448,192,241114,128,0,241200:0:0:0:0:
320,192,241200,1,0,0:0:0:0:
192,192,241200,1,0,0:0:0:0:
64,192,241200,1,0,0:0:0:0:
320,192,241372,128,0,241458:0:0:0:0:
64,192,241545,1,0,0:0:0:0:
320,192,241717,128,0,241803:0:0:0:0:
448,192,241717,1,0,0:0:0:0:
192,192,241889,1,0,0:0:0:0:
448,192,241889,1,0,0:0:0:0:
64,192,241889,1,0,0:0:0:0:
192,192,242062,128,0,242148:0:0:0:0:
448,192,242234,128,0,242320:0:0:0:0:
64,192,242234,1,0,0:0:0:0:
320,192,242407,1,0,0:0:0:0:
64,192,242493,128,0,242579:0:0:0:0:
320,192,242579,1,0,0:0:0:0:
448,192,242579,1,0,0:0:0:0:
192,192,242579,1,0,0:0:0:0:
192,192,242751,128,0,242838:0:0:0:0:
320,192,242924,1,0,0:0:0:0:
192,192,243096,128,0,243182:0:0:0:0:
448,192,243096,1,0,0:0:0:0:
448,192,243269,1,0,0:0:0:0:
320,192,243269,1,0,0:0:0:0:
64,192,243269,1,0,0:0:0:0:
320,192,243441,128,0,243527:0:0:0:0:
192,192,243614,128,0,243700:0:0:0:0:
448,192,243614,1,0,0:0:0:0:
320,192,243786,1,0,0:0:0:0:
64,192,243872,128,0,243958:0:0:0:0:
192,192,243958,1,0,0:0:0:0:
448,192,243958,1,0,0:0:0:0:
320,192,243958,1,0,0:0:0:0:
448,192,244131,128,0,244217:0:0:0:0:
64,192,244303,1,0,0:0:0:0:
448,192,244476,128,0,244562:0:0:0:0:
192,192,244476,1,0,0:0:0:0:
320,192,244648,1,0,0:0:0:0:
192,192,244648,1,0,0:0:0:0:
64,192,244648,1,0,0:0:0:0:
64,192,244820,128,0,244907:0:0:0:0:
320,192,244993,128,0,245079:0:0:0:0:
448,192,244993,1,0,0:0:0:0:
192,192,245165,1,0,0:0:0:0:
448,192,245251,128,0,245338:0:0:0:0:
192,192,245338,1,0,0:0:0:0:
64,192,245338,1,0,0:0:0:0:
320,192,245338,1,0,0:0:0:0:
64,192,245510,128,0,245596:0:0:0:0:
448,192,245510,1,0,0:0:0:0:
320,192,245682,1,0,0:0:0:0:
64,192,245855,128,0,245941:0:0:0:0:
192,192,245855,1,0,0:0:0:0:
320,192,245941,1,0,0:0:0:0:
448,192,245941,1,0,0:0:0:0:
192,192,246027,1,0,0:0:0:0:
64,192,246027,1,0,0:0:0:0:
448,192,246027,1,0,0:0:0:0:
192,192,246200,128,0,246286:0:0:0:0:
320,192,246372,128,0,247751:0:0:0:0:
64,192,246372,128,0,249131:0:0:0:0:
192,192,249131,128,0,250165:0:0:0:0:
320,192,249131,128,0,250251:0:0:0:0:
448,192,249131,128,0,250338:0:0:0:0:
