osu file format v14

[General]
AudioFilename: audio.mp3
AudioLeadIn: 0
PreviewTime: 71153
Countdown: 0
SampleSet: Soft
StackLeniency: 0.7
Mode: 0
LetterboxInBreaks: 0
WidescreenStoryboard: 1

[Editor]
Bookmarks: 27748,49817,71886,93955,113265
DistanceSpacing: 0.95
BeatDivisor: 2
GridSize: 16
TimelineZoom: 1.6

[Metadata]
Title:Don't Say (osu! edit)
TitleUnicode:Don't Say (osu! edit)
Artist:Andromedik
ArtistUnicode:Andromedik
Creator:Maiev
Version:Mimari's Normal
Source:
Tags:fa featured artist dnb Earl Gray drum and bass mpg mg mappers' guild mimari instrumental english electronic
BeatmapID:3201607
BeatmapSetID:1568040

[Difficulty]
HPDrainRate:3
CircleSize:3.4
OverallDifficulty:3.5
ApproachRate:5.5
SliderMultiplier:1
SliderTickRate:1

[Events]
//Background and Video events
0,0,"bg.png",0,0
//Break Periods
//Storyboard Layer 0 (Background)
//Storyboard Layer 1 (Fail)
//Storyboard Layer 2 (Pass)
//Storyboard Layer 3 (Foreground)
//Storyboard Layer 4 (Overlay)
//Storyboard Sound Samples

[TimingPoints]
162,344.827586206897,4,2,2,40,1,0
5679,-111.111111111111,4,2,1,50,0,0
27748,-105.263157894737,4,2,1,60,0,0
38782,-105.263157894737,4,2,1,65,0,0
48437,-105.263157894737,4,2,1,45,0,0
49817,-90.9090909090909,4,2,1,75,0,0
93955,-100,4,2,1,75,0,0
113265,-111.111111111111,4,2,1,50,0,0

[Colours]
Combo1 : 187,187,219
Combo2 : 255,198,198
Combo3 : 203,218,250
Combo4 : 255,190,159

[HitObjects]
256,192,162,12,0,4989,0:0:0:0:
118,290,5679,6,0,L|20:278,2,89.9999972534181,2|2|10,3:2|0:2|0:2,0:0:0:0:
181,347,6713,5,2,0:2:0:0:
181,347,6886,2,0,B|308:314|308:314|332:363|394:360,1,224.999993133545,2|0,0:2|0:0,0:0:0:0:
481,220,8437,6,0,L|492:118,2,89.9999972534181,2|2|0,0:2|0:2|0:0,0:0:0:0:
409,264,9472,5,2,0:2:0:0:
409,264,9644,2,0,B|366:203|366:203|218:240,1,224.999993133545,2|2,0:2|0:2,0:0:0:0:
68,159,11196,6,0,P|35:90|102:12,1,179.999994506836,2|2,0:2|0:2,0:0:0:0:
155,174,12575,2,0,P|211:109|180:30,1,179.999994506836,2|0,0:2|0:0,0:0:0:0:
351,36,13955,6,0,B|280:-8|227:72|227:72|182:127|113:97,1,269.999991760254,2|0,0:2|0:0,0:0:0:0:
48,150,15334,1,2,0:2:0:0:
394,290,16713,6,0,L|492:278,2,89.9999972534181,2|2|0,0:2|0:2|0:0,0:0:0:0:
331,347,17747,5,2,0:2:0:0:
331,347,17920,2,0,B|204:314|204:314|180:363|118:360,1,224.999993133545,2|0,0:2|0:0,0:0:0:0:
31,220,19472,6,0,L|20:112,2,89.9999972534181,2|2|0,0:2|0:2|0:0,0:0:0:0:
103,264,20506,5,2,0:2:0:0:
103,264,20678,2,0,B|166:208|166:208|255:228|255:228|287:240|294:275,1,224.999993133545,2|0,0:2|0:0,0:0:0:0:
444,159,22230,6,0,P|476:90|409:12,1,179.999994506836,2|2,0:2|0:2,0:0:0:0:
357,174,23609,2,0,P|300:109|331:30,1,179.999994506836,2|0,0:2|0:0,0:0:0:0:
161,36,24989,6,0,B|232:-8|285:72|285:72|330:127|399:97,1,269.999991760254,2|0,0:2|0:0,0:0:0:0:
464,150,26368,1,2,0:2:0:0:
210,318,27748,6,0,B|156:334|121:296|121:296|77:329|26:302,1,189.999994926453,2|2,3:1|0:1,0:0:0:0:
20,125,29127,2,0,L|31:38,2,71.2499980974198,2|2|2,0:1|0:2|0:2,0:0:0:0:
15,170,29817,2,0,B|95:149|79:212|167:185,1,142.49999619484,2|2,0:1|0:2,0:0:0:0:
190,212,30506,5,2,0:1:0:0:
210,32,31196,1,2,0:1:0:0:
389,49,31886,2,0,L|467:65,2,71.2499980974198,2|2|2,0:1|0:2|0:2,0:0:0:0:
355,78,32575,2,0,B|322:119|322:119|354:212,1,142.49999619484,2|2,0:1|0:2,0:0:0:0:
390,227,33265,5,2,0:1:0:0:
216,175,33955,1,2,0:1:0:0:
38,204,34644,2,0,B|-10:236|0:300|0:300|49:315|56:368,1,189.999994926453,2|2,0:1|0:1,0:0:0:0:
233,336,36023,6,0,L|306:352,2,71.2499980974198,2|2|2,0:1|0:2|0:2,0:0:0:0:
191,355,36713,2,0,L|177:197,1,142.49999619484,2|2,0:1|0:2,0:0:0:0:
171,168,37403,5,2,0:1:0:0:
347,205,38092,1,2,0:1:0:0:
502,113,38782,6,0,P|458:93|402:107,1,94.9999974632264,2|0,3:1|3:2,0:0:0:0:
376,124,39299,1,2,1:2:0:0:
376,124,39472,1,2,3:1:0:0:
308,64,39817,1,0,3:2:0:0:
229,108,40162,6,0,L|131:94,1,94.9999974632264,2|0,3:1|3:2,0:0:0:0:
97,112,40679,1,2,1:2:0:0:
97,112,40851,2,0,L|85:26,2,71.2499980974198,2|2|2,3:1|0:2|1:2,0:0:0:0:
62,141,41541,5,2,3:1:0:0:
22,221,41886,2,0,L|17:283,1,47.4999987316132,0|2,3:2|1:2,0:0:0:0:
51,299,42230,2,0,P|104:275|147:292,1,94.9999974632264,2|0,3:1|3:2,0:0:0:0:
210,232,42920,6,0,P|252:251|271:294,1,94.9999974632264,2|0,3:1|3:2,0:0:0:0:
268,342,43437,1,2,1:2:0:0:
268,342,43610,1,2,3:1:0:0:
356,359,43955,1,0,3:2:0:0:
424,300,44300,6,0,L|442:198,1,94.9999974632264,2|0,3:1|3:2,0:0:0:0:
413,176,44817,1,2,3:2:0:0:
413,176,44989,2,0,L|401:90,2,71.2499980974198,2|2|2,3:1|0:2|3:2,0:0:0:0:
368,182,45679,5,2,3:1:0:0:
282,152,46024,1,0,3:2:0:0:
201,191,46368,1,2,3:1:0:0:
114,164,46713,1,0,3:2:0:0:
32,203,47058,6,0,L|25:155,1,47.4999987316132,2|0,3:1|3:2,0:0:0:0:
31,111,47403,2,0,L|24:63,1,47.4999987316132,0|2,3:2|3:2,0:0:0:0:
56,32,47748,2,0,P|105:28|144:74,1,94.9999974632264,2|0,3:1|3:2,0:0:0:0:
224,30,48437,5,2,0:0:0:0:
296,370,49817,6,0,L|305:252,1,110.000003356934,6|10,3:2|0:0,0:0:0:0:
277,215,50334,1,2,0:0:0:0:
277,215,50506,1,2,0:0:0:0:
179,252,50851,2,0,P|152:262|106:252,1,55.0000016784668,8|2,0:2|0:0,0:0:0:0:
74,271,51196,6,0,L|65:153,1,110.000003356934,2|10,0:2|0:0,0:0:0:0:
31,121,51713,1,2,0:0:0:0:
31,121,51886,1,2,0:0:0:0:
83,30,52230,1,8,0:2:0:0:
178,73,52575,6,0,B|231:88|231:88|293:69,1,110.000003356934,6|10,3:2|0:0,0:0:0:0:
309,26,53093,1,2,0:0:0:0:
309,26,53265,1,2,0:0:0:0:
410,50,53610,2,0,L|401:114,1,55.0000016784668,8|2,0:2|0:0,0:0:0:0:
360,135,53955,6,0,L|374:255,1,110.000003356934,0|10,0:2|0:0,0:0:0:0:
477,238,54644,2,0,L|463:358,1,110.000003356934,2|8,0:0|0:2,0:0:0:0:
417,371,55162,5,2,0:0:0:0:
417,371,55334,2,0,P|378:340|317:343,1,110.000003356934,6|10,3:2|0:0,0:0:0:0:
220,373,56024,2,0,L|207:263,1,110.000003356934,2|8,0:0|0:2,0:0:0:0:
231,217,56541,5,2,0:0:0:0:
231,217,56713,2,0,L|243:107,1,110.000003356934,2|10,0:2|0:0,0:0:0:0:
193,15,57403,1,2,0:0:0:0:
103,68,57748,2,0,P|72:61|34:74,1,55.0000016784668,8|2,0:2|0:0,0:0:0:0:
19,108,58093,6,0,B|-3:161|-3:161|24:223,1,110.000003356934,6|10,3:2|0:0,0:0:0:0:
48,258,58610,1,2,0:0:0:0:
48,258,58782,1,2,0:0:0:0:
138,205,59127,1,8,0:2:0:0:
230,253,59472,6,0,L|218:375,2,110.000003356934,0|10|2,0:2|0:0|0:0,0:0:0:0:
303,179,60506,2,0,L|298:104,1,55.0000016784668,8|2,0:2|0:0,0:0:0:0:
278,75,60851,6,0,L|396:66,1,110.000003356934,6|10,3:2|0:0,0:0:0:0:
433,94,61368,1,2,0:0:0:0:
433,94,61540,1,2,0:0:0:0:
498,175,61885,2,0,L|491:251,1,55.0000016784668,8|2,0:2|0:0,0:0:0:0:
448,257,62230,6,0,P|403:256|368:307,1,110.000003356934,2|10,0:2|0:0,0:0:0:0:
355,359,62747,1,2,0:0:0:0:
355,359,62920,1,2,0:0:0:0:
267,301,63264,1,8,0:2:0:0:
299,201,63610,6,0,B|315:151|315:151|295:86,1,110.000003356934,6|10,3:2|0:0,0:0:0:0:
284,49,64127,1,2,0:0:0:0:
284,49,64299,1,2,0:0:0:0:
185,14,64644,2,0,L|124:28,1,55.0000016784668,8|2,0:2|0:0,0:0:0:0:
78,25,64989,6,0,L|75:150,1,110.000003356934,0|10,0:2|0:0,0:0:0:0:
6,214,65679,2,0,L|3:339,1,110.000003356934,2|8,0:0|0:2,0:0:0:0:
52,354,66196,5,2,0:0:0:0:
52,354,66368,2,0,P|91:323|152:326,1,110.000003356934,6|10,3:2|0:0,0:0:0:0:
245,366,67058,2,0,P|263:324|255:261,1,110.000003356934,2|8,0:0|0:2,0:0:0:0:
227,223,67575,5,2,0:0:0:0:
227,223,67748,2,0,L|236:113,1,110.000003356934,2|10,0:2|0:0,0:0:0:0:
284,20,68437,1,2,0:0:0:0:
377,66,68782,2,0,L|444:62,1,55.0000016784668,8|2,0:2|0:0,0:0:0:0:
484,64,69127,6,0,B|506:117|506:117|479:179,1,110.000003356934,6|10,3:2|0:0,0:0:0:0:
464,215,69644,1,2,0:0:0:0:
464,215,69816,1,2,0:0:0:0:
363,185,70161,1,8,0:2:0:0:
284,254,70506,2,0,L|296:376,2,110.000003356934,0|10|2,0:2|0:0|0:2,0:0:0:0:
205,60,71886,6,0,P|156:42|91:71,1,110.000003356934,6|8,3:2|0:2,0:0:0:0:
71,102,72403,1,2,0:2:0:0:
71,102,72575,1,2,0:1:0:0:
7,184,72920,2,0,L|11:246,1,55.0000016784668,8|2,0:2|0:2,0:0:0:0:
38,283,73265,6,0,L|150:267,1,110.000003356934,2|8,0:1|0:2,0:0:0:0:
183,230,73782,1,2,0:2:0:0:
183,230,73955,1,2,0:1:0:0:
271,285,74299,1,8,0:2:0:0:
357,225,74644,6,0,B|372:172|372:172|353:110,1,110.000003356934,6|8,3:2|0:2,0:0:0:0:
315,94,75162,1,2,0:2:0:0:
315,94,75334,1,2,0:1:0:0:
391,22,75679,2,0,L|457:34,1,55.0000016784668,8|2,0:2|0:2,0:0:0:0:
485,65,76024,6,0,L|500:180,1,110.000003356934,2|8,0:1|0:2,0:0:0:0:
416,237,76713,2,0,L|428:346,1,110.000003356934,2|8,0:1|0:2,0:0:0:0:
383,369,77231,5,2,0:2:0:0:
383,369,77403,2,0,P|344:338|283:341,1,110.000003356934,6|8,3:2|0:2,0:0:0:0:
182,355,78093,2,0,B|163:304|163:304|190:246,1,110.000003356934,2|8,0:1|0:2,0:0:0:0:
238,236,78610,5,2,0:2:0:0:
238,236,78782,2,0,L|250:126,1,110.000003356934,2|8,0:1|0:2,0:0:0:0:
200,34,79472,1,2,0:1:0:0:
110,87,79817,2,0,P|79:80|41:93,1,55.0000016784668,8|2,0:2|0:2,0:0:0:0:
24,126,80162,6,0,B|2:179|2:179|29:241,1,110.000003356934,6|8,3:2|0:2,0:0:0:0:
53,276,80679,1,2,0:2:0:0:
53,276,80851,1,2,0:1:0:0:
141,220,81196,1,8,0:2:0:0:
229,275,81541,6,0,L|239:384,2,110.000003356934,2|8|2,0:1|0:2|0:1,0:0:0:0:
317,219,82575,2,0,L|320:164,1,55.0000016784668,8|2,0:2|0:2,0:0:0:0:
285,125,82920,6,0,P|235:153|172:141,1,110.000003356934,6|8,3:2|0:2,0:0:0:0:
149,115,83437,1,2,0:2:0:0:
149,115,83609,1,2,0:1:0:0:
177,14,83954,2,0,L|239:21,1,55.0000016784668,8|2,0:2|0:2,0:0:0:0:
279,40,84299,6,0,L|393:28,1,110.000003356934,2|8,0:1|0:2,0:0:0:0:
438,57,84816,1,2,0:2:0:0:
438,57,84989,1,2,0:1:0:0:
392,150,85334,1,8,0:2:0:0:
474,213,85679,6,0,B|489:266|489:266|470:328,1,110.000003356934,6|8,3:2|0:2,0:0:0:0:
437,358,86196,1,2,0:2:0:0:
437,358,86368,1,2,0:1:0:0:
341,314,86713,2,0,P|311:307|280:311,1,55.0000016784668,8|2,0:2|0:2,0:0:0:0:
245,340,87058,6,0,L|233:220,1,110.000003356934,2|8,0:1|0:2,0:0:0:0:
329,187,87748,2,0,L|338:62,1,110.000003356934,2|8,0:1|0:2,0:0:0:0:
299,33,88265,5,2,0:2:0:0:
299,33,88437,2,0,P|245:30|202:62,1,110.000003356934,6|8,3:2|0:2,0:0:0:0:
107,17,89127,2,0,L|114:126,1,110.000003356934,2|8,0:1|0:2,0:0:0:0:
74,157,89644,5,2,0:2:0:0:
74,157,89817,2,0,L|65:267,1,110.000003356934,2|8,0:1|0:2,0:0:0:0:
67,371,90506,1,2,0:1:0:0:
166,339,90851,2,0,P|190:334|230:340,1,55.0000016784668,8|2,0:2|0:2,0:0:0:0:
266,360,91196,6,0,B|288:307|288:307|261:245,1,110.000003356934,6|8,3:2|0:2,0:0:0:0:
243,218,91713,1,2,0:2:0:0:
243,218,91885,1,2,0:1:0:0:
277,119,92230,1,8,0:2:0:0:
211,37,92575,2,0,L|82:50,2,110.000003356934,2|8|2,0:1|0:2|0:2,0:0:0:0:
400,24,93955,6,0,P|417:75|401:117,1,100,6|8,3:2|0:2,0:0:0:0:
373,154,94472,1,2,0:2:0:0:
373,154,94644,1,2,0:1:0:0:
435,225,94989,1,8,0:2:0:0:
370,290,95334,6,0,L|271:284,1,100,2|8,0:1|0:2,0:0:0:0:
214,206,96024,2,0,L|115:211,1,100,2|8,0:1|0:2,0:0:0:0:
31,168,96713,6,0,B|15:210|15:210|33:262,1,100,6|8,3:2|0:2,0:0:0:0:
57,309,97230,1,2,0:2:0:0:
57,309,97402,1,2,0:1:0:0:
149,287,97747,1,8,0:2:0:0:
223,345,98093,6,0,L|321:350,1,100,2|8,0:1|0:2,0:0:0:0:
396,290,98782,2,0,L|472:282,1,50,2|0,0:1|3:2,0:0:0:0:
493,280,99127,1,8,0:2:0:0:
487,185,99472,6,0,L|384:193,1,100,6|8,3:2|0:2,0:0:0:0:
343,202,99989,1,2,0:2:0:0:
343,202,100161,1,2,0:1:0:0:
259,157,100506,1,8,0:2:0:0:
172,197,100851,6,0,L|73:191,1,100,2|8,0:1|0:2,0:0:0:0:
15,115,101541,2,0,P|9:59|65:20,1,100,2|8,0:1|0:2,0:0:0:0:
82,17,102058,5,2,0:2:0:0:
82,17,102230,2,0,L|209:32,1,100,6|8,3:2|0:2,0:0:0:0:
251,93,102920,1,2,0:1:0:0:
211,179,103265,1,8,0:2:0:0:
266,256,103610,6,0,L|255:360,2,100,2|8|2,0:1|0:2|0:1,0:0:0:0:
354,221,104644,1,8,0:2:0:0:
438,263,104989,6,0,P|452:216|435:170,1,100,6|8,3:2|0:2,0:0:0:0:
410,136,105506,1,2,0:2:0:0:
410,136,105678,1,2,0:1:0:0:
436,44,106023,1,8,0:2:0:0:
342,24,106368,6,0,L|232:35,1,100,2|8,0:1|0:2,0:0:0:0:
196,117,107058,2,0,L|84:103,1,100,2|8,0:1|0:2,0:0:0:0:
13,58,107748,6,0,B|-3:100|-3:100|14:151,1,100,6|8,3:2|0:2,0:0:0:0:
41,197,108264,1,2,0:2:0:0:
41,197,108436,1,2,0:1:0:0:
11,287,108781,1,8,0:2:0:0:
91,337,109127,6,0,P|142:336|182:367,1,100,2|8,0:1|0:2,0:0:0:0:
268,328,109817,2,0,L|278:237,1,50,2|0,0:1|3:2,0:0:0:0:
252,236,110161,1,8,0:2:0:0:
324,174,110506,6,0,L|312:56,1,100,6|8,3:2|0:2,0:0:0:0:
338,33,111024,1,2,0:2:0:0:
338,33,111196,1,2,0:1:0:0:
429,59,111541,1,8,0:2:0:0:
411,152,111886,6,0,L|421:251,1,100,2|8,0:1|0:2,0:0:0:0:
369,331,112575,1,2,0:1:0:0:
284,288,112920,1,8,0:2:0:0:
205,337,113265,6,0,B|112:353|132:283|32:302,1,179.999994506836,2|2,0:2|0:0,0:0:0:0:
33,130,114644,2,0,B|130:148|110:78|203:94,1,179.999994506836,2|2,0:0|0:0,0:0:0:0:
329,209,116024,5,4,3:2:0:0:
256,192,116196,12,0,121541,0:0:0:0:
