osu file format v14

[General]
AudioFilename: audio.mp3
AudioLeadIn: 0
PreviewTime: 71153
Countdown: 0
SampleSet: Soft
StackLeniency: 0.7
Mode: 0
LetterboxInBreaks: 0
WidescreenStoryboard: 1

[Editor]
Bookmarks: 5679,16713,27748,38782,48437,49817,71886,93955,113265,116024
DistanceSpacing: 0.3
BeatDivisor: 4
GridSize: 16
TimelineZoom: 1.6

[Metadata]
Title:Don't Say (osu! edit)
TitleUnicode:Don't Say (osu! edit)
Artist:Andromedik
ArtistUnicode:Andromedik
Creator:Maiev
Version:Insane
Source:
Tags:fa featured artist dnb Earl Gray drum and bass mpg mg mappers' guild mimari instrumental english electronic
BeatmapID:3201605
BeatmapSetID:1568040

[Difficulty]
HPDrainRate:5
CircleSize:3.8
OverallDifficulty:7.5
ApproachRate:9
SliderMultiplier:1.5
SliderTickRate:1

[Events]
//Background and Video events
0,0,"bg.png",0,0
//Break Periods
//Storyboard Layer 0 (Background)
//Storyboard Layer 1 (Fail)
//Storyboard Layer 2 (Pass)
//Storyboard Layer 3 (Foreground)
//Storyboard Layer 4 (Overlay)
//Storyboard Sound Samples

[TimingPoints]
162,344.827586206897,4,2,1,100,1,0
162,-625,4,2,2,100,0,0
5679,-125,4,2,1,100,0,0
6886,-200,4,2,1,100,0,0
8437,-125,4,2,1,100,0,0
9817,-200,4,2,1,100,0,0
12575,-250,4,2,1,100,0,0
16713,-125,4,2,1,100,0,0
17920,-200,4,2,1,100,0,0
19472,-125,4,2,1,100,0,0
20851,-200,4,2,1,100,0,0
24989,-333.333333333333,4,2,1,100,0,0
27748,-125,4,2,1,100,0,0
38782,-111.111111111111,4,2,1,100,0,0
48437,-200,4,2,1,100,0,0
49817,-100,4,2,1,100,0,0
93955,-111.111111111111,4,2,1,100,0,0
113265,-200,4,2,1,100,0,0
121541,-200,4,2,1,5,0,0

[Colours]
Combo1 : 187,187,219
Combo2 : 255,198,198
Combo3 : 203,218,250
Combo4 : 255,190,159

[HitObjects]
207,69,162,6,0,B|212:142|212:142|131:115|131:115|127:70|127:70|47:46|47:46|51:118,1,360,2|0,0:2|0:0,0:0:0:0:
317,352,5679,6,0,L|312:292,1,60,2|0,3:2|0:0,0:0:0:0:
361,226,6024,2,0,B|433:237|400:245|477:256,2,120,2|10|2,0:2|0:2|0:2,0:0:0:0:
287,146,6886,6,0,P|301:77|371:71,1,150,2|0,0:2|0:0,0:0:0:0:
192,384,8437,6,0,L|187:324,1,60,2|0,0:2|0:0,0:0:0:0:
123,261,8782,2,0,B|84:271|84:271|60:314|60:314|30:319,2,120,2|0|2,0:2|0:0|0:2,0:0:0:0:
201,212,9644,1,2,0:2:0:0:
205,206,9817,6,0,P|190:137|120:131,1,150,2|2,0:2|0:2,0:0:0:0:
376,13,11196,6,0,P|369:87|363:162,1,150,2|2,0:2|0:2,0:0:0:0:
495,276,12575,6,0,B|462:303|422:298|430:284|391:278|353:305,1,150,2|2,0:2|0:2,0:0:0:0:
283,265,13610,1,2,0:2:0:0:
279,254,13782,1,2,0:2:0:0:
211,350,13955,6,0,B|197:276|197:276|200:269|200:269|187:199|187:199|183:246|161:281,1,240,2|2,0:2|0:2,0:0:0:0:
31,38,16541,5,2,0:2:0:0:
39,46,16713,2,0,L|96:28,1,60,2|0,0:2|0:0,0:0:0:0:
191,0,17058,2,0,B|185:55|185:55|181:59|181:59|174:118,2,120,2|0|2,0:2|0:0|0:2,0:0:0:0:
259,96,17920,6,0,P|328:83|337:14,1,150,2|0,0:2|0:0,0:0:0:0:
512,196,19299,5,2,0:2:0:0:
504,205,19472,2,0,L|446:221,1,60,2|0,0:2|0:0,0:0:0:0:
366,286,19817,2,0,B|366:344|366:344|417:308,2,120,2|0|2,0:2|0:0|0:2,0:0:0:0:
366,273,20679,1,2,0:2:0:0:
300,204,20851,6,0,B|233:202|181:231|217:252|171:291|99:280,1,225,2|2,0:2|0:2,0:0:0:0:
129,43,22230,6,0,B|81:83|81:83|113:164,2,150,2|2|2,0:2|0:2|0:2,0:0:0:0:
290,191,24472,5,2,0:2:0:0:
354,145,24644,1,2,0:2:0:0:
327,75,24817,1,2,0:2:0:0:
314,70,24989,6,0,B|362:42|406:72|406:72|416:115|462:125,1,179.999994506836,2|2,0:2|0:2,0:0:0:0:
165,370,27748,6,0,L|151:250,1,120,2|2,3:1|0:2,0:0:0:0:
142,170,28265,1,2,0:2:0:0:
220,203,28437,2,0,B|266:207|266:207|287:169,2,90,2|2|2,0:1|0:2|0:2,0:0:0:0:
136,164,29127,5,2,0:1:0:0:
179,10,29386,1,2,0:2:0:0:
31,59,29644,1,2,0:2:0:0:
123,79,29817,6,0,L|209:103,2,90,2|2|2,0:1|0:2|0:2,0:0:0:0:
374,144,30506,6,0,L|287:168,2,90,2|2|2,0:1|0:2|0:2,0:0:0:0:
451,123,31196,5,2,0:1:0:0:
341,75,31455,1,2,0:2:0:0:
429,198,31713,1,2,0:2:0:0:
485,262,31886,6,0,P|458:297|415:307,2,90,2|2|2,0:1|0:2|0:2,0:0:0:0:
368,372,32575,2,0,P|324:366|293:334,2,90,2|2|2,0:1|0:2|0:2,0:0:0:0:
215,310,33265,6,0,L|157:327,1,60,2|0,0:1|0:0,0:0:0:0:
69,358,33610,2,0,B|37:322|37:322|70:258,1,120,0|2,0:0|0:1,0:0:0:0:
34,149,34127,2,0,L|91:166,1,60
180,167,34472,2,0,B|212:131|212:131|178:67,2,120,2|0|2,0:2|0:0|0:2,0:0:0:0:
252,231,35334,2,0,L|369:208,1,120,2|0,0:1|0:0,0:0:0:0:
510,0,36024,6,0,P|491:23|482:51,1,60,2|0,0:1|0:0,0:0:0:0:
492,142,36368,2,0,L|374:119,1,120,0|2,0:0|0:1,0:0:0:0:
369,208,36886,2,0,P|379:235|399:257,1,60
476,296,37230,1,2,0:2:0:0:
405,367,37403,6,0,B|360:378|360:378|353:375|353:375|317:383,2,90,2|2|2,0:1|0:2|0:2,0:0:0:0:
217,284,38093,2,0,B|262:295|262:295|268:292|268:292|304:300,2,90,2|2|2,0:1|0:2|0:2,0:0:0:0:
122,348,38782,6,0,P|92:332|79:301,1,67.4999979400635,2|0,3:1|1:2,0:0:0:0:
0,283,39127,2,0,P|-1:249|19:222,1,67.4999979400635,0|2,3:2|1:2,0:0:0:0:
86,159,39472,2,0,P|133:176|182:187,2,101.249996910095,2|2|2,3:1|0:2|1:2,0:0:0:0:
34,66,40162,6,0,L|22:0,1,67.4999979400635,2|0,3:1|1:2,0:0:0:0:
118,70,40506,2,0,L|106:4,1,67.4999979400635,0|2,3:2|1:2,0:0:0:0:
215,101,40851,2,0,P|264:89|311:72,2,101.249996910095,2|2|2,3:1|0:2|1:2,0:0:0:0:
322,175,41541,6,0,P|355:177|387:188,1,67.4999979400635,2|0,3:1|1:2,0:0:0:0:
458,143,41886,2,0,P|472:173|479:206,1,67.4999979400635,0|2,3:2|1:2,0:0:0:0:
384,101,42230,2,0,L|390:-1,2,101.249996910095,2|2|2,3:1|0:2|1:2,0:0:0:0:
330,242,42920,6,0,L|321:174,1,67.4999979400635,2|0,3:1|1:2,0:0:0:0:
258,292,43265,2,0,L|249:224,1,67.4999979400635,0|2,3:2|1:2,0:0:0:0:
311,363,43610,2,0,P|354:338|405:333,2,101.249996910095,2|2|2,3:1|0:2|1:2,0:0:0:0:
181,384,44299,5,2,3:1:0:0:
181,384,44472,1,0,3:2:0:0:
113,310,44644,2,0,L|122:242,1,67.4999979400635,0|2,3:2|3:2,0:0:0:0:
0,216,44989,1,2,3:1:0:0:
0,216,45162,1,0,3:2:0:0:
68,142,45334,2,0,L|59:74,1,67.4999979400635,0|2,3:2|3:2,0:0:0:0:
210,15,45679,5,2,3:1:0:0:
303,71,45851,1,0,3:2:0:0:
247,164,46024,1,0,3:2:0:0:
152,108,46196,1,2,3:2:0:0:
229,90,46368,2,0,L|237:156,1,67.4999979400635,2|0,3:1|3:2,0:0:0:0:
273,300,46713,2,0,P|296:275|327:266,1,67.4999979400635,0|2,3:2|3:2,0:0:0:0:
512,227,47058,5,2,3:1:0:0:
417,283,47230,1,0,3:2:0:0:
361,190,47403,1,0,3:2:0:0:
454,134,47575,1,2,3:2:0:0:
437,210,47748,2,0,L|428:276,1,67.4999979400635,2|0,3:1|3:2,0:0:0:0:
336,333,48093,2,0,L|327:266,1,67.4999979400635,0|2,3:2|3:2,0:0:0:0:
237,364,48437,1,2,0:0:0:0:
58,373,49817,6,0,B|50:341|50:341|52:335|52:335|44:299,1,75,6|0,3:2|0:0,0:0:0:0:
0,236,50075,1,2,0:2:0:0:
0,236,50162,1,10,0:0:0:0:
62,131,50334,1,2,0:0:0:0:
172,229,50506,2,0,L|243:205,1,75,2|0,0:0|3:2,0:0:0:0:
321,231,50765,1,2,0:0:0:0:
321,231,50851,1,8,0:2:0:0:
380,131,51024,1,2,0:0:0:0:
285,16,51196,5,2,0:2:0:0:
258,102,51368,1,0,3:2:0:0:
264,111,51455,1,2,0:2:0:0:
269,120,51541,1,10,0:0:0:0:
243,204,51713,1,2,0:0:0:0:
380,131,51886,2,0,B|416:141|416:141|435:177|435:177|468:186,2,112.5,2|2|2,0:0|0:0|0:0,0:0:0:0:
243,204,52575,6,0,B|251:255|251:255|248:261|248:261|256:314,1,112.5,6|2,3:2|0:2,0:0:0:0:
319,369,52920,2,0,P|342:340|377:329,1,75,10|2,0:0|0:0,0:0:0:0:
162,295,53265,1,2,0:0:0:0:
88,258,53437,1,0,3:2:0:0:
77,263,53524,1,2,0:0:0:0:
67,268,53610,1,8,0:2:0:0:
0,223,53782,2,0,P|0:185|18:153,1,75,2|0,0:0|0:2,0:0:0:0:
169,42,54127,6,0,L|161:78,2,37.5,0|2|10,3:2|0:2|0:0,0:0:0:0:
84,103,54472,1,2,0:0:0:0:
296,112,54644,5,2,0:0:0:0:
200,214,54817,1,0,3:2:0:0:
200,214,54903,1,2,0:0:0:0:
381,321,55162,1,2,0:0:0:0:
324,249,55334,6,0,P|355:203|408:189,1,112.5,6|2,3:2|0:2,0:0:0:0:
485,225,55679,2,0,L|474:299,1,75,10|2,0:0|0:0,0:0:0:0:
512,131,56024,2,0,P|496:97|462:85,1,75,2|0,0:0|3:2,0:0:0:0:
423,14,56282,1,2,0:0:0:0:
423,14,56368,2,0,P|386:10|358:33,1,75,8|2,0:2|0:0,0:0:0:0:
269,120,56713,6,0,B|237:111|237:111|226:113|226:113|195:104,1,75,2|0,0:2|3:2,0:0:0:0:
129,47,56972,1,2,0:2:0:0:
129,47,57058,1,10,0:0:0:0:
19,149,57230,1,2,0:0:0:0:
84,216,57403,2,0,B|116:207|116:207|127:209|127:209|157:200,1,75,2|0,0:0|3:2,0:0:0:0:
238,247,57662,1,2,0:0:0:0:
238,247,57748,1,8,0:2:0:0:
186,378,57920,1,2,0:0:0:0:
265,331,58093,5,6,3:2:0:0:
345,364,58265,1,0,0:0:0:0:
356,362,58351,1,2,0:2:0:0:
368,361,58437,1,10,0:0:0:0:
449,384,58610,1,2,0:0:0:0:
499,301,58782,2,0,B|473:305|473:305|433:270|433:270|401:279,2,112.5,2|2|2,0:0|0:0|0:0,0:0:0:0:
416,189,59472,1,0,0:2:0:0:
428,59,59644,6,0,L|431:21,2,37.5,0|2|10,3:2|0:2|0:0,0:0:0:0:
487,126,59989,1,2,0:0:0:0:
416,189,60162,2,0,L|344:165,1,75,2|0,0:0|3:2,0:0:0:0:
275,205,60420,2,0,P|238:200|207:178,1,75,2|0,0:0|0:0,0:0:0:0:
202,97,60679,1,2,0:0:0:0:
124,193,60851,6,0,L|50:175,1,75,6|0,3:2|0:0,0:0:0:0:
0,239,61110,1,2,0:2:0:0:
0,239,61196,1,10,0:0:0:0:
118,110,61368,1,2,0:0:0:0:
174,262,61541,2,0,B|169:298|169:298|165:301|165:301|159:335,1,75,2|0,0:0|3:2,0:0:0:0:
225,384,61799,1,2,0:0:0:0:
225,384,61886,1,8,0:2:0:0:
312,301,62058,1,2,0:0:0:0:
371,356,62230,5,2,0:2:0:0:
436,304,62403,1,0,3:2:0:0:
430,294,62489,1,2,0:2:0:0:
424,284,62575,1,10,0:0:0:0:
491,224,62748,1,2,0:0:0:0:
405,110,62920,2,0,B|367:115|367:115|345:153|345:153|314:157,2,112.5,2|2|2,0:0|0:0|0:0,0:0:0:0:
234,27,63610,6,0,L|246:100,1,75,6|0,3:2|0:0,0:0:0:0:
233,184,63868,1,2,0:2:0:0:
233,184,63955,1,10,0:0:0:0:
99,100,64127,1,2,0:0:0:0:
77,179,64299,2,0,L|89:252,1,75,2|0,0:0|3:2,0:0:0:0:
61,328,64558,1,2,0:0:0:0:
61,328,64644,2,0,P|81:358|117:366,1,75,8|2,0:2|0:0,0:0:0:0:
252,310,64989,1,0,0:2:0:0:
252,310,65162,6,0,L|258:272,2,37.5,0|2|10,3:2|0:2|0:0,0:0:0:0:
318,383,65506,1,2,0:0:0:0:
471,304,65679,5,2,0:0:0:0:
433,193,65851,1,0,3:2:0:0:
433,193,65937,1,2,0:0:0:0:
257,272,66196,1,2,0:0:0:0:
344,232,66368,6,0,B|328:182|328:182|330:177|330:177|315:124,1,112.5,6|2,3:2|0:2,0:0:0:0:
318,43,66713,1,10,0:0:0:0:
162,0,66886,1,2,0:0:0:0:
124,80,67058,2,0,L|145:151,1,75,2|0,0:0|3:2,0:0:0:0:
114,231,67317,1,2,0:0:0:0:
114,231,67403,1,8,0:2:0:0:
10,197,67575,1,2,0:0:0:0:
37,349,67748,6,0,L|104:315,1,75,2|0,0:2|3:2,0:0:0:0:
180,350,68006,1,2,0:2:0:0:
180,350,68093,1,10,0:0:0:0:
259,262,68265,1,2,0:0:0:0:
328,308,68437,2,0,L|395:274,1,75,2|0,0:0|3:2,0:0:0:0:
473,303,68696,1,2,0:0:0:0:
473,303,68782,2,0,P|503:280|511:244,1,75,8|2,0:2|0:0,0:0:0:0:
504,124,69127,6,0,B|468:129|468:129|442:163|442:163|409:168,1,112.5,6|2,3:2|0:2,0:0:0:0:
342,213,69472,1,10,0:0:0:0:
228,109,69644,1,2,0:0:0:0:
287,45,69817,2,0,L|361:56,1,75,2|0,0:0|3:2,0:0:0:0:
419,0,70075,1,2,0:0:0:0:
419,0,70162,2,0,P|449:19|457:55,1,75,8|2,0:2|0:0,0:0:0:0:
409,167,70506,6,0,L|334:155,1,75,0|0,0:2|3:2,0:0:0:0:
262,208,70765,1,2,0:2:0:0:
262,208,70851,2,0,L|187:196,1,75,10|2,0:0|0:2,0:0:0:0:
39,110,71196,5,2,0:2:0:0:
133,59,71455,1,2,0:2:0:0:
42,5,71713,1,2,0:2:0:0:
72,60,71886,6,0,L|146:48,1,75,6|0,3:2|0:0,0:0:0:0:
342,111,72230,2,0,B|299:90|258:103|275:114|235:125|197:103,1,150,8|2,0:2|0:1,0:0:0:0:
303,180,72748,1,0,3:2:0:0:
301,191,72834,1,2,0:2:0:0:
299,202,72920,2,0,L|306:294,2,75,8|2|2,0:2|0:2|0:1,0:0:0:0:
440,100,73437,5,0,3:2:0:0:
438,111,73523,1,2,0:2:0:0:
436,122,73609,2,0,L|443:214,1,75,8|2,0:2|0:2,0:0:0:0:
369,310,73955,2,0,P|340:286|304:276,1,75,2|0,0:1|3:2,0:0:0:0:
232,324,74213,1,2,0:2:0:0:
232,324,74299,1,8,0:2:0:0:
155,169,74472,1,2,0:2:0:0:
108,248,74644,6,0,B|74:243|74:243|40:278|40:278|11:272,1,112.5,6|2,3:2|0:2,0:0:0:0:
10,198,74989,1,8,0:2:0:0:
105,323,75162,1,2,0:2:0:0:
155,169,75334,2,0,L|149:94,1,75,2|0,0:1|3:2,0:0:0:0:
189,21,75593,1,2,0:2:0:0:
189,21,75679,1,8,0:2:0:0:
70,103,75851,5,2,0:2:0:0:
70,103,75937,1,0,0:0:0:0:
70,103,76024,2,0,P|36:119|0:118,1,75,2|0,0:1|3:2,0:0:0:0:
189,21,76368,2,0,P|226:20|259:36,1,75,8|2,0:2|0:2,0:0:0:0:
306,107,76627,5,0,0:0:0:0:
306,107,76713,1,2,0:1:0:0:
383,18,76886,1,0,3:2:0:0:
383,18,76972,1,2,0:2:0:0:
467,184,77230,1,2,0:2:0:0:
412,98,77403,6,0,B|389:147|389:147|383:150|383:150|361:196,1,112.5,6|2,3:2|0:2,0:0:0:0:
381,289,77748,2,0,P|414:273|451:268,1,75,8|2,0:2|0:2,0:0:0:0:
505,329,78006,1,0,0:0:0:0:
512,337,78093,1,2,0:1:0:0:
467,184,78265,1,0,3:2:0:0:
472,174,78351,1,2,0:2:0:0:
478,164,78437,1,8,0:2:0:0:
381,289,78610,1,2,0:2:0:0:
370,290,78696,1,0,0:0:0:0:
358,291,78782,2,0,P|324:275|287:270,1,75,2|0,0:1|3:2,0:0:0:0:
223,315,79041,5,2,0:2:0:0:
223,315,79127,1,8,0:2:0:0:
106,182,79299,1,2,0:2:0:0:
47,247,79472,2,0,L|59:320,1,75,2|0,0:1|3:2,0:0:0:0:
5,380,79730,1,2,0:2:0:0:
5,380,79817,1,8,0:2:0:0:
144,276,79989,1,2,0:2:0:0:
0,171,80162,6,0,L|12:97,1,75,6|0,3:2|0:0,0:0:0:0:
0,11,80420,1,2,0:2:0:0:
0,11,80506,1,8,0:2:0:0:
100,102,80679,1,2,0:2:0:0:
110,99,80765,1,0,0:0:0:0:
121,95,80851,2,0,P|148:71|154:35,1,75,2|0,0:1|3:2,0:0:0:0:
231,0,81110,1,2,0:2:0:0:
231,0,81196,1,8,0:2:0:0:
340,133,81368,6,0,L|413:117,1,75,2|2,0:2|0:1,0:0:0:0:
352,237,81713,1,0,3:2:0:0:
259,205,81886,2,0,P|234:177|232:140,1,75,8|2,0:2|0:2,0:0:0:0:
278,72,82144,5,0,0:0:0:0:
278,72,82230,1,2,0:1:0:0:
154,170,82403,1,0,3:2:0:0:
154,170,82489,1,2,0:2:0:0:
352,237,82748,1,2,0:2:0:0:
259,205,82920,6,0,B|267:257|267:257|265:263|265:263|274:316,1,112.5,6|2,3:2|0:2,0:0:0:0:
210,375,83265,2,0,P|183:348|148:337,1,75,8|2,0:2|0:2,0:0:0:0:
50,240,83610,2,0,L|61:314,1,75,2|0,0:1|3:2,0:0:0:0:
0,384,83868,1,2,0:2:0:0:
0,384,83955,1,8,0:2:0:0:
152,227,84127,1,2,0:2:0:0:
73,136,84299,5,2,0:1:0:0:
147,80,84472,1,0,3:2:0:0:
156,86,84558,1,2,0:2:0:0:
165,92,84644,1,8,0:2:0:0:
236,29,84817,1,2,0:2:0:0:
391,90,84989,2,0,L|381:164,1,75,2|0,0:1|3:2,0:0:0:0:
428,232,85248,1,2,0:2:0:0:
428,232,85334,1,8,0:2:0:0:
297,111,85506,1,2,0:2:0:0:
482,33,85679,6,0,L|472:107,1,75,6|0,3:2|0:0,0:0:0:0:
512,177,85938,1,2,0:2:0:0:
512,177,86024,2,0,B|504:248|504:248|501:252|501:252|491:324,1,150,8|2,0:2|0:1,0:0:0:0:
292,384,86541,1,0,3:2:0:0:
329,303,86713,2,0,L|412:324,1,75,8|2,0:2|0:2,0:0:0:0:
260,244,87058,6,0,B|218:251|218:251|183:303|183:303|139:311,1,150,2|8,0:1|0:2,0:0:0:0:
18,193,87575,1,2,0:2:0:0:
118,199,87748,5,2,0:1:0:0:
15,93,87920,1,0,3:2:0:0:
18,82,88007,1,2,0:2:0:0:
22,72,88093,1,8,0:2:0:0:
159,4,88265,1,2,0:2:0:0:
161,14,88351,1,0,0:0:0:0:
163,24,88437,6,0,B|215:17|215:17|225:23|225:23|272:15,1,112.5,6|2,3:2|0:2,0:0:0:0:
364,54,88782,2,0,P|378:88|375:125,1,75,8|2,0:2|0:2,0:0:0:0:
312,176,89041,1,0,0:0:0:0:
312,176,89127,1,2,0:1:0:0:
443,275,89299,1,0,3:2:0:0:
354,315,89472,2,0,P|351:277|365:243,1,75,8|2,0:2|0:2,0:0:0:0:
228,364,89817,6,0,B|192:358|192:358|189:355|189:355|155:346,1,75,2|0,0:1|3:2,0:0:0:0:
80,370,90075,1,2,0:2:0:0:
80,370,90162,1,8,0:2:0:0:
9,221,90334,1,2,0:2:0:0:
77,157,90506,2,0,P|108:175|116:211,1,75,2|0,0:1|3:2,0:0:0:0:
13,95,90851,2,0,P|21:59|52:40,2,75,8|2|6,0:2|0:2|3:2,0:0:0:0:
178,106,91368,5,0,0:0:0:0:
188,101,91455,1,2,0:2:0:0:
198,96,91541,1,8,0:2:0:0:
266,42,91713,1,2,0:2:0:0:
353,183,91886,2,0,L|279:169,1,75,2|0,0:1|3:2,0:0:0:0:
409,260,92230,2,0,L|482:246,2,75,8|2|2,0:2|0:2|0:1,0:0:0:0:
240,378,92748,5,0,3:2:0:0:
237,367,92834,1,2,0:2:0:0:
234,356,92920,1,8,0:2:0:0:
156,311,93093,1,2,0:2:0:0:
279,169,93265,5,2,0:2:0:0:
346,353,93524,1,2,0:2:0:0:
156,311,93782,1,2,0:2:0:0:
247,262,93955,6,0,L|194:220,1,67.4999979400635,6|0,3:2|0:0,0:0:0:0:
107,238,94213,1,2,0:2:0:0:
107,238,94299,1,8,0:2:0:0:
53,173,94472,1,2,0:2:0:0:
55,162,94558,1,0,0:0:0:0:
57,152,94644,1,2,0:1:0:0:
6,89,94817,1,0,3:2:0:0:
125,25,94989,2,0,L|114:91,1,67.4999979400635,8|2,0:2|0:2,0:0:0:0:
178,147,95248,5,0,0:0:0:0:
178,147,95334,2,0,B|206:136|206:136|213:137|213:137|242:127,1,67.4999979400635,2|0,0:1|3:2,0:0:0:0:
314,162,95593,1,2,0:2:0:0:
314,162,95679,1,8,0:2:0:0:
405,40,95851,1,2,0:2:0:0:
464,112,96024,2,0,L|453:178,1,67.4999979400635,2|0,0:1|3:2,0:0:0:0:
510,250,96282,1,2,0:2:0:0:
510,250,96368,1,8,0:2:0:0:
360,374,96541,1,2,0:2:0:0:
393,296,96713,6,0,P|360:258|311:253,1,101.249996910095,6|2,3:2|0:2,0:0:0:0:
251,305,97058,2,0,P|218:311|188:296,1,67.4999979400635,8|2,0:2|0:2,0:0:0:0:
138,234,97317,1,0,0:0:0:0:
138,234,97403,1,2,0:1:0:0:
14,366,97575,1,0,3:2:0:0:
51,283,97748,2,0,L|37:216,2,67.4999979400635,8|2|2,0:2|0:2|0:1,0:0:0:0:
98,153,98265,6,0,L|91:119,2,33.7499989700318,0|2|8,3:2|0:2|0:2,0:0:0:0:
15,85,98610,1,2,0:2:0:0:
122,0,98782,2,0,B|154:9|154:9|177:40|177:40|205:47,2,101.249996910095,2|2|2,0:1|0:2|0:2,0:0:0:0:
199,153,99472,6,0,L|262:131,1,67.4999979400635,6|0,3:2|0:0,0:0:0:0:
334,172,99730,1,2,0:2:0:0:
334,172,99817,1,8,0:2:0:0:
413,133,99989,1,2,0:2:0:0:
412,122,100075,1,0,0:0:0:0:
411,111,100162,1,2,0:1:0:0:
491,71,100334,1,0,3:2:0:0:
341,15,100506,2,0,L|334:82,1,67.4999979400635,8|2,0:2|0:2,0:0:0:0:
374,250,100851,6,0,P|401:230|434:224,1,67.4999979400635,2|0,0:1|3:2,0:0:0:0:
504,266,101110,1,2,0:2:0:0:
504,266,101196,1,8,0:2:0:0:
334,172,101368,1,2,0:2:0:0:
289,346,101541,2,0,P|316:365|349:371,1,67.4999979400635,2|0,0:1|3:2,0:0:0:0:
421,327,101799,1,2,0:2:0:0:
421,327,101886,1,8,0:2:0:0:
268,240,102058,5,2,0:2:0:0:
270,250,102144,1,0,0:0:0:0:
273,259,102230,2,0,B|245:264|245:264|215:300|215:300|189:303,1,101.249996910095,6|2,3:2|0:2,0:0:0:0:
111,285,102575,1,8,0:2:0:0:
9,384,102748,1,2,0:2:0:0:
25,294,102920,2,0,L|15:227,1,67.4999979400635,2|0,0:1|3:2,0:0:0:0:
6,152,103179,1,2,0:2:0:0:
6,152,103265,2,0,P|30:127|62:119,2,67.4999979400635,8|2|2,0:2|0:2|0:1,0:0:0:0:
153,24,103782,6,0,L|122:9,2,33.7499989700318,0|2|8,3:2|0:2|0:2,0:0:0:0:
202,94,104127,1,2,0:2:0:0:
347,0,104299,5,2,0:1:0:0:
360,168,104472,1,0,3:2:0:0:
360,168,104558,1,2,0:2:0:0:
202,94,104817,1,2,0:2:0:0:
298,91,104989,6,0,L|364:79,1,67.4999979400635,6|0,3:2|0:0,0:0:0:0:
431,119,105248,1,2,0:2:0:0:
431,119,105334,2,0,L|497:107,1,67.4999979400635,8|2,0:2|0:2,0:0:0:0:
512,200,105679,2,0,B|506:250|506:250|500:253|500:253|493:296,2,101.249996910095,2|2|2,0:1|0:2|0:2,0:0:0:0:
405,262,106368,6,0,L|338:250,1,67.4999979400635,2|0,0:1|3:2,0:0:0:0:
268,290,106627,1,2,0:2:0:0:
268,290,106713,2,0,P|238:276|222:247,1,67.4999979400635,8|2,0:2|0:2,0:0:0:0:
153,205,107058,1,2,0:1:0:0:
86,262,107230,1,0,3:2:0:0:
90,271,107317,1,2,0:2:0:0:
94,280,107403,1,8,0:2:0:0:
33,339,107575,1,2,0:2:0:0:
3,215,107748,6,0,P|20:186|50:172,1,67.4999979400635,6|0,3:2|0:0,0:0:0:0:
117,133,108006,1,2,0:2:0:0:
117,133,108093,1,8,0:2:0:0:
8,47,108265,1,2,0:2:0:0:
79,0,108437,2,0,L|144:15,1,67.4999979400635,2|0,0:1|3:2,0:0:0:0:
191,85,108696,1,2,0:2:0:0:
191,85,108782,2,0,L|256:69,2,67.4999979400635,8|2|2,0:2|0:2|0:1,0:0:0:0:
302,142,109299,6,0,L|335:146,2,33.7499989700318,0|2|8,3:2|0:2|0:2,0:0:0:0:
227,259,109644,1,2,0:2:0:0:
301,299,109817,2,0,P|343:274|353:226,2,101.249996910095,2|2|2,0:1|0:2|0:2,0:0:0:0:
179,374,110506,6,0,B|149:369|149:369|124:332|124:332|98:327,1,101.249996910095,6|2,3:2|0:2,0:0:0:0:
20,359,110851,2,0,L|8:292,1,67.4999979400635,8|2,0:2|0:2,0:0:0:0:
78,167,111196,2,0,L|66:233,1,67.4999979400635,2|0,0:1|3:2,0:0:0:0:
146,257,111455,1,2,0:2:0:0:
146,257,111541,1,8,0:2:0:0:
0,144,111713,1,2,0:2:0:0:
16,65,111886,6,0,P|41:42|74:39,1,67.4999979400635,2|0,0:1|3:2,0:0:0:0:
137,100,112144,1,2,0:2:0:0:
137,100,112230,1,8,0:2:0:0:
240,2,112403,1,2,0:2:0:0:
301,57,112575,2,0,L|291:123,1,67.4999979400635,2|0,0:1|3:2,0:0:0:0:
349,191,112834,1,2,0:2:0:0:
349,191,112920,1,8,0:2:0:0:
452,99,113093,1,2,0:2:0:0:
502,164,113265,6,0,P|478:177|450:179,2,56.25,2|2|2,0:2|0:0|0:0,0:0:0:0:
388,228,113955,2,0,P|364:213|348:190,2,56.25,2|2|2,0:0|0:0|0:0,0:0:0:0:
263,181,114644,2,0,P|263:153|275:128,2,56.25,2|2|2,0:0|0:0|0:0,0:0:0:0:
287,266,115334,5,2,0:0:0:0:
178,360,115593,1,2,0:0:0:0:
151,219,115851,1,2,0:0:0:0:
209,280,116024,5,4,3:2:0:0:
256,192,116110,12,0,121541,0:0:0:0:
