osu file format v14

[General]
AudioFilename: audio.mp3
AudioLeadIn: 0
PreviewTime: 157365
Countdown: 0
SampleSet: None
StackLeniency: 0.7
Mode: 0
LetterboxInBreaks: 0
WidescreenStoryboard: 1

[Editor]
Bookmarks: 4461,14139,29623,37365,45107,68332,72203,81881,97365,105107,112849,136074,139945,147687,155429,157365,172849,173332,180590,184461,188332,196074
DistanceSpacing: 1
BeatDivisor: 2
GridSize: 4
TimelineZoom: 2.4

[Metadata]
Title:Super Anime Groove 3D World
TitleUnicode:Super Anime Groove 3D World
Artist:Android52
ArtistUnicode:Android52
Creator:Kofja
Version:Easy
Source:
Tags:Android52 Super Anime Groove 3D World Nisekoi Chitoge Kirisaki Gorilla RitzierJunk Kofja
BeatmapID:1426583
BeatmapSetID:494538

[Difficulty]
HPDrainRate:1
CircleSize:2
OverallDifficulty:1
ApproachRate:2.5
SliderMultiplier:0.9
SliderTickRate:1

[Events]
//Background and Video events
0,0,"BG.jpg",0,0
//Break Periods
2,29877,31570
2,72457,79957
2,97619,99312
2,140199,151522
//Storyboard Layer 0 (Background)
//Storyboard Layer 1 (Fail)
//Storyboard Layer 2 (Pass)
//Storyboard Layer 3 (Foreground)
//Storyboard Sound Samples

[TimingPoints]
603,483.870967741935,4,2,0,100,1,0
3748,-100,4,2,0,25,0,0
4292,-100,4,2,0,40,0,0
4473,-100,4,2,0,100,0,0
14151,-100,4,2,0,100,0,0
27699,-100,4,2,0,50,0,0
27941,-100,4,2,0,25,0,0
28183,-100,4,2,0,15,0,0
28546,-100,4,2,0,10,0,0
29151,-100,4,2,0,8,0,0
29393,-100,4,2,0,5,0,0
33506,-100,4,2,0,30,0,0
37377,-100,4,1,0,40,0,0
38344,-100,4,1,0,50,0,0
39312,-100,4,1,0,60,0,0
40280,-100,4,1,0,70,0,0
41248,-100,4,2,0,80,0,0
42820,-100,4,2,0,5,0,0
44151,-100,4,2,0,80,0,0
45119,-100,4,1,0,60,0,0
60603,-100,4,2,0,50,0,0
61086,-100,4,1,0,60,0,0
68344,-100,4,2,0,75,0,0
81893,-100,4,2,0,100,0,0
96893,-100,4,2,0,90,0,0
97135,-100,4,2,0,80,0,0
97377,-100,4,2,0,70,0,0
101248,-100,4,2,0,30,0,0
105119,-100,4,1,0,40,0,0
106086,-100,4,1,0,50,0,0
107054,-100,4,1,0,60,0,0
108022,-100,4,1,0,70,0,0
108990,-100,4,2,0,80,0,0
110562,-100,4,2,0,5,0,0
111893,-100,4,2,0,80,0,0
112861,-100,4,1,0,60,0,0
128345,-100,4,2,0,50,0,0
128828,-100,4,1,0,60,0,0
136086,-100,4,2,0,75,0,0
139957,-100,4,2,0,60,0,0
141530,-100,4,2,0,5,0,0
141590,-100,4,2,0,60,0,0
141832,-100,4,2,0,5,0,0
141892,-100,4,2,0,60,0,0
147699,-100,4,2,0,60,0,0
155441,-100,4,2,0,50,0,0
157135,-100,4,2,0,50,0,0
157377,-100,4,1,0,60,0,1
172861,-100,4,2,0,50,0,1
173344,-100,4,1,0,60,0,1
180602,-100,4,2,0,75,0,0
184473,-100,4,2,0,50,0,0
186409,-100,4,2,0,15,0,0
186893,-100,4,2,0,20,0,0
187014,-100,4,2,0,25,0,0
187135,-100,4,2,0,30,0,0
187256,-100,4,2,0,35,0,0
187377,-100,4,2,0,50,0,0
188163,-100,4,2,0,40,0,0
188344,-100,4,2,0,75,0,0
195663,-100,4,2,0,30,0,0
195784,-100,4,2,0,40,0,0
195905,-100,4,2,0,50,0,0
196026,-100,4,2,0,60,0,0
196086,-100,4,2,0,75,0,0
196117,-100,4,2,0,5,0,0

[HitObjects]
300,86,4473,6,0,P|344:82|387:97,1,90,6|8,0:0|0:0,0:0:0:0:
332,169,5441,2,0,P|294:193|252:209,1,90,0|8,0:0|0:0,0:0:0:0:
163,226,6409,1,2,0:0:0:0:
94,167,6893,1,8,0:0:0:0:
30,231,7377,2,0,B|10:281|23:318,1,90,0|8,0:0|0:0,0:0:0:0:
105,283,8344,6,2,P|195:287|285:296,1,180,2|0,0:0|0:0,0:0:0:0:
373,315,9796,1,8,0:0:0:0:
420,237,10280,2,0,P|433:153|365:102,2,180,10|2|12,0:0|0:0|0:0,0:0:0:0:
106,92,14151,6,0,L|106:182,1,90,2|8,0:0|0:0,0:0:0:0:
105,272,15119,2,0,P|123:312|163:330,1,90,0|8,0:0|0:0,0:0:0:0:
233,275,16086,2,0,P|251:235|291:217,1,90,2|8,0:0|0:0,0:0:0:0:
382,215,17054,1,0,0:0:0:0:
472,215,17538,1,8,0:0:0:0:
426,292,18022,6,0,L|330:292,1,90,2|8,0:0|0:0,0:0:0:0:
244,292,18990,2,0,P|200:286|164:260,1,90,0|8,0:0|0:0,0:0:0:0:
131,177,19957,2,0,L|109:89,1,90,2|8,0:0|0:0,0:0:0:0:
193,55,20925,2,0,L|182:11,2,45,2|8|0,0:0|0:0|0:0,0:0:0:0:
281,35,21893,6,0,P|297:76|299:121,1,90,2|8,0:0|0:0,0:0:0:0:
352,196,22861,2,0,P|335:237|333:282,1,90,0|8,0:0|0:0,0:0:0:0:
395,348,23828,2,0,L|439:269,1,90,2|8,0:0|0:0,0:0:0:0:
479,189,24796,1,0,0:0:0:0:
424,119,25280,1,8,0:0:0:0:
344,79,25764,6,0,P|300:67|258:79,2,90,2|8|2,0:0|0:0|0:0,0:0:0:0:
424,119,27215,5,8,0:0:0:0:
256,192,27699,12,2,29635,0:0:0:0:
256,192,33506,12,0,35441,0:0:0:0:
319,220,37377,6,0,L|244:146,1,90,8|8,0:0|0:0,0:0:0:0:
191,93,38344,2,0,L|112:167,1,90,8|8,0:0|0:0,0:0:0:0:
61,218,39312,2,0,L|127:284,1,90,8|8,0:0|0:0,0:0:0:0:
188,345,40280,2,0,L|257:278,1,90,8|8,0:0|0:0,0:0:0:0:
316,218,41248,6,0,L|412:124,2,135,6|4|14,0:0|0:0|0:0,0:0:0:0:
61,218,44151,2,0,L|61:173,1,45,8|4,0:0|0:0,0:0:0:0:
61,37,45119,6,0,P|105:37|150:42,1,90,4|2,0:0|0:0,0:0:0:0:
237,64,46086,2,0,P|280:76|322:92,1,90,8|2,0:0|0:0,0:0:0:0:
404,142,47054,1,8,0:0:0:0:
404,142,47538,1,8,0:0:0:0:
354,217,48022,1,8,0:0:0:0:
354,217,48506,1,8,0:0:0:0:
290,281,48990,6,0,L|290:328,2,45,8|0|2,0:0|0:0|0:0,0:0:0:0:
226,217,49957,2,0,L|226:172,2,45,8|0|2,0:0|0:0|0:0,0:0:0:0:
162,280,50925,1,10,0:0:0:0:
98,216,51409,1,10,0:0:0:0:
98,125,51893,1,10,0:0:0:0:
161,61,52377,1,10,0:0:0:0:
251,61,52861,6,0,P|250:105|245:150,1,90,4|2,0:0|0:0,0:0:0:0:
216,236,53828,2,0,P|228:279|244:321,1,90,8|2,0:0|0:0,0:0:0:0:
322,367,54796,1,8,0:0:0:0:
322,367,55280,1,8,0:0:0:0:
401,324,55764,1,8,0:0:0:0:
401,324,56248,1,8,0:0:0:0:
401,233,56732,2,0,L|448:233,2,45,8|0|2,0:0|0:0|0:0,0:0:0:0:
310,233,57699,2,0,L|310:278,2,45,8|0|2,0:0|0:0|0:0,0:0:0:0:
310,142,58667,1,10,0:0:0:0:
310,51,59151,1,10,0:0:0:0:
219,51,59635,1,10,0:0:0:0:
219,141,60119,2,0,L|174:141,2,45,10|8|4,0:0|0:0|0:0,0:0:0:0:
282,204,61086,6,0,L|346:267,1,90,8|2,0:0|0:0,0:0:0:0:
282,330,62054,2,0,L|218:267,1,90,8|2,0:0|0:0,0:0:0:0:
154,203,63022,2,0,L|90:266,1,90,8|2,0:0|0:0,0:0:0:0:
26,202,63990,2,0,L|90:139,2,90,8|2|8,0:0|0:0|0:0,0:0:0:0:
89,266,65441,5,2,0:0:0:0:
179,266,65925,1,8,0:0:0:0:
269,266,66409,2,0,P|313:264|357:254,2,90,2|8|2,0:0|0:0|0:0,0:0:0:0:
179,266,67861,1,8,0:0:0:0:
178,176,68344,6,0,P|175:131|162:88,1,90,6|0,0:0|0:0,0:0:0:0:
226,24,69312,2,0,P|270:27|313:40,1,90,6|0,0:0|0:0,0:0:0:0:
313,130,70280,1,0,0:0:0:0:
312,219,70764,2,2,P|287:303|205:324,1,180,2|10,0:0|0:0,0:0:0:0:
225,236,72215,1,6,0:0:0:0:
406,292,81893,6,0,L|406:202,1,90,2|8,0:0|0:0,0:0:0:0:
407,112,82861,2,0,P|389:72|349:54,1,90,0|8,0:0|0:0,0:0:0:0:
279,109,83828,2,0,P|261:149|221:167,1,90,2|8,0:0|0:0,0:0:0:0:
130,169,84796,1,0,0:0:0:0:
40,169,85280,1,8,0:0:0:0:
86,92,85764,6,0,L|182:92,1,90,2|8,0:0|0:0,0:0:0:0:
268,92,86732,2,0,P|312:98|348:124,1,90,0|8,0:0|0:0,0:0:0:0:
381,207,87699,2,0,L|403:295,1,90,2|8,0:0|0:0,0:0:0:0:
319,329,88667,2,0,L|329:372,2,45,2|8|0,0:0|0:0|0:0,0:0:0:0:
231,349,89635,6,0,P|215:308|213:263,1,90,2|8,0:0|0:0,0:0:0:0:
160,188,90603,2,0,P|177:147|179:102,1,90,0|8,0:0|0:0,0:0:0:0:
117,36,91570,2,0,L|73:115,1,90,2|8,0:0|0:0,0:0:0:0:
33,195,92538,1,0,0:0:0:0:
88,265,93022,1,8,0:0:0:0:
168,305,93506,6,0,P|212:317|254:305,2,90,2|8|2,0:0|0:0|0:0,0:0:0:0:
88,265,94957,1,8,0:0:0:0:
256,192,95441,12,2,97377,0:0:0:0:
256,192,101248,12,0,103183,0:0:0:0:
193,164,105119,6,0,L|268:238,1,90,8|8,0:0|0:0,0:0:0:0:
321,291,106086,2,0,L|400:217,1,90,8|8,0:0|0:0,0:0:0:0:
451,166,107054,2,0,L|385:100,1,90,8|8,0:0|0:0,0:0:0:0:
324,39,108022,2,0,L|255:106,1,90,8|8,0:0|0:0,0:0:0:0:
196,166,108990,6,0,L|100:260,2,135,6|4|14,0:0|0:0|0:0,0:0:0:0:
451,166,111893,2,0,L|451:211,1,45,8|4,0:0|0:0,0:0:0:0:
451,347,112861,6,0,P|407:347|362:342,1,90,4|2,0:0|0:0,0:0:0:0:
275,320,113828,2,0,P|232:308|190:292,1,90,8|2,0:0|0:0,0:0:0:0:
108,242,114796,1,8,0:0:0:0:
108,242,115280,1,8,0:0:0:0:
158,167,115764,1,8,0:0:0:0:
158,167,116248,1,8,0:0:0:0:
222,103,116732,6,0,L|222:56,2,45,8|0|2,0:0|0:0|0:0,0:0:0:0:
286,167,117699,2,0,L|286:212,2,45,8|0|2,0:0|0:0|0:0,0:0:0:0:
350,104,118667,1,10,0:0:0:0:
414,168,119151,1,10,0:0:0:0:
414,259,119635,1,10,0:0:0:0:
351,323,120119,1,10,0:0:0:0:
261,323,120603,6,0,P|262:279|267:234,1,90,4|2,0:0|0:0,0:0:0:0:
296,148,121570,2,0,P|284:105|268:63,1,90,8|2,0:0|0:0,0:0:0:0:
190,17,122538,1,8,0:0:0:0:
190,17,123022,1,8,0:0:0:0:
111,60,123506,1,8,0:0:0:0:
111,60,123990,1,8,0:0:0:0:
111,151,124474,2,0,L|64:151,2,45,8|0|2,0:0|0:0|0:0,0:0:0:0:
202,151,125441,2,0,L|202:106,2,45,8|0|2,0:0|0:0|0:0,0:0:0:0:
202,242,126409,1,10,0:0:0:0:
202,333,126893,1,10,0:0:0:0:
293,333,127377,1,10,0:0:0:0:
293,243,127861,2,0,L|338:243,2,45,10|8|4,0:0|0:0|0:0,0:0:0:0:
230,180,128828,6,0,L|166:117,1,90,8|2,0:0|0:0,0:0:0:0:
230,54,129796,2,0,L|294:117,1,90,8|2,0:0|0:0,0:0:0:0:
358,181,130764,2,0,L|422:118,1,90,8|2,0:0|0:0,0:0:0:0:
486,182,131732,2,0,L|422:245,2,90,8|2|8,0:0|0:0|0:0,0:0:0:0:
423,118,133183,5,2,0:0:0:0:
333,118,133667,1,8,0:0:0:0:
243,118,134151,2,0,P|199:120|155:130,2,90,2|8|2,0:0|0:0|0:0,0:0:0:0:
333,118,135603,1,8,0:0:0:0:
334,208,136086,6,0,P|337:253|350:296,1,90,6|0,0:0|0:0,0:0:0:0:
286,360,137054,2,0,P|242:357|199:344,1,90,6|0,0:0|0:0,0:0:0:0:
199,254,138022,1,0,0:0:0:0:
200,165,138506,2,2,P|225:81|307:60,1,180,2|10,0:0|0:0,0:0:0:0:
287,148,139957,1,6,0:0:0:0:
256,192,153022,12,4,155441,0:0:0:0:
451,37,157377,6,0,P|407:37|362:42,1,90,6|8,0:0|0:0,0:0:0:0:
275,64,158344,2,0,P|232:76|190:92,1,90,10|8,0:0|0:0,0:0:0:0:
108,142,159312,1,8,0:0:0:0:
108,142,159796,1,8,0:0:0:0:
158,217,160280,1,8,0:0:0:0:
158,217,160764,1,8,0:0:0:0:
222,281,161248,6,0,L|222:328,2,45,8|0|2,0:0|0:0|0:0,0:0:0:0:
286,217,162215,2,0,L|286:172,2,45,8|0|2,0:0|0:0|0:0,0:0:0:0:
350,280,163183,1,10,0:0:0:0:
414,216,163667,1,10,0:0:0:0:
414,125,164151,1,10,0:0:0:0:
351,61,164635,1,10,0:0:0:0:
261,61,165119,6,0,P|262:105|267:150,1,90,6|10,0:0|0:0,0:0:0:0:
296,236,166086,2,0,P|284:279|268:321,1,90,8|10,0:0|0:0,0:0:0:0:
190,367,167054,1,8,0:0:0:0:
190,367,167538,1,8,0:0:0:0:
111,324,168022,1,8,0:0:0:0:
111,324,168506,1,8,0:0:0:0:
111,233,168990,2,0,L|64:233,2,45,8|0|2,0:0|0:0|0:0,0:0:0:0:
202,233,169957,2,0,L|202:278,2,45,8|0|2,0:0|0:0|0:0,0:0:0:0:
202,142,170925,1,10,0:0:0:0:
202,51,171409,1,10,0:0:0:0:
293,51,171893,1,10,0:0:0:0:
293,141,172377,2,0,L|338:141,2,45,10|8|4,0:0|0:0|0:0,0:0:0:0:
230,204,173344,6,0,L|166:267,1,90,8|2,0:0|0:0,0:0:0:0:
230,330,174312,2,0,L|294:267,1,90,8|2,0:0|0:0,0:0:0:0:
358,203,175280,2,0,L|422:266,1,90,8|2,0:0|0:0,0:0:0:0:
486,202,176248,2,0,L|422:139,2,90,8|2|8,0:0|0:0|0:0,0:0:0:0:
423,266,177699,5,2,0:0:0:0:
333,266,178183,1,8,0:0:0:0:
243,266,178667,2,0,P|199:264|155:254,2,90,2|8|2,0:0|0:0|0:0,0:0:0:0:
333,266,180119,1,8,0:0:0:0:
334,176,180602,6,0,P|337:131|350:88,1,90,6|0,0:0|0:0,0:0:0:0:
286,24,181570,2,0,P|242:27|199:40,1,90,6|0,0:0|0:0,0:0:0:0:
199,130,182538,1,0,0:0:0:0:
200,219,183022,2,2,P|225:303|307:324,1,180,2|10,0:0|0:0,0:0:0:0:
297,245,184473,1,6,0:0:0:0:
297,245,185441,1,4,0:0:0:0:
297,245,186409,1,12,0:0:0:0:
370,191,186893,6,2,P|380:148|386:103,1,90,0|10,0:0|0:0,0:0:0:0:
212,86,188344,6,0,P|168:82|125:97,1,90,6|8,0:0|0:0,0:0:0:0:
180,169,189312,2,0,P|218:193|260:209,1,90,0|8,0:0|0:0,0:0:0:0:
349,226,190280,1,2,0:0:0:0:
418,167,190764,1,8,0:0:0:0:
482,231,191248,2,0,B|502:281|489:318,1,90,0|8,0:0|0:0,0:0:0:0:
407,283,192215,6,2,P|317:287|227:296,1,180,2|0,0:0|0:0,0:0:0:0:
139,315,193667,1,8,0:0:0:0:
92,237,194151,2,0,P|79:153|147:102,2,180,10|10|6,0:0|0:0|0:0,0:0:0:0:
