osu file format v14

[General]
AudioFilename: audio.mp3
AudioLeadIn: 0
PreviewTime: 96684
Countdown: 0
SampleSet: Soft
StackLeniency: 0.7
Mode: 0
LetterboxInBreaks: 1
WidescreenStoryboard: 0

[Editor]
Bookmarks: 46398,50398,50684,50970,60684,78398,87541,92113,96113,96398,96541,96684,114970,116684,116970,117255,133255,158398,181255
DistanceSpacing: 0.1
BeatDivisor: 4
GridSize: 4
TimelineZoom: 1.7

[Metadata]
Title:YourReality(Remix)
TitleUnicode:Your Reality(Remix)
Artist:Android233/CG5
ArtistUnicode:Android233/CG5
Creator:blueloniess
Version:bluelon
Source:
Tags:
BeatmapID:1800343
BeatmapSetID:860475

[Difficulty]
HPDrainRate:2
CircleSize:5
OverallDifficulty:8
ApproachRate:9.6
SliderMultiplier:1.4
SliderTickRate:1

[Events]
//Background and Video events
0,0,"1[M{4`LKKO_4SPV@{WE5XMS.jpg",0,0
//Break Periods
2,78598,87032
2,135741,151032
2,182313,184461
//Storyboard Layer 0 (Background)
//Storyboard Layer 1 (Fail)
//Storyboard Layer 2 (Pass)
//Storyboard Layer 3 (Foreground)
//Storyboard Layer 4 (Overlay)
//Storyboard Sound Samples

[TimingPoints]
113,285.714285714286,4,2,0,60,1,0
50970,-66.6666666666667,4,2,0,60,0,1
60684,-100,4,2,0,60,0,0
96684,-66.6666666666667,4,2,0,60,0,1
114970,-66.6666666666667,4,2,0,60,0,0
133255,-100,4,2,0,60,0,0
158398,-83.3333333333333,4,2,0,60,0,0
179827,-100,4,2,0,60,0,0
180398,-200,4,2,0,60,0,0

[HitObjects]
417,81,9827,5,6,0:0:0:0:
298,155,10398,2,0,L|133:162,1,140,2|0,0:0|0:0,0:0:0:0:
417,81,10970,5,0,0:0:0:0:
298,155,11541,2,0,L|133:162,1,140,2|0,0:0|0:0,0:0:0:0:
158,160,11970,1,0,0:0:0:0:
106,113,12113,2,0,P|87:164|111:212,1,105,2|0,0:0|0:0,0:0:0:0:
106,207,12398,2,0,L|107:284,1,70
266,384,12684,6,0,P|200:353|189:279,1,140,2|0,0:0|0:0,0:0:0:0:
393,321,13113,1,0,0:0:0:0:
261,308,13255,2,0,B|312:303|312:303|348:326|348:326|402:321,1,140,2|0,0:0|0:0,0:0:0:0:
374,96,13684,1,0,0:0:0:0:
366,236,13827,6,0,L|375:96,1,140,2|0,0:0|0:0,0:0:0:0:
469,245,14255,1,0,0:0:0:0:
299,213,14398,2,0,L|306:98,1,105,2|0,0:0|0:0,0:0:0:0:
306,108,14684,6,0,P|263:116|210:105,1,70
312,12,14970,5,2,0:0:0:0:
136,96,15255,1,0,0:0:0:0:
136,96,15398,1,0,0:0:0:0:
136,96,15541,2,0,L|146:236,1,140,2|0,0:0|0:0,0:0:0:0:
136,96,15970,1,0,0:0:0:0:
136,96,16113,2,0,L|146:236,1,140,2|0,0:0|0:0,0:0:0:0:
312,12,16684,1,6,0:0:0:0:
136,96,17255,5,2,0:0:0:0:
366,236,17541,1,0,0:0:0:0:
306,108,17684,1,2,0:0:0:0:
145,235,17970,5,2,0:0:0:0:
306,108,18113,1,0,0:0:0:0:
145,235,18398,5,2,0:0:0:0:
306,108,18684,1,8,0:0:0:0:
266,384,18970,5,6,0:0:0:0:
55,307,19541,2,0,L|51:143,1,140,2|0,0:0|0:0,0:0:0:0:
266,384,20113,5,0,0:0:0:0:
55,307,20684,2,0,L|51:143,1,140,2|0,0:0|0:0,0:0:0:0:
51,167,21113,1,0,0:0:0:0:
79,95,21255,2,0,P|111:117|126:181,1,105,2|0,0:0|0:0,0:0:0:0:
126,178,21541,2,0,L|208:178,1,70
329,72,21827,2,0,L|162:72,1,140,2|0,0:0|0:0,0:0:0:0:
280,143,22255,1,0,0:0:0:0:
261,240,22398,6,0,P|285:196|275:133,1,105,2|0,0:0|0:0,0:0:0:0:
196,178,22684,2,0,L|196:332,1,140,0|2,0:0|0:0,0:0:0:0:
304,322,23113,1,0,0:0:0:0:
398,330,23255,2,0,P|339:307|290:340,1,105
304,322,23541,2,0,L|304:182,2,140,2|0|2,0:0|0:0|0:0,0:0:0:0:
444,94,24398,5,2,0:0:0:0:
444,94,24541,1,0,0:0:0:0:
304,182,24684,2,0,L|146:169,1,140,2|0,0:0|0:0,0:0:0:0:
444,94,25113,5,0,0:0:0:0:
304,182,25255,2,0,L|146:169,1,140,2|0,0:0|0:0,0:0:0:0:
331,32,25827,1,6,0:0:0:0:
443,257,26398,5,2,0:0:0:0:
304,182,26684,5,2,0:0:0:0:
444,94,26827,1,0,0:0:0:0:
304,182,27113,5,0,0:0:0:0:
444,94,27256,1,2,0:0:0:0:
443,257,27541,5,2,0:0:0:0:
331,32,27827,1,8,0:0:0:0:
90,100,28113,6,0,L|70:261,1,140,6|0,0:0|0:0,0:0:0:0:
60,333,28541,1,0,0:0:0:0:
257,301,28684,2,0,P|206:259|135:282,1,140,2|0,0:0|0:0,0:0:0:0:
190,326,29113,1,0,0:0:0:0:
190,326,29184,1,0,0:0:0:0:
190,326,29255,1,2,0:0:0:0:
144,187,29398,1,0,0:0:0:0:
39,244,29541,2,0,P|33:308|64:335,1,105
190,326,29827,5,2,0:0:0:0:
144,187,29970,1,0,0:0:0:0:
233,128,30113,2,0,L|309:128,1,70
403,214,30398,2,0,P|354:237|302:205,1,105,2|0,0:0|0:0,0:0:0:0:
303,128,30684,1,0,0:0:0:0:
442,135,30827,6,0,P|477:169|477:261,1,140,2|0,0:0|0:0,0:0:0:0:
353,140,31255,2,0,P|364:92|444:46,1,140,2|0,0:0|0:0,0:0:0:0:
403,214,31684,1,0,0:0:0:0:
403,214,31827,2,0,P|356:227|276:181,1,140,2|2,0:0|0:0,0:0:0:0:
237,129,32255,1,0,0:0:0:0:
182,85,32398,2,0,P|146:74|96:95,1,70,2|0,0:0|0:0,0:0:0:0:
147,145,32684,5,6,0:0:0:0:
150,285,32827,2,0,L|147:140,1,140
47,196,33255,2,0,L|48:265,1,70,2|0,0:0|0:0,0:0:0:0:
151,373,33541,1,0,0:0:0:0:
331,329,33684,2,0,P|289:366|219:325,1,140,2|0,0:0|0:0,0:0:0:0:
276,231,34113,2,0,L|276:320,1,70
220,192,34398,6,0,P|267:166|332:192,1,105,2|0,0:0|0:0,0:0:0:0:
314,176,34684,2,0,L|396:177,1,70
456,347,34970,2,0,P|402:327|391:240,1,140,2|0,0:0|0:0,0:0:0:0:
453,275,35398,1,0,0:0:0:0:
401,359,35541,6,0,L|309:358,1,70,2|0,0:0|0:0,0:0:0:0:
186,248,35827,2,0,P|258:248|258:332,1,140,2|0,0:0|0:0,0:0:0:0:
132,299,36255,1,0,0:0:0:0:
132,299,36398,2,0,P|115:263|117:220,1,70,2|0,0:0|0:0,0:0:0:0:
147,121,36684,6,0,P|100:170|8:177,1,140,2|0,0:0|0:0,0:0:0:0:
174,31,37113,1,0,0:0:0:0:
246,80,37255,2,0,P|276:133|268:225,1,140,6|0,0:0|0:0,0:0:0:0:
147,121,37684,5,0,0:0:0:0:
207,272,37827,2,0,P|277:301|347:265,1,140,2|0,0:0|0:0,0:0:0:0:
274,210,38255,1,0,0:0:0:0:
107,219,38398,2,0,P|97:296|140:362,1,140,2|0,0:0|0:0,0:0:0:0:
207,272,38827,1,0,0:0:0:0:
207,272,38898,1,0,0:0:0:0:
207,272,38970,1,2,0:0:0:0:
155,147,39113,1,0,0:0:0:0:
38,213,39255,2,0,P|77:221|117:216,1,70,2|0,0:0|0:0,0:0:0:0:
66,97,39541,5,6,0:0:0:0:
106,218,39684,1,0,0:0:0:0:
106,218,39755,1,0,0:0:0:0:
106,218,39827,1,0,0:0:0:0:
234,125,39970,2,0,B|128:125|128:125|158:149,1,140,2|0,0:0|0:0,0:0:0:0:
274,210,40398,2,0,L|362:210,1,70,2|0,0:0|0:0,0:0:0:0:
197,41,40684,2,0,L|109:41,1,70,2|0,0:0|0:0,0:0:0:0:
3,154,40970,1,0,0:0:0:0:
154,146,41113,1,0,0:0:0:0:
154,146,41184,1,0,0:0:0:0:
154,146,41255,5,2,0:0:0:0:
23,42,41398,1,0,0:0:0:0:
106,218,41541,1,0,0:0:0:0:
127,41,41684,1,0,0:0:0:0:
3,154,41827,6,0,L|8:307,1,140,6|0,0:0|0:0,0:0:0:0:
81,356,42255,1,0,0:0:0:0:
147,340,42398,2,0,P|108:357|54:345,1,70,2|0,0:0|0:0,0:0:0:0:
100,284,42684,1,0,0:0:0:0:
230,357,42827,2,0,B|301:382|301:322|373:361,1,140,2|0,0:0|0:0,0:0:0:0:
261,283,43255,1,0,0:0:0:0:
147,340,43398,1,0,0:0:0:0:
181,215,43541,5,2,0:0:0:0:
365,357,43684,1,0,0:0:0:0:
365,357,43755,1,0,0:0:0:0:
365,357,43827,1,0,0:0:0:0:
285,219,43970,2,0,B|296:197|342:186|342:186|349:230|324:255,1,140,2|0,0:0|0:0,0:0:0:0:
230,357,44398,1,0,0:0:0:0:
103,269,44541,1,0,0:0:0:0:
103,269,44613,1,0,0:0:0:0:
103,269,44684,5,2,0:0:0:0:
181,215,44827,1,0,0:0:0:0:
101,146,44970,2,0,P|52:143|11:156,1,70
181,215,45255,2,0,P|211:149|178:80,1,140,2|0,0:0|0:0,0:0:0:0:
101,146,45684,1,0,0:0:0:0:
194,217,45827,6,0,L|283:217,1,70,2|0,0:0|0:0,0:0:0:0:
374,129,46113,2,0,L|285:129,1,70
82,219,46398,5,6,0:0:0:0:
256,192,46541,12,0,48684,0:0:0:0:
373,53,50398,5,0,1:0:0:0:
444,160,50684,1,0,1:0:0:0:
328,276,50970,6,0,L|81:277,1,210.000008010865,6|8,0:0|0:0,0:0:0:0:
444,160,51398,2,0,P|470:207|459:243,1,52.5000020027161
328,380,51541,2,0,L|327:249,1,105.000004005432,2|0,0:0|0:0,0:0:0:0:
330,150,51755,1,0,0:0:0:0:
330,150,51827,2,0,P|281:162|208:136,1,105.000004005432,8|0,0:0|0:0,0:0:0:0:
279,41,52113,5,2,0:0:0:0:
165,214,52255,2,0,P|143:152|151:124,1,52.5000020027161
56,40,52398,2,0,P|116:59|176:22,1,105.000004005432,8|0,0:0|0:0,0:0:0:0:
52,160,52684,6,0,B|117:119|166:138|166:138|132:181,1,157.500006008148,2|0,0:0|0:0,0:0:0:0:
12,339,52970,2,0,L|-1:227,1,105.000004005432,8|0,0:0|0:0,0:0:0:0:
89,383,53255,5,2,0:0:0:0:
116,311,53398,2,0,B|100:286|100:286|116:262|116:262,1,52.5000020027161
281,266,53541,2,0,P|206:299|163:279,1,105.000004005432,8|0,0:0|0:0,0:0:0:0:
309,135,53827,6,0,L|475:135,1,157.500006008148,2|0,0:0|0:0,0:0:0:0:
389,48,54113,5,8,0:0:0:0:
208,135,54255,2,0,P|195:78|205:57,1,52.5000020027161
309,135,54398,2,0,P|308:202|264:265,1,105.000004005432,2|0,0:0|0:0,0:0:0:0:
128,228,54684,2,0,P|169:207|215:213,1,52.5000020027161,8|0,0:0|0:0,0:0:0:0:
166,348,54827,2,0,P|169:316|198:266,1,52.5000020027161
350,323,54970,6,0,B|293:354|239:342|239:342|271:335|289:314,1,157.500006008148,2|0,0:0|0:0,0:0:0:0:
413,273,55255,2,0,P|427:299|419:360,1,52.5000020027161,8|0,0:0|0:0,0:0:0:0:
292,235,55398,1,0,0:0:0:0:
357,155,55541,6,0,P|289:164|233:71,1,157.500006008148,2|0,0:0|0:0,0:0:0:0:
169,68,55827,2,0,P|162:94|188:155,1,52.5000020027161,8|0,0:0|0:0,0:0:0:0:
0,142,55970,2,0,P|27:158|57:212,1,52.5000020027161
68,69,56113,6,0,L|143:240,1,157.500006008148,2|0,0:0|0:0,0:0:0:0:
172,307,56398,5,8,0:0:0:0:
78,298,56541,2,0,P|49:297|21:283,1,52.5000020027161
131,213,56684,2,0,L|272:212,1,105.000004005432,2|0,0:0|0:0,0:0:0:0:
279,384,56970,6,0,P|262:330|266:308,1,52.5000020027161,8|0,0:0|0:0,0:0:0:0:
482,286,57113,2,0,P|477:311|464:334,1,52.5000020027161
316,236,57255,2,0,P|386:219|410:296,1,157.500006008148,2|0,0:0|0:0,0:0:0:0:
262,335,57541,5,8,0:0:0:0:
316,236,57684,2,0,L|422:236,1,105.000004005432,0|2,0:0|0:0,0:0:0:0:
363,375,57970,2,0,P|353:336|358:300,1,52.5000020027161
455,151,58113,2,0,P|460:198|405:237,1,105.000004005432,8|0,0:0|0:0,0:0:0:0:
246,194,58398,6,0,B|309:170|360:181|360:181|328:212,1,157.500006008148,2|0,0:0|0:0,0:0:0:0:
284,84,58684,1,8,0:0:0:0:
154,255,58827,1,0,0:0:0:0:
17,187,58970,6,0,P|61:178|115:190,1,52.5000020027161,2|0,0:0|0:0,0:0:0:0:
284,84,59113,2,0,P|240:75|186:87,1,52.5000020027161
34,83,59255,6,0,P|78:74|132:86,1,52.5000020027161,8|0,0:0|0:0,0:0:0:0:
246,194,59398,2,0,P|202:185|148:197,1,52.5000020027161
71,335,59541,2,0,P|12:268|92:173,1,210.000008010865,2|8,0:0|0:0,0:0:0:0:
67,177,60113,5,2,0:0:0:0:
334,185,60684,6,0,L|171:185,1,140,6|0,0:0|1:0,0:0:0:0:
340,53,61113,1,0,0:0:0:0:
409,251,61255,2,0,P|436:188|409:125,1,140,2|0,0:0|1:0,0:0:0:0:
334,185,61684,1,0,0:0:0:0:
410,263,61827,6,0,L|485:262,1,70,2|0,0:0|0:0,0:0:0:0:
296,323,62113,1,0,1:0:0:0:
334,185,62255,1,0,0:0:0:0:
182,262,62398,2,0,B|107:295|111:238|33:278,1,140,2|0,0:0|1:0,0:0:0:0:
78,336,62827,1,0,0:0:0:0:
138,206,62970,6,0,L|133:114,1,70,2|0,0:0|0:0,0:0:0:0:
125,16,63255,1,0,1:0:0:0:
27,141,63398,1,0,0:0:0:0:
221,139,63541,2,0,B|296:113|294:171|387:127,1,140,2|0,0:0|1:0,0:0:0:0:
256,207,63970,1,0,0:0:0:0:
256,207,64041,1,0,0:0:0:0:
256,207,64113,5,0,1:1:0:0:
327,64,64255,1,0,0:0:0:0:
444,105,64398,2,0,P|450:151|439:190,1,70,0|0,1:0|0:0,0:0:0:0:
326,207,64613,1,0,0:0:0:0:
326,207,64684,6,0,L|254:207,1,70,2|0,0:0|0:0,0:0:0:0:
145,289,64970,1,0,1:0:0:0:
286,324,65113,1,0,0:0:0:0:
156,200,65255,6,0,P|86:218|55:299,1,140,2|0,0:0|1:0,0:0:0:0:
145,289,65684,1,0,0:0:0:0:
69,153,65827,2,0,L|-17:154,1,70,2|0,0:0|0:0,0:0:0:0:
145,289,66113,2,0,L|231:290,1,70,0|0,1:0|0:0,0:0:0:0:
388,152,66398,6,0,L|225:153,1,140,2|0,0:0|1:0,0:0:0:0:
69,153,66827,1,0,0:0:0:0:
145,289,66970,2,0,L|145:220,1,70,2|0,0:0|0:0,0:0:0:0:
248,82,67255,2,0,L|248:151,1,70,0|0,1:0|0:0,0:0:0:0:
369,287,67541,6,0,B|305:313|305:253|224:280,1,140,2|0,0:0|1:0,0:0:0:0:
262,339,67970,1,0,0:0:0:0:
341,224,68113,1,2,0:0:0:0:
145,289,68255,1,0,0:0:0:0:
149,324,68327,1,0,0:0:0:0:
154,358,68398,1,0,1:0:0:0:
17,254,68541,1,0,0:0:0:0:
112,161,68684,6,0,B|176:187|176:127|257:154,1,140,2|0,0:0|1:0,0:0:0:0:
247,151,69113,1,0,0:0:0:0:
415,254,69255,5,2,0:0:0:0:
154,358,69827,2,0,L|3:342,1,140,2|0,0:0|1:0,0:0:0:0:
233,277,70255,1,0,0:0:0:0:
119,118,70398,6,0,L|127:259,1,140,2|0,0:0|1:0,0:0:0:0:
126,257,70827,1,0,0:0:0:0:
280,187,70970,2,0,P|237:160|186:165,1,70,2|0,0:0|0:0,0:0:0:0:
126,257,71255,5,0,1:0:0:0:
233,277,71398,1,0,0:0:0:0:
119,118,71541,2,0,B|64:122|12:107|12:107|63:142,1,140,2|0,0:0|1:0,0:0:0:0:
218,157,71970,1,0,0:0:0:0:
228,33,72113,2,0,P|175:39|160:47,1,70,2|0,0:0|0:0,0:0:0:0:
263,222,72398,2,0,P|294:168|247:84,1,140,0|2,1:0|0:0,0:0:0:0:
142,196,72827,1,0,0:0:0:0:
142,196,72898,1,0,0:0:0:0:
142,196,72970,2,0,L|142:266,1,70,0|0,1:0|0:0,0:0:0:0:
239,365,73255,6,0,B|189:343|189:343|246:316,1,105,2|0,0:0|0:0,0:0:0:0:
309,276,73541,2,0,P|323:316|316:355,1,70,0|0,1:0|0:0,0:0:0:0:
222,237,73827,6,0,P|256:195|344:187,1,140,2|0,0:0|1:0,0:0:0:0:
309,276,74255,1,0,0:0:0:0:
309,276,74327,1,0,0:0:0:0:
309,276,74398,5,2,0:0:0:0:
217,227,74541,2,0,L|218:150,1,70,0|0,0:0|1:0,0:0:0:0:
221,51,74827,1,0,0:0:0:0:
439,119,74970,6,0,B|351:149|383:85|278:127,1,140,2|0,0:0|1:0,0:0:0:0:
337,184,75398,1,0,0:0:0:0:
400,61,75541,5,2,0:0:0:0:
217,157,75684,1,0,0:0:0:0:
217,157,75827,2,0,L|217:227,1,70,0|0,1:0|0:0,0:0:0:0:
59,263,76113,6,0,B|104:297|160:284|160:284|139:265|128:236,1,140,2|0,0:0|1:0,0:0:0:0:
20,158,76541,1,0,0:0:0:0:
0,305,76684,6,0,L|0:379,1,70,2|0,0:0|0:0,0:0:0:0:
138,328,76970,2,0,L|138:258,1,70,0|0,1:0|0:0,0:0:0:0:
20,158,77255,5,2,0:0:0:0:
41,130,77326,1,0,0:0:0:0:
70,111,77397,1,0,0:0:0:0:
103,102,77469,1,0,0:0:0:0:
138,104,77540,1,0,1:0:0:0:
138,258,77684,1,0,0:0:0:0:
20,158,77827,6,0,L|21:72,1,70,2|0,0:0|0:0,0:0:0:0:
223,180,78113,1,0,1:0:0:0:
138,258,78255,1,0,0:0:0:0:
216,25,78398,5,6,0:0:0:0:
216,25,87541,5,0,1:0:0:0:
216,25,88113,5,0,1:0:0:0:
216,25,88684,5,0,1:0:0:0:
216,25,89255,5,0,1:0:0:0:
216,25,89827,5,0,1:0:0:0:
216,25,90398,5,0,1:0:0:0:
216,25,90970,5,0,1:0:0:0:
216,25,91541,5,0,1:0:0:0:
216,25,92113,5,0,1:0:0:0:
256,192,92255,12,0,94398,1:0:0:0:
305,346,96113,5,0,1:0:0:0:
305,346,96398,1,0,1:0:0:0:
128,287,96684,6,0,P|215:254|261:269,1,105.000004005432,6|0,0:0|0:0,0:0:0:0:
305,346,96898,1,0,0:0:0:0:
305,346,96970,2,0,L|290:286,1,52.5000020027161,8|0,0:0|0:0,0:0:0:0:
264,189,97113,1,0,0:0:0:0:
231,14,97255,6,0,B|192:44|192:44|192:200,1,157.500006008148,2|0,0:0|0:0,0:0:0:0:
264,189,97541,2,0,L|264:82,1,105.000004005432,8|0,0:0|0:0,0:0:0:0:
24,198,97827,6,0,P|80:212|140:196,1,105.000004005432,2|0,0:0|0:0,0:0:0:0:
192,152,98041,1,0,0:0:0:0:
192,152,98113,2,0,L|136:117,1,52.5000020027161,8|0,0:0|0:0,0:0:0:0:
24,198,98255,1,0,0:0:0:0:
54,308,98398,6,0,B|83:343|83:343|224:343,1,157.500006008148,2|0,0:0|0:0,0:0:0:0:
226,276,98684,2,0,L|92:276,1,105.000004005432,8|0,0:0|0:0,0:0:0:0:
314,345,98970,6,0,P|333:284|327:235,1,105.000004005432,2|0,0:0|0:0,0:0:0:0:
305,121,99184,1,0,0:0:0:0:
305,121,99255,2,0,L|276:173,1,52.5000020027161,8|0,0:0|0:0,0:0:0:0:
226,276,99398,1,0,0:0:0:0:
468,279,99541,6,0,B|441:243|441:243|320:243,1,157.500006008148,2|0,0:0|0:0,0:0:0:0:
300,308,99827,2,0,L|419:308,1,105.000004005432,8|0,0:0|0:0,0:0:0:0:
510,167,100113,6,0,P|456:176|390:155,1,105.000004005432,2|0,0:0|0:0,0:0:0:0:
305,121,100327,1,0,0:0:0:0:
305,121,100398,2,0,L|334:69,1,52.5000020027161,8|0,0:0|0:0,0:0:0:0:
328,243,100541,1,0,0:0:0:0:
192,152,100684,6,0,B|192:44|192:44|231:14,1,157.500006008148,2|0,0:0|0:0,0:0:0:0:
264,83,100970,2,0,L|264:189,1,105.000004005432,8|0,0:0|0:0,0:0:0:0:
150,225,101255,6,0,L|35:225,1,105.000004005432,2|0,0:0|0:0,0:0:0:0:
264,189,101470,1,0,0:0:0:0:
264,189,101541,2,0,P|275:214|274:255,1,52.5000020027161,8|0,0:0|0:0,0:0:0:0:
208,283,101684,1,0,0:0:0:0:
264,189,101827,6,0,L|421:189,1,157.500006008148,2|0,0:0|0:0,0:0:0:0:
188,384,102113,2,0,P|188:331|208:283,1,105.000004005432,8|0,0:0|0:0,0:0:0:0:
401,357,102398,6,0,L|293:357,1,105.000004005432,2|0,0:0|0:0,0:0:0:0:
465,302,102613,1,0,0:0:0:0:
465,302,102684,2,0,P|485:345|484:367,1,52.5000020027161,8|0,0:0|0:0,0:0:0:0:
355,281,102827,1,0,0:0:0:0:
355,157,102970,6,0,L|513:157,1,157.500006008148,2|0,0:0|0:0,0:0:0:0:
248,187,103255,2,0,P|248:134|268:86,1,105.000004005432,8|0,0:0|0:0,0:0:0:0:
474,93,103541,6,0,P|444:146|340:147,1,157.500006008148,2|0,0:0|0:0,0:0:0:0:
268,86,103827,2,0,P|312:54|394:60,1,105.000004005432,8|0,0:0|0:0,0:0:0:0:
248,187,104113,6,0,P|195:217|104:166,1,157.500006008148,2|0,0:0|0:0,0:0:0:0:
73,77,104399,2,0,P|127:71|195:117,1,105.000004005432,8|0,0:0|0:0,0:0:0:0:
209,364,104684,6,0,P|148:364|95:274,1,157.500006008148,2|0,0:0|0:0,0:0:0:0:
112,181,104970,2,0,P|161:203|197:277,1,105.000004005432,8|0,0:0|0:0,0:0:0:0:
94,291,105184,1,0,0:0:0:0:
94,291,105255,6,0,L|-14:291,1,105.000004005432,2|0,0:0|0:0,0:0:0:0:
112,181,105541,2,0,L|220:181,1,105.000004005432,8|0,0:0|0:0,0:0:0:0:
329,333,105827,5,2,0:0:0:0:
417,289,105970,2,0,P|425:323|422:373,1,52.5000020027161
331,240,106113,2,0,P|330:187|342:136,1,105.000004005432,8|0,0:0|0:0,0:0:0:0:
488,173,106398,6,0,L|424:195,1,52.5000020027161,2|0,0:0|0:0,0:0:0:0:
485,186,106541,2,0,L|421:208,1,52.5000020027161,2|0,0:0|0:0,0:0:0:0:
378,37,106684,2,0,P|430:72|439:138,1,105.000004005432,8|0,0:0|0:0,0:0:0:0:
342,136,106970,5,2,0:0:0:0:
234,138,107113,2,0,P|239:95|252:70,1,52.5000020027161
133,14,107255,2,0,P|154:61|157:113,1,105.000004005432,8|0,0:0|0:0,0:0:0:0:
19,86,107541,6,0,L|87:72,1,52.5000020027161,2|0,0:0|0:0,0:0:0:0:
24,92,107684,2,0,L|92:78,1,52.5000020027161,2|0,0:0|0:0,0:0:0:0:
86,258,107827,2,0,P|64:210|61:158,1,105.000004005432,8|0,0:0|0:0,0:0:0:0:
230,205,108113,5,2,0:0:0:0:
156,332,108255,2,0,P|160:269|154:244,1,52.5000020027161
230,205,108398,2,0,P|234:275|243:313,1,105.000004005432,8|0,0:0|0:0,0:0:0:0:
328,384,108684,6,0,L|329:204,1,157.500006008148,2|0,0:0|0:0,0:0:0:0:
488,262,108970,2,0,P|429:287|387:257,1,105.000004005432,8|0,0:0|0:0,0:0:0:0:
486,93,109255,5,2,0:0:0:0:
379,117,109398,2,0,P|374:84|392:44,1,52.5000020027161
263,23,109541,2,0,P|283:70|276:122,1,105.000004005432,8|0,0:0|0:0,0:0:0:0:
40,80,109827,6,0,L|203:80,1,157.500006008148,2|0,0:0|0:0,0:0:0:0:
68,164,110113,2,0,P|119:150|177:169,1,105.000004005432,8|0,0:0|0:0,0:0:0:0:
276,228,110398,5,2,0:0:0:0:
401,179,110541,2,0,P|371:170|326:179,1,52.5000020027161
461,241,110684,2,0,P|484:187|473:136,1,105.000004005432,8|0,0:0|0:0,0:0:0:0:
367,35,110970,6,0,L|371:102,1,52.5000020027161,2|0,0:0|0:0,0:0:0:0:
360,33,111113,2,0,L|364:100,1,52.5000020027161,2|0,0:0|0:0,0:0:0:0:
254,173,111255,2,0,P|314:189|360:158,1,105.000004005432,8|0,0:0|0:0,0:0:0:0:
192,39,111541,5,2,0:0:0:0:
109,95,111684,2,0,P|94:40|98:24,1,52.5000020027161
274,73,111827,2,0,P|275:125|253:172,1,105.000004005432,8|0,0:0|0:0,0:0:0:0:
154,257,112113,6,0,L|151:192,1,52.5000020027161,2|0,0:0|0:0,0:0:0:0:
148,253,112255,2,0,L|145:188,1,52.5000020027161,2|0,0:0|0:0,0:0:0:0:
182,135,112398,5,8,0:0:0:0:
286,282,112684,6,0,P|191:290|146:250,1,157.500006008148,2|0,0:0|0:0,0:0:0:0:
288,212,112970,2,0,P|338:235|354:295,1,105.000004005432,8|0,0:0|0:0,0:0:0:0:
147,252,113255,6,0,P|92:173|104:114,1,157.500006008148,2|0,0:0|0:0,0:0:0:0:
210,218,113541,2,0,P|214:273|181:316,1,105.000004005432,8|0,0:0|0:0,0:0:0:0:
88,213,113827,6,0,P|128:126|185:107,1,157.500006008148,2|0,0:0|0:0,0:0:0:0:
147,252,114113,2,0,P|102:283|42:267,1,105.000004005432,8|0,0:0|0:0,0:0:0:0:
18,210,114398,6,0,L|19:100,1,105.000004005432,2|0,0:0|0:0,0:0:0:0:
180,9,114684,2,0,L|181:119,1,105.000004005432,8|0,0:0|0:0,0:0:0:0:
107,155,114970,5,6,0:0:0:0:
107,155,116684,5,0,1:0:0:0:
107,155,116970,5,0,1:0:0:0:
178,254,117255,6,0,P|87:276|-8:197,1,210.000008010865,6|8,0:0|0:0,0:0:0:0:
107,155,117684,1,0,0:0:0:0:
107,155,117755,1,0,0:0:0:0:
107,155,117827,5,2,0:0:0:0:
0,211,117970,1,0,0:0:0:0:
84,70,118113,2,0,L|197:70,1,105.000004005432,8|0,0:0|0:0,0:0:0:0:
256,192,118398,5,2,0:0:0:0:
428,70,118541,2,0,L|315:70,1,105.000004005432,0|8,0:0|0:0,0:0:0:0:
432,192,118827,1,0,0:0:0:0:
428,314,118970,6,0,L|315:314,1,105.000004005432,2|0,0:0|0:0,0:0:0:0:
151,192,119255,2,0,L|264:192,1,105.000004005432,8|0,0:0|0:0,0:0:0:0:
432,192,119541,5,2,0:0:0:0:
323,314,119684,1,0,0:0:0:0:
256,192,119827,2,0,L|256:82,1,105.000004005432,8|0,0:0|0:0,0:0:0:0:
432,192,120113,5,2,0:0:0:0:
256,268,120255,1,0,0:0:0:0:
342,120,120398,1,8,0:0:0:0:
323,314,120541,5,0,0:0:0:0:
185,162,120684,2,0,L|185:52,1,105.000004005432,2|0,0:0|0:0,0:0:0:0:
320,225,120970,5,8,0:0:0:0:
190,316,121113,1,0,0:0:0:0:
122,138,121255,2,0,L|122:28,1,105.000004005432,2|0,0:0|0:0,0:0:0:0:
249,71,121541,2,0,L|249:176,1,105.000004005432,8|0,0:0|0:0,0:0:0:0:
18,229,121827,5,2,0:0:0:0:
85,316,121970,2,0,L|190:316,1,105.000004005432,0|8,0:0|0:0,0:0:0:0:
256,192,122255,1,0,0:0:0:0:
427,316,122398,6,0,L|322:316,1,105.000004005432,2|0,0:0|0:0,0:0:0:0:
224,252,122684,1,8,0:0:0:0:
480,188,122827,5,0,0:0:0:0:
427,316,122970,2,0,L|322:316,1,105.000004005432,2|0,0:0|0:0,0:0:0:0:
256,192,123255,1,8,0:0:0:0:
190,316,123398,1,0,0:0:0:0:
375,188,123541,6,0,L|480:188,1,105.000004005432,2|0,0:0|0:0,0:0:0:0:
322,316,123827,2,0,L|217:316,1,105.000004005432,8|0,0:0|0:0,0:0:0:0:
99,235,124113,5,2,0:0:0:0:
167,130,124255,1,0,0:0:0:0:
167,130,124327,1,0,0:0:0:0:
167,130,124398,2,0,P|110:112|49:122,1,105.000004005432,8|0,0:0|0:0,0:0:0:0:
99,235,124684,5,2,0:0:0:0:
99,235,124827,1,0,0:0:0:0:
264,210,124970,2,0,L|238:27,1,157.500006008148,8|0,0:0|0:0,0:0:0:0:
167,130,125255,5,2,0:0:0:0:
264,210,125398,1,0,0:0:0:0:
264,210,125470,1,0,0:0:0:0:
264,210,125541,2,0,P|316:232|388:222,1,105.000004005432,8|0,0:0|0:0,0:0:0:0:
334,106,125827,5,2,0:0:0:0:
334,106,125970,1,0,0:0:0:0:
167,130,126113,2,0,L|189:285,1,157.500006008148,8|0,0:0|0:0,0:0:0:0:
191,381,126398,5,2,0:0:0:0:
94,332,126541,1,0,0:0:0:0:
189,285,126684,1,8,0:0:0:0:
189,285,126755,1,0,0:0:0:0:
189,285,126827,1,0,0:0:0:0:
317,281,126970,2,0,P|333:333|300:390,1,105.000004005432,2|0,0:0|0:0,0:0:0:0:
191,381,127255,2,0,P|171:333|188:284,1,105.000004005432,8|0,0:0|0:0,0:0:0:0:
256,192,127541,5,2,0:0:0:0:
353,143,127684,1,0,0:0:0:0:
258,96,127827,1,8,0:0:0:0:
258,96,127898,1,0,0:0:0:0:
258,96,127970,1,0,0:0:0:0:
130,92,128113,2,0,P|114:144|147:201,1,105.000004005432,2|0,0:0|0:0,0:0:0:0:
256,192,128398,2,0,P|275:144|258:95,1,105.000004005432,8|0,0:0|0:0,0:0:0:0:
195,141,128684,5,2,0:0:0:0:
276,272,128827,1,0,0:0:0:0:
276,272,128898,1,0,0:0:0:0:
276,272,128970,2,0,L|403:272,1,105.000004005432,8|0,0:0|0:0,0:0:0:0:
195,141,129255,2,0,P|275:189|371:135,1,210.000008010865,2|8,0:0|0:0,0:0:0:0:
369,137,129684,1,0,0:0:0:0:
276,272,129827,5,2,0:0:0:0:
195,141,129970,1,0,0:0:0:0:
195,141,130041,1,0,0:0:0:0:
195,141,130113,2,0,L|68:141,1,105.000004005432,8|0,0:0|0:0,0:0:0:0:
276,272,130398,2,0,P|196:224|100:278,1,210.000008010865,2|8,0:0|0:0,0:0:0:0:
102,275,130827,1,0,0:0:0:0:
237,350,130970,6,0,P|317:360|368:281,1,157.500006008148,2|0,0:0|0:0,0:0:0:0:
368,255,131255,2,0,L|368:148,1,105.000004005432,8|0,0:0|0:0,0:0:0:0:
169,126,131541,6,0,P|158:206|238:257,1,157.500006008148,2|0,0:0|0:0,0:0:0:0:
263,255,131827,2,0,L|368:255,1,105.000004005432,8|0,0:0|0:0,0:0:0:0:
392,56,132113,6,0,P|312:45|260:125,1,157.500006008148,2|0,0:0|0:0,0:0:0:0:
263,150,132398,2,0,L|263:256,1,105.000004005432,8|0,0:0|0:0,0:0:0:0:
462,279,132684,6,0,P|472:198|393:147,1,157.500006008148,2|0,0:0|0:0,0:0:0:0:
368,150,132970,2,0,L|263:150,1,105.000004005432,8|0,0:0|0:0,0:0:0:0:
57,149,133255,5,6,0:0:0:0:
57,149,135541,5,4,1:0:0:0:
57,149,151541,5,0,1:0:0:0:
57,149,151827,1,0,0:0:0:0:
57,149,152113,5,2,0:0:0:0:
63,161,152399,1,0,0:0:0:0:
86,176,152684,1,2,0:0:0:0:
126,188,152970,1,0,1:0:0:0:
181,195,153255,1,2,0:0:0:0:
248,177,153541,1,0,0:0:0:0:
172,64,153827,5,0,1:0:0:0:
172,64,154113,1,0,0:0:0:0:
172,64,154399,5,2,0:0:0:0:
160,70,154685,1,0,0:0:0:0:
145,93,154970,1,0,0:0:0:0:
133,133,155256,1,0,1:0:0:0:
126,188,155541,1,2,0:0:0:0:
144,255,155827,1,0,0:0:0:0:
255,339,156113,5,2,0:0:0:0:
349,293,156255,1,0,0:0:0:0:
349,293,156327,1,0,0:0:0:0:
349,293,156398,2,0,P|363:228|354:132,1,140,8|2,0:0|0:0,0:0:0:0:
359,154,156827,1,0,0:0:0:0:
206,183,156970,1,8,0:0:0:0:
291,217,157113,1,0,0:0:0:0:
243,96,157255,6,0,P|196:90|159:100,1,70,2|0,0:0|0:0,0:0:0:0:
167,265,157541,2,0,P|214:271|251:261,1,70,8|0,0:0|0:0,0:0:0:0:
290,217,157827,6,0,P|297:182|292:148,1,70,2|0,0:0|0:0,0:0:0:0:
122,140,158113,2,0,P|115:175|120:209,1,70,8|0,0:0|0:0,0:0:0:0:
193,350,158398,5,6,0:0:0:0:
84,279,158541,1,0,0:0:0:0:
84,279,158613,1,0,0:0:0:0:
84,279,158684,2,0,L|-8:279,1,83.9999974365235,8|0,0:0|0:0,0:0:0:0:
205,231,158970,6,0,P|216:288|177:366,1,125.999996154785,6|0,0:0|0:0,0:0:0:0:
84,279,159255,1,8,0:0:0:0:
192,230,159398,2,0,L|362:230,1,167.999994873047,2|0,0:0|0:0,0:0:0:0:
360,230,159755,1,0,0:0:0:0:
360,230,159827,1,8,0:0:0:0:
485,308,159970,1,0,0:0:0:0:
404,306,160113,6,0,P|445:316|486:308,1,83.9999974365235,2|0,0:0|0:0,0:0:0:0:
407,153,160398,1,8,0:0:0:0:
493,208,160541,1,0,0:0:0:0:
276,231,160684,2,0,P|252:151|284:62,1,167.999994873047,6|8,0:0|0:0,0:0:0:0:
407,153,161113,1,0,0:0:0:0:
361,232,161255,1,6,0:0:0:0:
276,72,161398,5,0,0:0:0:0:
96,142,161541,2,0,P|168:173|273:137,1,167.999994873047,8|2,0:0|0:0,0:0:0:0:
32,82,161970,1,0,0:0:0:0:
32,82,162113,2,0,P|10:140|18:174,1,83.9999974365235,8|0,0:0|0:0,0:0:0:0:
183,36,162398,5,2,0:0:0:0:
96,142,162541,2,0,L|188:143,1,83.9999974365235,0|8,0:0|0:0,0:0:0:0:
73,212,162827,1,0,0:0:0:0:
101,293,162970,2,0,B|73:332|73:332|73:199,1,167.999994873047,6|8,0:0|0:0,0:0:0:0:
185,285,163398,1,0,0:0:0:0:
185,285,163470,1,0,0:0:0:0:
185,285,163541,6,0,L|185:370,1,83.9999974365235,6|0,0:0|0:0,0:0:0:0:
73,212,163827,1,8,0:0:0:0:
185,285,163970,1,0,0:0:0:0:
73,380,164113,2,0,L|73:203,1,167.999994873047,2|8,0:0|0:0,0:0:0:0:
197,109,164541,1,0,0:0:0:0:
242,180,164684,6,0,P|201:193|142:169,1,83.9999974365235,2|0,0:0|0:0,0:0:0:0:
197,109,164970,1,8,0:0:0:0:
290,253,165113,2,0,L|463:252,1,167.999994873047,2|0,0:0|0:0,0:0:0:0:
376,350,165541,1,8,0:0:0:0:
290,253,165684,1,0,0:0:0:0:
203,297,165827,6,0,P|209:339|193:379,1,83.9999974365235,6|0,0:0|0:0,0:0:0:0:
6,337,166113,2,0,P|62:290|145:344,1,167.999994873047,8|2,0:0|0:0,0:0:0:0:
74,361,166541,1,0,0:0:0:0:
73,218,166684,5,8,0:0:0:0:
203,297,166827,1,0,0:0:0:0:
203,297,166898,1,0,0:0:0:0:
203,297,166970,2,0,P|188:258|194:216,1,83.9999974365235,2|0,0:0|0:0,0:0:0:0:
390,233,167255,2,0,P|337:283|257:248,1,167.999994873047,8|6,0:0|0:0,0:0:0:0:
320,214,167684,5,0,0:0:0:0:
203,136,167827,2,0,P|209:177|194:216,1,83.9999974365235,8|0,0:0|0:0,0:0:0:0:
194,216,168041,1,0,0:0:0:0:
194,216,168113,5,6,0:0:0:0:
100,166,168255,1,0,0:0:0:0:
190,55,168398,2,0,B|273:96|266:16|350:56,1,167.999994873047,8|2,0:0|0:0,0:0:0:0:
350,56,168827,1,0,0:0:0:0:
320,214,168970,2,0,P|305:175|311:133,1,83.9999974365235,8|0,0:0|0:0,0:0:0:0:
388,165,169255,5,2,0:0:0:0:
311,229,169398,2,0,L|217:229,1,83.9999974365235,0|8,0:0|0:0,0:0:0:0:
61,301,169684,1,0,0:0:0:0:
133,352,169827,2,0,B|170:248|107:286|145:168,1,167.999994873047,6|8,0:0|0:0,0:0:0:0:
227,229,170255,1,0,0:0:0:0:
89,111,170398,6,0,L|-8:111,1,83.9999974365235,6|0,0:0|0:0,0:0:0:0:
139,187,170684,2,0,P|178:131|129:27,1,167.999994873047,8|2,0:0|0:0,0:0:0:0:
89,111,171113,1,0,0:0:0:0:
240,151,171255,2,0,P|246:108|236:60,1,83.9999974365235,8|0,0:0|0:0,0:0:0:0:
33,171,171541,6,0,P|24:211|30:253,1,83.9999974365235,2|0,0:0|0:0,0:0:0:0:
30,253,171755,1,0,0:0:0:0:
30,253,171827,1,8,0:0:0:0:
139,187,171970,1,0,0:0:0:0:
257,127,172113,2,0,B|176:161|176:76|69:138,1,167.999994873047,6|8,0:0|0:0,0:0:0:0:
94,124,172541,1,0,0:0:0:0:
316,181,172684,6,0,P|338:134|325:87,1,83.9999974365235,6|0,0:0|0:0,0:0:0:0:
333,103,172898,1,0,0:0:0:0:
333,103,172970,1,8,0:0:0:0:
177,125,173113,2,0,P|190:203|188:310,1,167.999994873047,2|0,0:0|0:0,0:0:0:0:
58,355,173541,2,0,P|59:313|66:271,1,83.9999974365235,8|0,0:0|0:0,0:0:0:0:
190,208,173827,5,2,0:0:0:0:
305,308,173970,1,0,0:0:0:0:
203,373,174113,2,0,P|189:321|196:264,1,83.9999974365235,8|0,0:0|0:0,0:0:0:0:
301,202,174398,2,0,B|403:174|375:235|484:205,1,167.999994873047,6|8,0:0|0:0,0:0:0:0:
305,308,174827,1,0,0:0:0:0:
190,208,174970,5,6,0:0:0:0:
69,292,175113,1,0,0:0:0:0:
69,292,175184,1,0,0:0:0:0:
69,292,175255,1,8,0:0:0:0:
189,291,175398,1,0,0:0:0:0:
96,196,175541,2,0,L|6:196,1,83.9999974365235,2|0,0:0|0:0,0:0:0:0:
119,373,175827,2,0,L|209:373,1,83.9999974365235,8|0,0:0|0:0,0:0:0:0:
305,308,176113,5,2,0:0:0:0:
190,208,176255,1,0,0:0:0:0:
190,208,176327,1,0,0:0:0:0:
190,208,176398,2,0,P|181:165|188:119,1,83.9999974365235,8|0,0:0|0:0,0:0:0:0:
418,167,176684,2,0,B|331:197|350:134|252:164,1,167.999994873047,6|8,0:0|0:0,0:0:0:0:
377,104,177113,1,0,0:0:0:0:
297,226,177255,5,6,0:0:0:0:
234,68,177398,1,0,0:0:0:0:
418,167,177541,5,8,0:0:0:0:
337,308,177684,2,0,L|237:308,1,83.9999974365235,0|2,0:0|0:0,0:0:0:0:
254,163,177970,1,0,0:0:0:0:
416,268,178113,2,0,P|425:314|413:354,1,83.9999974365235,8|0,0:0|0:0,0:0:0:0:
253,308,178398,5,2,0:0:0:0:
416,268,178541,1,0,0:0:0:0:
338,163,178684,2,0,L|240:163,1,83.9999974365235,8|0,0:0|0:0,0:0:0:0:
331,242,178970,1,6,0:0:0:0:
432,163,179113,2,0,P|451:99|415:37,1,125.999996154785,2|0,0:0|0:0,0:0:0:0:
393,22,179398,5,2,0:0:0:0:
254,163,179541,1,4,0:0:0:0:
338,351,179684,1,0,0:0:0:0:
338,351,179827,2,0,L|482:351,1,140,8|2,0:0|0:0,0:0:0:0:
471,242,180255,1,0,0:0:0:0:
471,242,180398,2,0,L|327:242,1,140,6|0,0:0|0:0,0:0:0:0:
331,242,181255,5,6,0:0:0:0:
331,242,182113,1,0,0:0:0:0:
331,242,184970,5,0,0:0:0:0:
331,242,185255,2,0,L|259:242,1,70,2|0,0:0|0:0,0:0:0:0:
261,242,185708,1,0,0:0:0:0:
