osu file format v14

[General]
AudioFilename: audio.mp3
AudioLeadIn: 0
PreviewTime: -1
Countdown: 1
SampleSet: None
StackLeniency: 0.7
Mode: 0
LetterboxInBreaks: 0
SkinPreference:- Katou Megumi -
WidescreenStoryboard: 1

[Editor]
DistanceSpacing: 1
BeatDivisor: 1
GridSize: 32
TimelineZoom: 1

[Metadata]
Title:Studzianki (Intro)
TitleUnicode:Studzianki (Intro)
Artist:Andrius Klimka, ywioak
ArtistUnicode:Andrius Klimka, Żywiołak
Creator:Admiral_kzm
Version:53TP Markowskiego
Source:World of Tanks
Tags:WoT
BeatmapID:1965165
BeatmapSetID:938524

[Difficulty]
HPDrainRate:5
CircleSize:4
OverallDifficulty:6
ApproachRate:9
SliderMultiplier:1.4
SliderTickRate:1

[Events]
//Background and Video events
0,0,"ANIME-PICTURES.NET_-_508586-2176x1102-girls+und+panzer-katyusha-nonna-renatus+z-long+hair-short+hair.jpg",0,0
//Break Periods
//Storyboard Layer 0 (Background)
//Storyboard Layer 1 (Fail)
//Storyboard Layer 2 (Pass)
//Storyboard Layer 3 (Foreground)
//Storyboard Sound Samples

[TimingPoints]
2,120.967741935484,4,1,1,100,1,0

[HitObjects]
256,192,2,12,0,4719,0:0:0:0:
256,192,5808,12,0,8711,0:0:0:0:
71,65,9195,5,0,0:0:0:0:
100,64,9316,1,0,0:0:0:0:
129,62,9437,1,0,0:0:0:0:
157,65,9558,1,0,0:0:0:0:
189,63,9679,1,0,0:0:0:0:
222,65,9800,1,0,0:0:0:0:
256,64,9921,1,0,0:0:0:0:
301,62,10042,1,0,0:0:0:0:
336,63,10163,1,0,0:0:0:0:
371,65,10284,1,0,0:0:0:0:
36,160,10405,5,0,0:0:0:0:
94,162,10526,1,0,0:0:0:0:
160,163,10647,1,0,0:0:0:0:
225,164,10768,1,0,0:0:0:0:
286,162,10889,1,0,0:0:0:0:
346,163,11010,1,0,0:0:0:0:
413,161,11131,1,0,0:0:0:0:
476,161,11252,1,0,0:0:0:0:
35,259,11372,5,0,0:0:0:0:
131,258,11493,1,0,0:0:0:0:
221,252,11614,1,0,0:0:0:0:
317,263,11735,1,0,0:0:0:0:
414,263,11856,1,0,0:0:0:0:
505,263,11977,1,0,0:0:0:0:
33,62,12098,5,0,0:0:0:0:
161,66,12219,1,0,0:0:0:0:
286,69,12340,1,0,0:0:0:0:
413,68,12461,1,0,0:0:0:0:
67,129,12703,5,0,0:0:0:0:
67,257,12824,1,0,0:0:0:0:
161,66,12945,5,0,0:0:0:0:
157,318,13066,1,0,0:0:0:0:
258,162,13187,5,0,0:0:0:0:
255,227,13308,1,0,0:0:0:0:
354,30,13429,5,0,0:0:0:0:
351,355,13550,1,0,0:0:0:0:
69,64,13671,5,0,0:0:0:0:
252,192,13792,1,0,0:0:0:0:
129,256,13913,1,0,0:0:0:0:
254,64,14034,1,0,0:0:0:0:
221,345,14155,5,0,0:0:0:0:
386,222,14276,1,0,0:0:0:0:
176,64,14397,5,0,0:0:0:0:
41,302,14518,1,0,0:0:0:0:
57,63,14639,5,0,0:0:0:0:
351,308,14760,1,0,0:0:0:0:
440,72,15002,5,0,0:0:0:0:
37,194,15243,1,0,0:0:0:0:
378,313,15485,5,0,0:0:0:0:
135,42,15727,1,0,0:0:0:0:
61,69,15969,5,0,0:0:0:0:
65,127,16090,1,0,0:0:0:0:
65,191,16211,1,0,0:0:0:0:
74,258,16332,1,0,0:0:0:0:
70,330,16453,1,0,0:0:0:0:
257,189,17421,5,0,0:0:0:0:
71,65,19356,5,0,0:0:0:0:
100,64,19477,1,0,0:0:0:0:
129,62,19598,1,0,0:0:0:0:
157,65,19719,1,0,0:0:0:0:
189,63,19840,1,0,0:0:0:0:
222,65,19961,1,0,0:0:0:0:
256,64,20082,1,0,0:0:0:0:
301,62,20203,1,0,0:0:0:0:
336,63,20324,1,0,0:0:0:0:
371,65,20445,1,0,0:0:0:0:
36,160,20566,5,0,0:0:0:0:
94,162,20687,1,0,0:0:0:0:
160,163,20808,1,0,0:0:0:0:
225,164,20929,1,0,0:0:0:0:
286,162,21050,1,0,0:0:0:0:
346,163,21171,1,0,0:0:0:0:
413,161,21292,1,0,0:0:0:0:
476,161,21413,1,0,0:0:0:0:
35,259,21533,5,0,0:0:0:0:
131,258,21654,1,0,0:0:0:0:
221,252,21775,1,0,0:0:0:0:
317,263,21896,1,0,0:0:0:0:
414,263,22017,1,0,0:0:0:0:
505,263,22138,1,0,0:0:0:0:
33,62,22259,5,0,0:0:0:0:
161,66,22380,1,0,0:0:0:0:
286,69,22501,1,0,0:0:0:0:
413,68,22622,1,0,0:0:0:0:
71,65,22743,5,0,0:0:0:0:
100,64,22864,1,0,0:0:0:0:
129,62,22985,1,0,0:0:0:0:
157,65,23106,1,0,0:0:0:0:
189,63,23227,1,0,0:0:0:0:
222,65,23348,1,0,0:0:0:0:
256,64,23469,1,0,0:0:0:0:
301,62,23590,1,0,0:0:0:0:
336,63,23711,1,0,0:0:0:0:
371,65,23832,1,0,0:0:0:0:
36,160,23953,5,0,0:0:0:0:
94,162,24074,1,0,0:0:0:0:
160,163,24195,1,0,0:0:0:0:
225,164,24316,1,0,0:0:0:0:
286,162,24437,1,0,0:0:0:0:
346,163,24558,1,0,0:0:0:0:
413,161,24679,1,0,0:0:0:0:
476,161,24800,1,0,0:0:0:0:
35,259,24920,5,0,0:0:0:0:
131,258,25041,1,0,0:0:0:0:
221,252,25162,1,0,0:0:0:0:
317,263,25283,1,0,0:0:0:0:
414,263,25404,1,0,0:0:0:0:
505,263,25525,1,0,0:0:0:0:
33,62,25646,5,0,0:0:0:0:
161,66,25767,1,0,0:0:0:0:
286,69,25888,1,0,0:0:0:0:
413,68,26009,1,0,0:0:0:0:
71,65,26131,5,0,0:0:0:0:
100,64,26252,1,0,0:0:0:0:
129,62,26373,1,0,0:0:0:0:
157,65,26494,1,0,0:0:0:0:
189,63,26615,1,0,0:0:0:0:
222,65,26736,1,0,0:0:0:0:
256,64,26857,1,0,0:0:0:0:
301,62,26978,1,0,0:0:0:0:
336,63,27099,1,0,0:0:0:0:
371,65,27220,1,0,0:0:0:0:
36,160,27341,5,0,0:0:0:0:
94,162,27462,1,0,0:0:0:0:
160,163,27583,1,0,0:0:0:0:
225,164,27704,1,0,0:0:0:0:
286,162,27825,1,0,0:0:0:0:
346,163,27946,1,0,0:0:0:0:
413,161,28067,1,0,0:0:0:0:
476,161,28188,1,0,0:0:0:0:
35,259,28308,5,0,0:0:0:0:
131,258,28429,1,0,0:0:0:0:
221,252,28550,1,0,0:0:0:0:
317,263,28671,1,0,0:0:0:0:
414,263,28792,1,0,0:0:0:0:
505,263,28913,1,0,0:0:0:0:
33,62,29034,5,0,0:0:0:0:
161,66,29155,1,0,0:0:0:0:
286,69,29276,1,0,0:0:0:0:
413,68,29397,1,0,0:0:0:0:
440,72,29518,5,0,0:0:0:0:
37,194,29759,1,0,0:0:0:0:
378,313,30001,5,0,0:0:0:0:
135,42,30243,1,0,0:0:0:0:
61,69,30485,5,0,0:0:0:0:
65,127,30606,1,0,0:0:0:0:
65,191,30727,1,0,0:0:0:0:
74,258,30848,1,0,0:0:0:0:
70,330,30969,1,0,0:0:0:0:
257,189,31937,5,0,0:0:0:0:
67,129,32905,5,0,0:0:0:0:
67,257,33026,1,0,0:0:0:0:
161,66,33147,5,0,0:0:0:0:
157,318,33268,1,0,0:0:0:0:
258,162,33389,5,0,0:0:0:0:
255,227,33510,1,0,0:0:0:0:
354,30,33631,5,0,0:0:0:0:
351,355,33752,1,0,0:0:0:0:
69,64,33873,5,0,0:0:0:0:
252,192,33994,1,0,0:0:0:0:
129,256,34115,1,0,0:0:0:0:
254,64,34236,1,0,0:0:0:0:
221,345,34357,5,0,0:0:0:0:
386,222,34478,1,0,0:0:0:0:
176,64,34599,5,0,0:0:0:0:
41,302,34720,1,0,0:0:0:0:
57,63,34841,5,0,0:0:0:0:
351,308,34962,1,0,0:0:0:0:
67,129,35082,5,0,0:0:0:0:
67,257,35203,1,0,0:0:0:0:
161,66,35324,5,0,0:0:0:0:
157,318,35445,1,0,0:0:0:0:
258,162,35566,5,0,0:0:0:0:
255,227,35687,1,0,0:0:0:0:
354,30,35808,5,0,0:0:0:0:
351,355,35929,1,0,0:0:0:0:
69,64,36050,5,0,0:0:0:0:
252,192,36171,1,0,0:0:0:0:
129,256,36292,1,0,0:0:0:0:
254,64,36413,1,0,0:0:0:0:
221,345,36534,5,0,0:0:0:0:
386,222,36655,1,0,0:0:0:0:
176,64,36776,5,0,0:0:0:0:
41,302,36897,1,0,0:0:0:0:
57,63,37018,5,0,0:0:0:0:
351,308,37139,1,0,0:0:0:0:
71,65,37260,5,0,0:0:0:0:
100,64,37381,1,0,0:0:0:0:
129,62,37502,1,0,0:0:0:0:
157,65,37623,1,0,0:0:0:0:
189,63,37744,1,0,0:0:0:0:
222,65,37865,1,0,0:0:0:0:
256,64,37986,1,0,0:0:0:0:
301,62,38107,1,0,0:0:0:0:
336,63,38228,1,0,0:0:0:0:
371,65,38349,1,0,0:0:0:0:
36,160,38470,5,0,0:0:0:0:
94,162,38591,1,0,0:0:0:0:
160,163,38712,1,0,0:0:0:0:
225,164,38833,1,0,0:0:0:0:
286,162,38954,1,0,0:0:0:0:
346,163,39075,1,0,0:0:0:0:
413,161,39196,1,0,0:0:0:0:
476,161,39317,1,0,0:0:0:0:
35,259,39437,5,0,0:0:0:0:
131,258,39558,1,0,0:0:0:0:
221,252,39679,1,0,0:0:0:0:
317,263,39800,1,0,0:0:0:0:
414,263,39921,1,0,0:0:0:0:
505,263,40042,1,0,0:0:0:0:
33,62,40163,5,0,0:0:0:0:
161,66,40284,1,0,0:0:0:0:
286,69,40405,1,0,0:0:0:0:
413,68,40526,1,0,0:0:0:0:
71,65,40647,5,0,0:0:0:0:
100,64,40768,1,0,0:0:0:0:
129,62,40889,1,0,0:0:0:0:
157,65,41010,1,0,0:0:0:0:
189,63,41131,1,0,0:0:0:0:
222,65,41252,1,0,0:0:0:0:
256,64,41373,1,0,0:0:0:0:
301,62,41494,1,0,0:0:0:0:
336,63,41615,1,0,0:0:0:0:
371,65,41736,1,0,0:0:0:0:
36,160,41857,5,0,0:0:0:0:
94,162,41978,1,0,0:0:0:0:
160,163,42099,1,0,0:0:0:0:
225,164,42220,1,0,0:0:0:0:
286,162,42341,1,0,0:0:0:0:
346,163,42462,1,0,0:0:0:0:
413,161,42583,1,0,0:0:0:0:
476,161,42704,1,0,0:0:0:0:
35,259,42824,5,0,0:0:0:0:
131,258,42945,1,0,0:0:0:0:
221,252,43066,1,0,0:0:0:0:
317,263,43187,1,0,0:0:0:0:
414,263,43308,1,0,0:0:0:0:
505,263,43429,1,0,0:0:0:0:
33,62,43550,5,0,0:0:0:0:
161,66,43671,1,0,0:0:0:0:
286,69,43792,1,0,0:0:0:0:
413,68,43913,1,0,0:0:0:0:
71,65,44034,5,0,0:0:0:0:
100,64,44155,1,0,0:0:0:0:
129,62,44276,1,0,0:0:0:0:
157,65,44397,1,0,0:0:0:0:
189,63,44518,1,0,0:0:0:0:
222,65,44639,1,0,0:0:0:0:
256,64,44760,1,0,0:0:0:0:
301,62,44881,1,0,0:0:0:0:
336,63,45002,1,0,0:0:0:0:
371,65,45123,1,0,0:0:0:0:
36,160,45244,5,0,0:0:0:0:
94,162,45365,1,0,0:0:0:0:
160,163,45486,1,0,0:0:0:0:
225,164,45607,1,0,0:0:0:0:
286,162,45728,1,0,0:0:0:0:
346,163,45849,1,0,0:0:0:0:
413,161,45970,1,0,0:0:0:0:
476,161,46091,1,0,0:0:0:0:
35,259,46211,5,0,0:0:0:0:
131,258,46332,1,0,0:0:0:0:
221,252,46453,1,0,0:0:0:0:
317,263,46574,1,0,0:0:0:0:
414,263,46695,1,0,0:0:0:0:
505,263,46816,1,0,0:0:0:0:
33,62,46937,5,0,0:0:0:0:
161,66,47058,1,0,0:0:0:0:
286,69,47179,1,0,0:0:0:0:
413,68,47300,1,0,0:0:0:0:
71,65,47421,5,0,0:0:0:0:
100,64,47542,1,0,0:0:0:0:
129,62,47663,1,0,0:0:0:0:
157,65,47784,1,0,0:0:0:0:
189,63,47905,1,0,0:0:0:0:
222,65,48026,1,0,0:0:0:0:
256,64,48147,1,0,0:0:0:0:
301,62,48268,1,0,0:0:0:0:
336,63,48389,1,0,0:0:0:0:
371,65,48510,1,0,0:0:0:0:
36,160,48631,5,0,0:0:0:0:
94,162,48752,1,0,0:0:0:0:
160,163,48873,1,0,0:0:0:0:
225,164,48994,1,0,0:0:0:0:
286,162,49115,1,0,0:0:0:0:
346,163,49236,1,0,0:0:0:0:
413,161,49357,1,0,0:0:0:0:
476,161,49478,1,0,0:0:0:0:
35,259,49598,5,0,0:0:0:0:
131,258,49719,1,0,0:0:0:0:
221,252,49840,1,0,0:0:0:0:
317,263,49961,1,0,0:0:0:0:
414,263,50082,1,0,0:0:0:0:
505,263,50203,1,0,0:0:0:0:
33,62,50324,5,0,0:0:0:0:
161,66,50445,1,0,0:0:0:0:
286,69,50566,1,0,0:0:0:0:
413,68,50687,1,0,0:0:0:0:
71,65,50808,5,0,0:0:0:0:
100,64,50929,1,0,0:0:0:0:
129,62,51050,1,0,0:0:0:0:
157,65,51171,1,0,0:0:0:0:
189,63,51292,1,0,0:0:0:0:
222,65,51413,1,0,0:0:0:0:
256,64,51534,1,0,0:0:0:0:
301,62,51655,1,0,0:0:0:0:
336,63,51776,1,0,0:0:0:0:
371,65,51897,1,0,0:0:0:0:
36,160,52018,5,0,0:0:0:0:
94,162,52139,1,0,0:0:0:0:
160,163,52260,1,0,0:0:0:0:
225,164,52381,1,0,0:0:0:0:
286,162,52502,1,0,0:0:0:0:
346,163,52623,1,0,0:0:0:0:
413,161,52744,1,0,0:0:0:0:
476,161,52865,1,0,0:0:0:0:
35,259,52985,5,0,0:0:0:0:
131,258,53106,1,0,0:0:0:0:
221,252,53227,1,0,0:0:0:0:
317,263,53348,1,0,0:0:0:0:
414,263,53469,1,0,0:0:0:0:
505,263,53590,1,0,0:0:0:0:
33,62,53711,5,0,0:0:0:0:
161,66,53832,1,0,0:0:0:0:
286,69,53953,1,0,0:0:0:0:
413,68,54074,1,0,0:0:0:0:
129,226,54195,1,0,0:0:0:0:
219,193,54316,5,0,0:0:0:0:
300,215,54437,5,0,0:0:0:0:
90,126,54558,5,0,0:0:0:0:
217,112,54679,5,0,0:0:0:0:
295,113,54800,5,0,0:0:0:0:
364,126,54921,5,0,0:0:0:0:
141,157,55042,5,0,0:0:0:0:
136,200,55163,5,0,0:0:0:0:
212,231,55284,5,0,0:0:0:0:
262,227,55405,5,0,0:0:0:0:
268,174,55526,5,0,0:0:0:0:
208,171,55647,5,0,0:0:0:0:
219,101,55768,5,0,0:0:0:0:
279,88,55889,5,0,0:0:0:0:
334,113,56010,5,0,0:0:0:0:
340,145,56131,5,0,0:0:0:0:
348,182,56252,5,0,0:0:0:0:
348,221,56372,5,0,0:0:0:0:
319,289,56493,5,0,0:0:0:0:
126,298,56614,1,0,0:0:0:0:
42,207,56735,1,0,0:0:0:0:
56,64,56856,1,0,0:0:0:0:
339,57,56977,1,0,0:0:0:0:
346,324,57098,1,0,0:0:0:0:
93,299,57219,5,0,0:0:0:0:
132,95,57340,5,0,0:0:0:0:
346,324,57461,5,0,0:0:0:0:
247,192,57582,5,0,0:0:0:0:
258,66,57703,5,0,0:0:0:0:
256,322,57824,1,0,0:0:0:0:
329,91,57945,5,0,0:0:0:0:
192,293,58066,1,0,0:0:0:0:
377,133,58187,5,0,0:0:0:0:
148,243,58308,1,0,0:0:0:0:
379,193,58429,5,0,0:0:0:0:
158,186,58550,1,0,0:0:0:0:
355,251,58671,5,0,0:0:0:0:
153,126,58792,1,0,0:0:0:0:
303,288,58913,5,0,0:0:0:0:
196,81,59034,1,0,0:0:0:0:
254,293,59155,5,0,0:0:0:0:
256,65,59276,1,0,0:0:0:0:
320,94,59397,5,0,0:0:0:0:
254,293,59518,1,0,0:0:0:0:
355,158,59639,5,0,0:0:0:0:
187,281,59760,1,0,0:0:0:0:
356,203,59881,5,0,0:0:0:0:
142,225,60002,1,0,0:0:0:0:
343,260,60122,5,0,0:0:0:0:
134,161,60243,1,0,0:0:0:0:
314,305,60364,5,0,0:0:0:0:
142,102,60485,1,0,0:0:0:0:
251,322,60606,5,0,0:0:0:0:
169,42,60727,1,0,0:0:0:0:
258,64,60848,5,0,0:0:0:0:
350,320,60969,1,0,0:0:0:0:
125,156,61090,1,0,0:0:0:0:
390,157,61211,1,0,0:0:0:0:
160,322,61332,1,0,0:0:0:0:
258,64,61453,1,0,0:0:0:0:
386,191,61574,1,0,0:0:0:0:
256,289,61695,1,0,0:0:0:0:
128,190,61816,1,0,0:0:0:0:
129,65,61937,1,0,0:0:0:0:
383,66,62058,1,0,0:0:0:0:
386,318,62179,1,0,0:0:0:0:
128,319,62300,1,0,0:0:0:0:
383,66,62421,1,0,0:0:0:0:
129,65,62542,1,0,0:0:0:0:
386,318,62663,1,0,0:0:0:0:
128,319,62784,1,0,0:0:0:0:
383,66,62905,1,0,0:0:0:0:
386,318,63026,1,0,0:0:0:0:
128,319,63147,1,0,0:0:0:0:
126,58,63268,1,0,0:0:0:0:
383,66,63389,1,0,0:0:0:0:
386,318,63510,1,0,0:0:0:0:
126,58,63631,5,0,0:0:0:0:
386,318,63752,1,0,0:0:0:0:
386,318,63872,1,0,0:0:0:0:
381,59,63993,1,0,0:0:0:0:
383,66,64114,1,0,0:0:0:0:
130,325,64235,1,0,0:0:0:0:
130,325,64356,1,0,0:0:0:0:
261,194,64477,1,0,0:0:0:0:
261,194,64598,1,0,0:0:0:0:
261,194,64719,1,0,0:0:0:0:
261,194,64840,1,0,0:0:0:0:
261,194,64961,1,0,0:0:0:0:
261,194,65082,1,0,0:0:0:0:
246,178,65203,1,0,0:0:0:0:
246,178,65324,1,0,0:0:0:0:
246,179,65445,1,0,0:0:0:0:
246,179,65566,1,0,0:0:0:0:
246,179,65687,1,0,0:0:0:0:
246,177,65808,1,0,0:0:0:0:
233,163,65929,1,0,0:0:0:0:
220,158,66050,1,0,0:0:0:0:
220,158,66171,1,0,0:0:0:0:
220,158,66292,1,0,0:0:0:0:
220,158,66413,1,0,0:0:0:0:
220,158,66534,1,0,0:0:0:0:
220,158,66655,1,0,0:0:0:0:
206,134,66776,1,0,0:0:0:0:
32,162,66897,5,0,0:0:0:0:
28,228,67018,1,0,0:0:0:0:
102,162,67139,1,0,0:0:0:0:
96,227,67260,1,0,0:0:0:0:
161,165,67381,1,0,0:0:0:0:
162,234,67502,1,0,0:0:0:0:
228,163,67622,1,0,0:0:0:0:
232,226,67743,1,0,0:0:0:0:
292,166,67864,1,0,0:0:0:0:
289,232,67985,1,0,0:0:0:0:
353,164,68106,1,0,0:0:0:0:
354,235,68227,1,0,0:0:0:0:
419,157,68348,1,0,0:0:0:0:
418,223,68469,1,0,0:0:0:0:
482,159,68590,1,0,0:0:0:0:
495,219,68711,1,0,0:0:0:0:
