osu file format v14

[General]
AudioFilename: audio.mp3
AudioLeadIn: 0
PreviewTime: -1
Countdown: 1
SampleSet: None
StackLeniency: 0.7
Mode: 0
LetterboxInBreaks: 0
SkinPreference:- Katou Megumi -
WidescreenStoryboard: 1

[Editor]
DistanceSpacing: 1.1
BeatDivisor: 1
GridSize: 32
TimelineZoom: 1

[Metadata]
Title:Studzianki (Intro)
TitleUnicode:Studzianki (Intro)
Artist:Andrius Klimka, ywioak
ArtistUnicode:Andrius Klimka, Żywiołak
Creator:Admiral_kzm
Version:25TP KSUST II
Source:World of Tanks
Tags:WoT
BeatmapID:1960460
BeatmapSetID:938524

[Difficulty]
HPDrainRate:5
CircleSize:4
OverallDifficulty:6
ApproachRate:9
SliderMultiplier:1.4
SliderTickRate:1

[Events]
//Background and Video events
0,0,"ANIME-PICTURES.NET_-_508586-2176x1102-girls+und+panzer-katyusha-nonna-renatus+z-long+hair-short+hair.jpg",0,0
//Break Periods
2,17621,20692
2,21492,22627
2,32621,36176
//Storyboard Layer 0 (Background)
//Storyboard Layer 1 (Fail)
//Storyboard Layer 2 (Pass)
//Storyboard Layer 3 (Foreground)
//Storyboard Sound Samples

[TimingPoints]
2,241.935483870968,4,1,1,100,1,0

[HitObjects]
256,192,2,12,0,4840,0:0:0:0:
256,192,5808,12,0,8711,0:0:0:0:
60,84,9679,6,0,P|251:182|239:219,1,280
366,77,10647,2,0,B|461:194|411:298|409:354,1,280
102,325,11614,2,0,B|36:196|106:81|133:50,1,280
191,128,12582,5,0,0:0:0:0:
315,257,12824,1,0,0:0:0:0:
62,63,13066,1,0,0:0:0:0:
443,323,13308,1,0,0:0:0:0:
62,63,13550,2,0,L|62:202,1,140
166,64,14034,2,0,P|163:196|189:303,1,140
316,62,14518,2,0,P|315:217|318:242,1,140
254,193,15002,2,0,L|528:193,1,140
138,89,15485,5,0,0:0:0:0:
138,332,15727,1,0,0:0:0:0:
396,78,15969,1,0,0:0:0:0:
403,273,16211,1,0,0:0:0:0:
244,197,16453,1,0,0:0:0:0:
257,190,17421,5,0,0:0:0:0:
260,203,21292,5,0,0:0:0:0:
96,289,23227,5,0,0:0:0:0:
96,62,23469,1,0,0:0:0:0:
260,191,23711,1,0,0:0:0:0:
411,286,23953,1,0,0:0:0:0:
415,62,24195,1,0,0:0:0:0:
252,193,25163,5,0,0:0:0:0:
252,193,25647,1,0,0:0:0:0:
35,187,26131,1,0,0:0:0:0:
485,191,26372,1,0,0:0:0:0:
128,192,26614,1,0,0:0:0:0:
354,193,26856,1,0,0:0:0:0:
256,33,27098,5,0,0:0:0:0:
257,355,27582,1,0,0:0:0:0:
126,87,28066,1,0,0:0:0:0:
383,285,28308,1,0,0:0:0:0:
120,295,28550,1,0,0:0:0:0:
385,88,28792,1,0,0:0:0:0:
226,157,29034,5,0,0:0:0:0:
223,224,29276,1,0,0:0:0:0:
292,227,29518,1,0,0:0:0:0:
294,164,29760,1,0,0:0:0:0:
262,193,30002,1,0,0:0:0:0:
262,193,30485,1,0,0:0:0:0:
256,192,30727,12,0,32421,0:0:0:0:
256,192,36776,5,0,0:0:0:0:
66,64,37018,2,0,L|206:65,5,140
316,63,38711,2,0,L|465:65,4,140
253,193,40163,5,0,0:0:0:0:
68,324,40647,5,0,0:0:0:0:
190,322,40889,1,0,0:0:0:0:
62,229,41131,1,0,0:0:0:0:
189,227,41372,1,0,0:0:0:0:
314,95,41614,1,0,0:0:0:0:
449,93,42098,1,0,0:0:0:0:
317,253,42582,5,0,0:0:0:0:
446,253,42824,1,0,0:0:0:0:
321,352,43066,1,0,0:0:0:0:
464,353,43308,1,0,0:0:0:0:
187,96,43550,1,0,0:0:0:0:
253,201,44034,5,0,0:0:0:0:
94,64,44518,2,0,L|93:356,1,280
191,124,45485,2,0,L|192:274,1,140
322,127,45969,2,0,L|321:273,1,140
448,64,46453,2,0,L|445:350,1,280
161,97,47421,5,0,0:0:0:0:
356,288,47663,1,0,0:0:0:0:
384,92,47905,5,0,0:0:0:0:
161,285,48147,1,0,0:0:0:0:
188,126,48389,6,0,L|291:233,4,140
444,325,49840,1,0,0:0:0:0:
158,131,50324,5,0,0:0:0:0:
194,131,50566,5,0,0:0:0:0:
230,133,50808,5,0,0:0:0:0:
262,134,51050,5,0,0:0:0:0:
484,224,51534,5,0,0:0:0:0:
481,355,51776,1,0,0:0:0:0:
256,192,52260,12,0,55163,0:0:0:0:
256,192,56131,12,0,59034,0:0:0:0:
125,34,60002,6,0,L|413:32,1,280
157,96,60969,2,0,L|319:96,1,140
160,194,61453,2,0,L|312:194,1,140
93,322,61937,2,0,L|437:324,1,280
193,127,62905,2,0,L|307:253,3,140
256,34,63872,5,0,0:0:0:0:
256,354,64114,5,0,0:0:0:0:
158,99,64356,5,0,0:0:0:0:
354,289,64598,5,0,0:0:0:0:
354,96,64840,5,0,0:0:0:0:
158,287,65324,5,0,0:0:0:0:
419,193,65808,5,0,0:0:0:0:
90,192,66050,5,0,0:0:0:0:
193,192,66292,5,0,0:0:0:0:
323,192,66534,1,0,0:0:0:0:
257,193,66776,5,0,0:0:0:0:
