osu file format v14

[General]
AudioFilename: Andreas Waldetoft - The Hunt.mp3
AudioLeadIn: 0
PreviewTime: 81238
Countdown: 1
SampleSet: Normal
StackLeniency: 0.7
Mode: 0
LetterboxInBreaks: 0
WidescreenStoryboard: 0

[Editor]
Bookmarks: 11433,13621,36795,39795,62841,65975,82886,100886,122432,135793
DistanceSpacing: 0.8
BeatDivisor: 4
GridSize: 4
TimelineZoom: 1

[Metadata]
Title:The Hunt
TitleUnicode:The Hunt
Artist:Andreas Waldetoft
ArtistUnicode:Andreas Waldetoft
Creator:Erasariel
Version:Hard
Source:Europa Universalis 4
Tags:eu4 songs_of_the_new_world andreas waldetoft europa_universalis_iv
BeatmapID:889741
BeatmapSetID:409957

[Difficulty]
HPDrainRate:7
CircleSize:4
OverallDifficulty:7
ApproachRate:7
SliderMultiplier:1.4
SliderTickRate:1

[Events]
//Background and Video events
0,0,"eu4aztec.jpg",0,0
//Break Periods
//Storyboard Layer 0 (Background)
//Storyboard Layer 1 (Fail)
//Storyboard Layer 2 (Pass)
//Storyboard Layer 3 (Foreground)
//Storyboard Sound Samples

[TimingPoints]
511,545.454545454546,4,3,0,60,1,0
83419,-80,4,1,0,60,0,1
122692,-80,4,1,0,60,0,0
135783,-80,4,1,0,60,0,0

[HitObjects]
248,196,13601,5,0,0:0:0:0:
312,144,13874,2,0,L|408:108,2,70,2|0|4,2:2|0:0|2:3,0:0:0:0:
236,176,14692,1,0,0:0:0:0:
304,232,14965,2,0,L|224:276,3,70,2|0|0|4,2:0|0:0|2:0|0:3,0:0:0:0:
228,180,16329,5,0,0:0:0:0:
304,232,16601,2,0,L|216:284,2,70,2|0|4,2:0|0:0|2:3,0:0:0:0:
372,180,17420,2,0,L|304:112,2,70,2|0|4,0:2|2:0|0:3,0:0:0:0:
196,220,18511,2,0,L|152:156,1,70,2|4,0:2|2:3,0:0:0:0:
212,96,19056,1,0,0:0:0:0:
268,168,19601,1,4,0:1:0:0:
188,204,20147,5,0,0:0:0:0:
260,244,20420,2,0,L|220:316,2,70,2|0|4,2:2|0:0|2:3,0:0:0:0:
248,168,21238,1,0,0:0:0:0:
300,224,21511,2,0,L|368:292,3,70,2|0|0|4,2:2|0:0|2:0|0:0,0:0:0:0:
216,204,22874,2,0,L|156:144,1,70,2|4,0:2|2:3,0:0:0:0:
224,112,23420,5,0,0:0:0:0:
276,136,23692,1,0,2:0:0:0:
240,180,23965,2,0,L|152:232,2,70,2|0|4,0:2|2:0|0:3,0:0:0:0:
124,140,25056,2,0,L|184:184,1,70,2|4,0:2|2:3,0:0:0:0:
228,216,25601,1,0,0:0:0:0:
280,232,25874,1,0,2:0:0:0:
332,212,26147,1,4,0:1:0:0:
268,120,26692,6,0,L|176:156,2,70,2|0|4,0:2|2:0|0:0,0:0:0:0:
356,88,27511,2,0,L|400:152,1,70,2|4,2:0|0:0,0:0:0:0:
324,136,28056,1,0,2:0:0:0:
304,188,28329,2,0,L|348:252,2,70,2|0|4,0:2|2:0|0:0,0:0:0:0:
284,220,29420,6,0,L|224:260,1,70,2|4,0:2|2:3,0:0:0:0:
144,236,29965,1,0,0:0:0:0:
120,168,30238,2,0,L|180:124,1,70,2|4,2:2|0:0,0:0:0:0:
184,48,30783,1,0,2:0:0:0:
176,126,31056,2,0,L|244:164,1,70,2|4,0:2|2:3,0:0:0:0:
256,76,31601,1,0,0:0:0:0:
312,132,31874,2,0,L|372:88,1,70,2|4,2:0|0:0,0:0:0:0:
272,148,32692,5,4,0:1:0:0:
112,192,33238,6,0,L|148:296,2,105,2|0|4,0:2|2:0|2:3,0:0:0:0:
256,236,34329,1,0,0:0:0:0:
211,192,34601,1,0,2:0:0:0:
256,147,34874,1,0,0:0:0:0:
300,192,35147,1,0,2:3:0:0:
240,228,35420,1,0,0:0:0:0:
195,183,35692,1,0,2:3:0:0:
240,138,35965,1,0,0:0:0:0:
284,183,36238,1,0,2:0:0:0:
256,192,36511,8,4,39238,0:1:0:0:
252,192,39783,5,0,0:0:0:0:
300,164,40056,2,0,L|352:116,2,70,2|0|4,2:0|0:0|2:3,0:0:0:0:
244,176,40874,1,0,0:0:0:0:
200,140,41147,2,0,L|140:64,2,70,2|0|4,2:0|0:0|2:3,0:0:0:0:
244,236,41965,1,0,0:0:0:0:
252,284,42511,2,0,L|292:256,1,35,2|6,0:2|0:0,0:0:0:0:
336,200,42783,1,0,2:0:0:0:
316,276,43056,5,0,0:0:0:0:
244,240,43329,2,0,L|192:196,1,35,2|6,2:0|0:0,0:0:0:0:
248,140,43601,1,0,0:0:0:0:
172,124,43874,2,0,L|116:156,2,35,2|0|4,2:0|0:0|0:0,0:0:0:0:
180,208,44420,1,0,2:0:0:0:
252,240,44692,2,0,L|288:260,2,35,2|0|4,0:2|0:0|2:3,0:0:0:0:
240,156,45238,1,0,0:0:0:0:
158,107,45783,2,0,L|130:71,2,35,2|0|4,0:2|0:0|2:3,0:0:0:0:
364,208,46329,5,0,0:0:0:0:
292,224,46601,2,0,L|240:180,1,35,2|6,2:0|0:0,0:0:0:0:
280,128,46874,1,0,0:0:0:0:
192,96,47147,2,0,L|136:128,2,35,2|0|4,2:0|0:0|0:0,0:0:0:0:
208,184,47692,1,0,0:0:0:0:
300,208,47965,2,0,L|336:228,2,35,2|0|4,0:2|0:0|2:3,0:0:0:0:
400,184,48511,2,0,L|376:116,1,70,2|4,0:2|2:3,0:0:0:0:
280,88,49056,1,0,0:0:0:0:
256,176,49329,1,0,2:0:0:0:
124,156,49601,2,0,L|160:224,1,70,2|4,0:2|2:3,0:0:0:0:
228,244,50147,6,0,L|304:244,2,70,2|0|4,0:2|2:0|0:0,0:0:0:0:
232,176,50965,1,0,2:0:0:0:
284,124,51238,2,0,L|344:124,2,35,2|0|4,0:2|0:0|2:3,0:0:0:0:
372,72,51783,1,0,0:0:0:0:
384,148,52056,2,0,L|448:176,1,70,2|4,2:0|0:1,0:0:0:0:
364,208,52874,5,0,0:0:0:0:
292,224,53147,2,0,L|240:180,1,35,2|6,2:0|0:0,0:0:0:0:
280,128,53420,1,0,0:0:0:0:
192,96,53692,2,0,L|136:128,2,35,2|0|4,2:0|0:0|0:0,0:0:0:0:
208,184,54238,1,0,2:0:0:0:
300,208,54511,2,0,L|336:228,2,35,2|0|4,0:2|0:0|2:3,0:0:0:0:
400,184,55056,2,0,L|376:116,1,70,2|4,0:2|2:3,0:0:0:0:
284,80,55601,1,0,0:0:0:0:
284,168,55874,1,0,2:0:0:0:
216,204,56147,6,0,L|140:204,2,70,2|0|4,0:2|2:0|0:0,0:0:0:0:
240,132,56965,1,0,2:0:0:0:
292,72,57238,2,0,L|368:72,2,70,2|0|4,0:2|2:0|0:0,0:0:0:0:
168,96,58056,1,0,2:0:0:0:
140,196,58329,2,0,L|80:196,2,35,2|0|4,0:2|0:0|2:3,0:0:0:0:
224,192,58874,2,0,L|288:160,1,70,2|4,0:2|2:3,0:0:0:0:
376,152,59420,6,0,L|408:260,2,105,2|2|4,0:2|0:0|2:3,0:0:0:0:
172,184,60511,2,0,L|196:256,1,70,2|4,0:2|2:3,0:0:0:0:
380,160,61056,2,0,L|404:232,1,70,2|4,0:2|2:3,0:0:0:0:
316,228,61601,1,0,0:0:0:0:
308,200,61738,1,0,0:3:0:0:
300,172,61874,1,0,0:0:0:0:
216,184,62147,1,0,0:0:0:0:
224,212,62284,1,0,0:3:0:0:
232,240,62420,1,0,0:0:0:0:
256,192,62692,12,4,65420,0:1:0:0:
212,88,65965,6,0,L|164:136,1,35,4|2,1:3|0:0,0:0:0:0:
196,152,66238,2,0,L|232:192,4,35,0|0|8|0|0,3:0|0:0|1:1|0:0|3:0,0:0:0:0:
272,144,67056,1,4,1:3:0:0:
292,168,67192,1,0,0:0:0:0:
316,188,67329,1,0,3:0:0:0:
376,152,67601,2,0,L|416:224,1,70,8|8,1:1|0:3,0:0:0:0:
152,236,68147,6,0,L|200:284,1,35,4|2,1:3|0:0,0:0:0:0:
216,252,68420,2,0,L|256:216,4,35,0|0|8|0|0,3:0|0:0|1:1|0:0|3:0,0:0:0:0:
208,176,69238,1,4,1:3:0:0:
232,156,69374,1,0,0:0:0:0:
252,132,69511,1,0,3:0:0:0:
216,72,69783,2,0,L|288:32,1,70,8|8,1:1|0:3,0:0:0:0:
212,88,70329,6,0,L|164:136,1,35,4|2,1:3|0:0,0:0:0:0:
196,152,70601,2,0,L|232:192,4,35,0|0|8|0|0,3:0|0:0|1:1|0:0|3:0,0:0:0:0:
272,144,71420,1,4,1:3:0:0:
292,168,71556,1,0,0:0:0:0:
316,188,71692,1,0,3:0:0:0:
376,152,71965,2,0,L|416:224,1,70,8|8,1:1|0:3,0:0:0:0:
324,112,72511,6,0,L|276:64,1,35,4|2,1:3|0:0,0:0:0:0:
260,96,72783,2,0,L|220:132,4,35,0|0|8|0|0,3:0|0:0|1:1|0:0|3:0,0:0:0:0:
268,172,73601,1,4,1:3:0:0:
244,192,73738,1,0,0:0:0:0:
224,216,73874,1,0,3:0:0:0:
260,276,74147,2,0,L|188:316,1,70,8|8,1:1|0:3,0:0:0:0:
296,96,74692,6,0,L|248:132,1,35,4|2,1:3|0:0,0:0:0:0:
248,136,74965,2,0,L|200:164,4,35,0|0|8|0|0,3:0|0:0|1:1|0:0|3:0,0:0:0:0:
180,260,75783,1,4,1:3:0:0:
264,304,76056,1,0,3:0:0:0:
348,244,76329,1,8,1:1:0:0:
412,188,76601,2,0,L|360:152,1,35,0|8,3:0|3:0,0:0:0:0:
280,96,76874,6,0,L|232:132,1,35,4|2,1:3|0:0,0:0:0:0:
232,136,77147,2,0,L|184:164,4,35,0|0|8|0|0,3:0|0:0|1:1|0:0|3:0,0:0:0:0:
164,260,77965,1,4,1:3:0:0:
248,304,78238,1,0,3:0:0:0:
332,244,78511,1,8,1:1:0:0:
396,188,78783,2,0,L|344:152,1,35,0|8,3:0|3:0,0:0:0:0:
252,96,79056,6,0,L|204:132,1,35,4|2,1:3|0:0,0:0:0:0:
204,136,79329,2,0,L|156:164,4,35,0|0|8|0|0,3:0|0:0|1:1|0:0|3:0,0:0:0:0:
136,260,80147,1,4,1:3:0:0:
220,304,80420,1,0,3:0:0:0:
304,244,80693,1,8,1:1:0:0:
368,188,80965,2,0,L|316:152,1,35,0|8,3:0|3:0,0:0:0:0:
272,180,81238,5,4,1:3:0:0:
300,196,81374,1,0,0:0:0:0:
312,224,81511,1,0,3:0:0:0:
300,264,81647,2,0,L|268:324,3,35,0|8|0|0,0:0|1:1|0:0|3:0,0:0:0:0:
204,216,82329,2,0,L|156:160,1,70,4|0,1:3|0:0,0:0:0:0:
68,228,82874,1,8,1:1:0:0:
76,260,83011,1,0,0:0:0:0:
96,284,83147,1,0,3:0:0:0:
160,284,83420,6,8,P|160:232|224:132,1,175,6|8,1:3|2:1,0:1:0:0:
268,52,84238,1,2,3:2:0:0:
280,140,84511,2,0,L|280:316,1,175,6|8,1:3|1:1,0:0:0:0:
352,204,85329,1,2,3:2:0:0:
368,288,85601,2,0,P|424:220|424:132,1,175,6|8,1:3|1:1,0:0:0:0:
408,56,86420,1,12,3:3:0:0:
356,112,86692,6,0,L|276:176,1,87.5,6|2,1:3|3:0,0:0:0:0:
228,200,87238,1,8,1:0:0:0:
236,100,87511,1,0,3:0:0:0:
148,152,87783,2,0,L|56:192,1,87.5,6|0,1:3|0:3,0:3:0:0:
112,252,88329,2,0,L|177:317,1,87.5,8|0,0:1|0:3,0:3:0:0:
188,160,88874,1,4,1:3:0:0:
272,256,89147,1,0,3:0:0:0:
256,80,89420,1,8,1:0:0:0:
340,176,89692,1,4,3:1:0:0:
256,192,89965,12,4,91601,0:1:0:0:
128,160,92147,6,0,L|168:276,1,87.5,6|0,1:3|3:0,0:0:0:0:
252,124,92692,1,8,0:1:0:0:
284,228,92965,1,0,3:0:0:0:
408,176,93238,2,0,L|368:64,2,87.5,6|0|8,1:3|3:0|1:0,0:0:0:0:
288,124,94056,1,0,3:0:0:0:
112,136,94329,2,0,L|152:252,2,87.5,6|0|8,0:3|3:0|0:0,0:0:0:0:
212,236,95147,1,0,3:0:0:0:
336,196,95420,2,0,L|304:112,1,87.5,6|0,0:3|3:0,0:0:0:0:
380,96,95965,1,8,0:0:0:0:
424,192,96238,1,0,3:0:0:0:
308,200,96511,6,0,L|340:264,2,43.75,6|0|0,0:3|0:3|0:0,0:0:0:0:
220,120,97056,2,0,L|252:184,2,43.75,8|0|0,0:0|0:0|0:0,0:0:0:0:
124,168,97601,1,4,0:3:0:0:
132,236,97874,1,0,3:0:0:0:
184,284,98147,2,0,L|236:208,1,87.5,8|0,0:0|3:0,0:0:0:0:
292,288,98692,2,0,L|456:212,1,175,6|8,0:3|0:0,0:0:0:0:
404,120,99511,2,0,L|296:164,2,87.5,2|4|0,0:3|0:3|0:0,0:0:0:0:
312,52,100329,1,8,0:0:0:0:
288,64,100465,1,0,0:0:0:0:
264,80,100601,1,4,0:0:0:0:
180,108,100874,5,4,0:3:0:0:
176,200,101147,2,0,L|240:276,1,87.5,2|8,0:3|0:0,0:0:0:0:
324,244,101692,1,0,3:0:0:0:
400,184,101965,2,0,L|336:108,2,87.5,6|0|8,0:3|3:0|0:0,0:0:0:0:
324,256,102783,1,0,3:0:0:0:
236,228,103056,2,0,L|168:136,1,87.5,6|0,0:3|0:0,0:0:0:0:
96,180,103601,2,0,L|132:224,2,43.75,8|0|0,0:0|0:0|0:0,0:0:0:0:
196,120,104147,1,4,1:3:0:0:
232,128,104283,1,0,1:0:0:0:
268,136,104420,1,0,1:0:0:0:
344,84,104692,1,8,0:0:0:0:
248,44,104965,1,0,3:1:0:0:
108,144,105238,6,0,L|148:260,1,87.5,6|0,0:3|0:0,0:0:0:0:
208,116,105783,1,8,0:0:0:0:
248,248,106056,1,0,3:0:0:0:
340,188,106329,2,0,L|304:76,2,87.5,6|0|8,0:3|3:0|0:0,0:0:0:0:
208,96,107147,1,0,3:0:0:0:
112,136,107420,2,0,L|152:252,2,87.5,6|0|8,0:3|3:0|0:0,0:0:0:0:
240,80,108238,1,0,0:0:0:0:
404,152,108511,2,0,L|420:204,2,43.75,6|0|0,0:3|0:0|0:0,0:0:0:0:
364,92,109056,1,8,0:0:0:0:
344,84,109192,1,0,0:0:0:0:
324,76,109329,1,4,0:0:0:0:
244,132,109601,6,0,L|284:216,1,87.5,6|0,0:3|0:0,0:0:0:0:
164,168,110147,2,0,L|196:232,2,43.75,8|0|0,0:0|0:0|0:0,0:0:0:0:
64,172,110692,1,4,0:3:0:0:
76,240,110965,1,0,3:0:0:0:
128,292,111238,2,0,L|180:216,1,87.5,8|0,0:0|0:0,0:0:0:0:
240,296,111783,2,0,L|404:220,1,175,6|8,0:3|0:0,0:0:0:0:
336,144,112601,2,0,L|228:188,2,87.5,2|4|0,0:3|0:3|0:0,0:0:0:0:
284,64,113420,1,8,0:0:0:0:
256,84,113556,1,0,0:0:0:0:
228,104,113692,1,0,0:0:0:0:
168,160,113965,6,0,L|208:276,1,87.5,6|0,0:3|0:0,0:0:0:0:
292,172,114511,2,0,L|332:288,1,87.5,8|0,0:0|0:0,0:0:0:0:
416,204,115056,2,0,L|376:92,2,87.5,6|0|8,0:3|3:0|0:0,0:0:0:0:
272,92,115874,1,0,3:0:0:0:
156,148,116147,2,0,L|196:264,2,87.5,6|0|8,0:3|3:0|0:0,0:0:0:0:
228,96,116965,1,0,3:0:0:0:
264,208,117238,2,0,L|280:260,2,43.75,6|0|0,0:3|0:0|0:0,0:0:0:0:
336,316,117783,1,8,0:0:0:0:
368,300,117920,1,0,0:0:0:0:
396,280,118056,1,4,0:0:0:0:
344,204,118329,6,0,L|304:92,1,87.5,6|0,0:3|0:0,0:0:0:0:
272,56,118874,2,0,L|160:96,1,87.5,8|0,0:0|0:0,0:0:0:0:
172,148,119420,2,0,L|200:264,1,87.5,6|0,0:3|0:0,0:0:0:0:
256,120,119965,1,8,0:0:0:0:
276,248,120238,1,0,3:0:0:0:
408,252,120511,1,4,0:3:0:0:
344,104,120783,2,0,L|372:200,2,87.5,2|8|0,0:3|0:0|0:0,0:0:0:0:
284,204,121601,2,0,L|260:128,2,43.75,6|0|0,0:3|0:0|0:0,0:0:0:0:
208,224,122147,1,8,0:0:0:0:
200,192,122283,1,0,0:0:0:0:
192,156,122420,1,4,0:0:0:0:
344,144,122692,6,0,L|432:188,1,87.5,6|0,0:3|0:0,0:0:0:0:
436,272,123238,6,0,L|348:284,1,87.5,8|0,0:0|0:0,0:0:0:0:
288,248,123783,2,0,L|196:88,1,175,6|8,0:3|0:0,0:0:0:0:
144,56,124601,1,0,3:0:0:0:
128,128,124874,6,0,L|220:288,1,175,6|8,0:3|0:0,0:0:0:0:
256,316,125692,1,0,3:0:0:0:
300,280,125965,6,8,L|392:120,1,175,6|8,0:3|0:0,0:0:0:0:
444,88,126783,1,0,3:0:0:0:
460,160,127056,6,0,L|368:320,1,175,6|8,0:3|0:0,0:0:0:0:
256,316,127874,1,0,3:0:0:0:
212,280,128147,6,0,L|120:120,1,175,6|8,0:3|0:0,0:0:0:0:
68,88,128965,1,0,3:0:0:0:
52,160,129238,6,0,L|144:320,1,175,6|12,0:3|0:0,0:0:0:0:
256,192,130056,12,4,131420,0:0:0:0:
120,128,131965,6,0,L|200:288,1,175,6|10,1:3|1:1,1:0:0:0:
384,100,133056,2,0,L|464:264,1,175,6|10,1:3|1:1,1:0:0:0:
248,176,133874,2,0,L|292:264,2,87.5,2|4|0,1:3|1:3|1:0,1:0:0:0:
248,132,134692,1,10,0:0:0:0:
220,152,134829,1,0,0:0:0:0:
192,172,134965,1,0,0:0:0:0:
264,252,135238,1,2,0:0:0:0:
292,232,135374,1,0,0:0:0:0:
320,212,135511,1,0,0:0:0:0:
256,200,135783,1,6,1:1:0:0:
