osu file format v14

[General]
AudioFilename: andreas-nicolas-les-vaches.mp3
AudioLeadIn: 0
PreviewTime: 39267
Countdown: 1
SampleSet: Normal
StackLeniency: 0.7
Mode: 1
LetterboxInBreaks: 0
WidescreenStoryboard: 1

[Editor]
Bookmarks: 76720,84739
DistanceSpacing: 1.6
BeatDivisor: 2
GridSize: 8
TimelineZoom: 1.4

[Metadata]
Title:Les vaches (rencontre du 3eme pis)
TitleUnicode:Les vaches (rencontre du 3ème pis)
Artist:Andreas & Nicolas
ArtistUnicode:Andréas & Nicolas
Creator:Kurai
Version:Muzukashii
Source:
Tags:Singes du Futur
BeatmapID:726023
BeatmapSetID:326201

[Difficulty]
HPDrainRate:5
CircleSize:4
OverallDifficulty:5
ApproachRate:5
SliderMultiplier:1.4
SliderTickRate:1

[Events]
//Background and Video events
0,0,"Cow-Wallpaper-Background.jpg",0,-85
//Break Periods
2,180255,184524
//Storyboard Layer 0 (Background)
//Storyboard Layer 1 (Fail)
//Storyboard Layer 2 (Pass)
//Storyboard Layer 3 (Foreground)
//Storyboard Sound Samples

[TimingPoints]
2547,535.714285714286,4,1,0,60,1,0
24399,370.37037037037,4,1,0,100,1,8
27381,377.358490566038,4,1,0,100,1,0
104173,352.941176470588,4,1,0,80,1,0
104173,-142.857142857143,4,1,0,80,0,0
116878,-114.285714285714,4,1,0,100,0,0
128172,-84.7457627118644,4,1,0,100,0,0
139467,-84.7457627118644,4,1,0,100,0,1
143702,-84.7457627118644,4,1,0,100,0,0
145114,-84.7457627118644,4,1,0,100,0,1
150408,-84.7457627118644,4,1,0,100,0,0
150761,-84.7457627118644,4,1,0,100,0,1
154996,-84.7457627118644,4,1,0,100,0,0
156408,-84.7457627118644,4,1,0,100,0,1
161702,-84.7457627118644,4,1,0,100,0,0
162055,-84.7457627118644,4,1,0,100,0,1
166290,-84.7457627118644,4,1,0,100,0,0
167702,-84.7457627118644,4,1,0,100,0,1
171937,-84.7457627118644,4,1,0,100,0,0
173349,-84.7457627118644,4,1,0,100,0,1
173525,-84.7457627118644,4,1,0,100,0,0
185724,377.358490566038,4,1,0,100,1,0

[HitObjects]
176,160,940,5,0,0:0:0:0:
176,160,1297,1,0,0:0:0:0:
176,160,1475,1,8,0:0:0:0:
176,160,1832,1,0,0:0:0:0:
176,160,2011,1,0,0:0:0:0:
176,160,2547,1,4,0:0:0:0:
176,160,3082,1,8,0:0:0:0:
176,160,3618,1,0,0:0:0:0:
176,160,4154,1,8,0:0:0:0:
176,160,4511,1,0,0:0:0:0:
176,160,4690,1,0,0:0:0:0:
176,160,5225,1,8,0:0:0:0:
176,160,5761,1,0,0:0:0:0:
176,160,6297,1,8,0:0:0:0:
176,160,6654,1,0,0:0:0:0:
176,160,6832,1,0,0:0:0:0:
176,160,7368,1,8,0:0:0:0:
176,160,7904,1,0,0:0:0:0:
176,160,8440,1,8,0:0:0:0:
176,160,8797,1,0,0:0:0:0:
176,160,8975,1,0,0:0:0:0:
176,160,9511,1,8,0:0:0:0:
176,160,10047,1,0,0:0:0:0:
176,160,10582,1,8,0:0:0:0:
176,160,11118,1,0,0:0:0:0:
176,160,11654,1,8,0:0:0:0:
176,160,12011,1,0,0:0:0:0:
176,160,12190,1,0,0:0:0:0:
176,160,12725,1,8,0:0:0:0:
176,160,13082,1,0,0:0:0:0:
176,160,13261,1,0,0:0:0:0:
176,160,13797,1,8,0:0:0:0:
176,160,14154,1,0,0:0:0:0:
176,160,14332,1,0,0:0:0:0:
176,160,14868,1,8,0:0:0:0:
176,160,15404,1,0,0:0:0:0:
176,160,15940,1,8,0:0:0:0:
176,160,16475,1,0,0:0:0:0:
176,160,17011,1,8,0:0:0:0:
176,160,17368,1,0,0:0:0:0:
176,160,17547,1,0,0:0:0:0:
176,160,18082,1,8,0:0:0:0:
176,160,18618,1,0,0:0:0:0:
176,160,19154,1,8,0:0:0:0:
176,160,19511,1,0,0:0:0:0:
176,160,19690,1,0,0:0:0:0:
176,160,20225,1,8,0:0:0:0:
176,160,20582,1,0,0:0:0:0:
176,160,20761,1,0,0:0:0:0:
176,160,21297,1,8,0:0:0:0:
176,160,21832,1,4,0:0:0:0:
176,160,24399,1,4,0:0:0:0:
176,160,24769,1,0,0:0:0:0:
176,160,25139,1,0,0:0:0:0:
176,160,25510,1,8,0:0:0:0:
176,160,25695,1,0,0:0:0:0:
176,160,26065,1,0,0:0:0:0:
176,160,26250,1,8,0:0:0:0:
176,160,26621,1,0,0:0:0:0:
176,160,26991,1,0,0:0:0:0:
176,160,27381,1,0,0:0:0:0:
176,160,27758,1,8,0:0:0:0:
176,160,28135,1,0,0:0:0:0:
176,160,28513,1,8,0:0:0:0:
176,160,28890,1,0,0:0:0:0:
176,160,29267,1,8,0:0:0:0:
176,160,29645,1,0,0:0:0:0:
176,160,29833,1,0,0:0:0:0:
176,160,30022,1,8,0:0:0:0:
176,160,30399,1,0,0:0:0:0:
176,160,30777,1,8,0:0:0:0:
176,160,31154,1,0,0:0:0:0:
176,160,31531,1,8,0:0:0:0:
176,160,31909,1,0,0:0:0:0:
176,160,32286,1,8,0:0:0:0:
176,160,32664,1,0,0:0:0:0:
176,160,32852,1,0,0:0:0:0:
176,160,33041,1,8,0:0:0:0:
176,160,33418,1,4,0:0:0:0:
176,160,34173,1,8,0:0:0:0:
176,160,34550,1,0,0:0:0:0:
176,160,34739,1,8,0:0:0:0:
176,160,35116,1,8,0:0:0:0:
176,160,35494,1,0,0:0:0:0:
176,160,35682,1,0,0:0:0:0:
176,160,35871,1,0,0:0:0:0:
176,160,36060,1,8,0:0:0:0:
176,160,36437,1,4,0:0:0:0:
176,160,37192,1,8,0:0:0:0:
176,160,37569,1,0,0:0:0:0:
176,160,37758,1,8,0:0:0:0:
176,160,38135,1,8,0:0:0:0:
176,160,38513,1,8,0:0:0:0:
176,160,38701,1,8,0:0:0:0:
176,160,38890,1,8,0:0:0:0:
176,160,39079,1,0,0:0:0:0:
176,160,39456,1,4,0:0:0:0:
176,160,39833,1,0,0:0:0:0:
176,160,40022,1,8,0:0:0:0:
176,160,40588,1,0,0:0:0:0:
176,160,40965,1,8,0:0:0:0:
176,160,41343,1,0,0:0:0:0:
176,160,41531,1,0,0:0:0:0:
176,160,42097,1,8,0:0:0:0:
176,160,42475,1,0,0:0:0:0:
176,160,42852,1,8,0:0:0:0:
176,160,43418,1,0,0:0:0:0:
176,160,43607,1,8,0:0:0:0:
176,160,43984,1,0,0:0:0:0:
176,160,44362,1,8,0:0:0:0:
176,160,44928,1,0,0:0:0:0:
176,160,45116,1,8,0:0:0:0:
176,160,45494,1,0,0:0:0:0:
176,160,45871,1,0,0:0:0:0:
176,160,46060,1,0,0:0:0:0:
176,160,46626,1,8,0:0:0:0:
176,160,47003,1,4,0:0:0:0:
176,160,47380,1,0,0:0:0:0:
176,160,47569,1,0,0:0:0:0:
176,160,48135,1,8,0:0:0:0:
176,160,48512,1,0,0:0:0:0:
176,160,48890,1,8,0:0:0:0:
176,160,49456,1,0,0:0:0:0:
176,160,49644,1,8,0:0:0:0:
176,160,50022,1,0,0:0:0:0:
176,160,50399,1,8,0:0:0:0:
176,160,50965,1,0,0:0:0:0:
176,160,51154,1,8,0:0:0:0:
176,160,51531,1,0,0:0:0:0:
176,160,51909,1,0,0:0:0:0:
176,160,52097,1,0,0:0:0:0:
176,160,52663,1,8,0:0:0:0:
176,160,53041,1,0,0:0:0:0:
176,160,53418,1,0,0:0:0:0:
176,160,53607,1,0,0:0:0:0:
176,160,54173,1,8,0:0:0:0:
176,160,54550,1,4,0:0:0:0:
176,160,54928,1,0,0:0:0:0:
176,160,55116,1,8,0:0:0:0:
176,160,55682,1,8,0:0:0:0:
176,160,56060,1,4,0:0:0:0:
176,160,56437,1,0,0:0:0:0:
176,160,56626,1,8,0:0:0:0:
176,160,57192,1,8,0:0:0:0:
176,160,57569,1,0,0:0:0:0:
176,160,57758,1,8,0:0:0:0:
176,136,58324,1,8,0:0:0:0:
176,136,58702,1,0,0:0:0:0:
176,160,59079,1,8,0:0:0:0:
176,160,59456,1,8,0:0:0:0:
176,160,59645,1,8,0:0:0:0:
176,160,60211,1,8,0:0:0:0:
176,160,60588,1,0,0:0:0:0:
176,160,60965,1,8,0:0:0:0:
176,160,61154,1,8,0:0:0:0:
176,160,61720,1,8,0:0:0:0:
176,160,62097,1,0,0:0:0:0:
176,160,62475,1,8,0:0:0:0:
176,160,62664,1,8,0:0:0:0:
176,160,63230,1,8,0:0:0:0:
176,160,63607,1,4,0:0:0:0:
176,160,63984,1,8,0:0:0:0:
176,160,64173,1,4,0:0:0:0:
176,160,64550,1,0,0:0:0:0:
176,160,65116,1,4,0:0:0:0:
176,160,65494,1,8,0:0:0:0:
176,160,65871,1,8,0:0:0:0:
176,160,66248,1,0,0:0:0:0:
176,160,66437,1,8,0:0:0:0:
176,160,66814,1,8,0:0:0:0:
176,160,67192,1,0,0:0:0:0:
176,160,67381,1,0,0:0:0:0:
176,160,67569,1,0,0:0:0:0:
176,160,67758,1,8,0:0:0:0:
176,160,68135,1,4,0:0:0:0:
176,160,68513,1,0,0:0:0:0:
176,160,68890,1,0,0:0:0:0:
176,160,69267,1,0,0:0:0:0:
176,160,69456,1,8,0:0:0:0:
176,144,70022,1,0,0:0:0:0:
24,264,70399,2,0,L|280:96,1,280
176,160,71531,1,0,0:0:0:0:
176,160,71720,1,8,0:0:0:0:
176,160,72286,1,0,0:0:0:0:
176,160,72664,1,8,0:0:0:0:
176,160,73041,1,0,0:0:0:0:
176,160,73230,1,8,0:0:0:0:
176,160,73796,1,8,0:0:0:0:
176,160,74173,1,0,0:0:0:0:
176,160,74550,1,8,0:0:0:0:
176,160,75116,1,0,0:0:0:0:
176,160,75305,1,8,0:0:0:0:
176,160,75682,1,0,0:0:0:0:
176,160,76060,1,0,0:0:0:0:
176,160,76248,1,8,0:0:0:0:
176,160,76814,1,0,0:0:0:0:
176,160,77192,1,0,0:0:0:0:
176,160,77569,1,0,0:0:0:0:
176,160,77758,1,8,0:0:0:0:
176,160,78324,1,8,0:0:0:0:
176,160,78701,1,0,0:0:0:0:
176,160,79079,1,0,0:0:0:0:
176,160,79267,1,8,0:0:0:0:
176,160,79833,1,8,0:0:0:0:
176,160,80211,1,8,0:0:0:0:
176,160,80777,1,0,0:0:0:0:
176,160,81343,1,8,0:0:0:0:
232,304,81720,1,0,0:0:0:0:
176,152,82286,1,8,0:0:0:0:
176,160,82664,1,0,0:0:0:0:
184,184,82852,1,8,0:0:0:0:
184,184,83230,1,4,0:0:0:0:
184,184,83607,1,4,0:0:0:0:
184,184,83984,1,4,0:0:0:0:
184,184,84362,1,4,0:0:0:0:
184,184,84739,1,4,0:0:0:0:
184,184,85116,1,4,0:0:0:0:
184,184,85305,1,4,0:0:0:0:
184,184,85682,1,8,0:0:0:0:
184,184,85871,1,8,0:0:0:0:
184,184,86248,1,0,0:0:0:0:
184,184,86626,1,0,0:0:0:0:
184,184,86814,1,8,0:0:0:0:
184,184,87381,1,8,0:0:0:0:
184,184,87758,1,0,0:0:0:0:
184,184,88135,1,8,0:0:0:0:
208,192,88701,1,0,0:0:0:0:
184,184,88890,1,8,0:0:0:0:
184,184,89267,1,8,0:0:0:0:
184,184,89645,1,0,0:0:0:0:
184,184,89833,1,8,0:0:0:0:
184,184,90399,1,8,0:0:0:0:
184,184,90777,1,4,0:0:0:0:
184,184,91343,1,0,0:0:0:0:
184,184,91720,1,0,0:0:0:0:
184,184,91909,1,8,0:0:0:0:
184,184,92286,1,0,0:0:0:0:
184,184,92475,1,0,0:0:0:0:
184,184,92664,1,8,0:0:0:0:
184,184,93041,1,0,0:0:0:0:
184,184,93418,1,8,0:0:0:0:
184,184,93796,1,0,0:0:0:0:
184,184,93984,1,0,0:0:0:0:
184,184,94173,1,8,0:0:0:0:
184,184,94550,1,0,0:0:0:0:
184,184,94928,1,8,0:0:0:0:
184,184,95305,1,0,0:0:0:0:
184,184,95494,1,0,0:0:0:0:
184,184,95682,1,8,0:0:0:0:
184,184,96060,1,0,0:0:0:0:
184,184,96437,1,8,0:0:0:0:
184,184,96814,1,0,0:0:0:0:
184,184,97192,1,8,0:0:0:0:
184,184,97758,1,8,0:0:0:0:
184,184,97947,1,8,0:0:0:0:
184,184,98324,1,0,0:0:0:0:
184,184,98701,1,8,0:0:0:0:
176,160,99267,1,8,0:0:0:0:
184,184,99456,1,8,0:0:0:0:
184,184,99833,1,4,0:0:0:0:
184,184,100211,1,0,0:0:0:0:
184,184,100399,1,4,0:0:0:0:
184,184,100777,1,0,0:0:0:0:
184,184,101154,1,8,0:0:0:0:
184,184,101343,1,4,0:0:0:0:
184,184,104173,1,0,0:0:0:0:
184,184,104878,1,0,0:0:0:0:
184,184,105584,1,0,0:0:0:0:
184,184,106290,1,0,0:0:0:0:
184,184,106996,1,0,0:0:0:0:
184,184,107702,1,0,0:0:0:0:
184,184,108231,1,0,0:0:0:0:
184,184,108408,1,0,0:0:0:0:
184,184,109114,1,0,0:0:0:0:
184,184,109820,1,0,0:0:0:0:
184,184,110525,1,0,0:0:0:0:
184,184,110878,1,0,0:0:0:0:
184,184,111055,1,0,0:0:0:0:
184,184,111231,1,0,0:0:0:0:
184,184,111937,1,0,0:0:0:0:
184,184,112643,1,0,0:0:0:0:
184,184,113349,1,0,0:0:0:0:
184,184,113878,1,0,0:0:0:0:
184,184,114055,1,0,0:0:0:0:
184,184,114761,1,0,0:0:0:0:
192,208,115467,1,0,0:0:0:0:
192,208,116173,1,0,0:0:0:0:
192,208,116878,1,4,0:0:0:0:
160,176,118290,1,4,0:0:0:0:
160,176,119702,1,4,0:0:0:0:
160,176,121114,1,0,0:0:0:0:
160,176,121643,1,0,0:0:0:0:
160,176,122172,1,0,0:0:0:0:
160,176,122525,1,4,0:0:0:0:
160,176,123937,1,4,0:0:0:0:
160,176,125349,1,4,0:0:0:0:
160,176,126761,1,4,0:0:0:0:
160,176,127467,1,4,0:0:0:0:
160,176,128172,1,0,0:0:0:0:
160,176,128702,1,8,0:0:0:0:
160,176,129231,1,8,0:0:0:0:
160,176,129584,1,0,0:0:0:0:
160,176,130114,1,8,0:0:0:0:
160,176,130643,1,8,0:0:0:0:
160,176,130996,1,0,0:0:0:0:
160,176,131525,1,8,0:0:0:0:
160,176,132055,1,8,0:0:0:0:
160,176,132408,1,0,0:0:0:0:
160,176,132937,1,8,0:0:0:0:
160,176,133467,1,8,0:0:0:0:
160,176,133820,1,0,0:0:0:0:
160,176,134349,1,8,0:0:0:0:
160,176,134878,1,8,0:0:0:0:
160,176,135231,1,0,0:0:0:0:
160,176,135761,1,8,0:0:0:0:
160,176,136290,1,8,0:0:0:0:
160,176,139114,1,8,0:0:0:0:
160,176,139467,1,4,0:0:0:0:
160,176,139820,1,8,0:0:0:0:
160,176,139996,1,8,0:0:0:0:
160,176,140525,1,8,0:0:0:0:
160,176,140878,1,0,0:0:0:0:
160,176,141231,1,8,0:0:0:0:
160,176,141408,1,8,0:0:0:0:
160,176,141937,1,8,0:0:0:0:
160,176,142290,1,0,0:0:0:0:
160,176,142643,1,8,0:0:0:0:
160,176,142820,1,8,0:0:0:0:
160,176,143349,1,8,0:0:0:0:
160,176,143702,1,0,0:0:0:0:
160,176,144231,1,0,0:0:0:0:
160,176,144761,1,0,0:0:0:0:
160,176,145114,1,4,0:0:0:0:
160,168,145467,1,8,0:0:0:0:
160,168,145996,1,0,0:0:0:0:
160,168,146172,1,8,0:0:0:0:
160,168,146525,1,0,0:0:0:0:
160,168,146878,1,8,0:0:0:0:
160,168,147408,1,0,0:0:0:0:
160,168,147584,1,8,0:0:0:0:
160,168,147937,1,0,0:0:0:0:
160,168,148290,1,8,0:0:0:0:
160,168,148820,1,0,0:0:0:0:
160,168,148996,1,8,0:0:0:0:
160,168,149349,1,0,0:0:0:0:
168,144,149525,1,0,0:0:0:0:
160,168,149702,1,0,0:0:0:0:
160,168,149878,1,8,0:0:0:0:
160,144,150231,1,0,0:0:0:0:
160,168,150408,1,8,0:0:0:0:
160,168,150761,1,8,0:0:0:0:
168,160,151114,1,0,0:0:0:0:
152,168,151290,1,0,0:0:0:0:
160,168,151643,1,8,0:0:0:0:
160,168,151820,1,8,0:0:0:0:
160,168,152172,1,0,0:0:0:0:
152,168,152525,1,8,0:0:0:0:
152,168,152702,1,8,0:0:0:0:
152,168,153055,1,0,0:0:0:0:
160,168,153231,1,0,0:0:0:0:
160,168,153584,1,8,0:0:0:0:
152,168,153937,1,0,0:0:0:0:
152,168,154114,1,0,0:0:0:0:
152,168,154467,1,8,0:0:0:0:
160,168,154643,1,8,0:0:0:0:
160,168,154996,1,0,0:0:0:0:
160,168,155525,1,0,0:0:0:0:
160,168,156055,1,0,0:0:0:0:
160,168,156408,1,4,0:0:0:0:
160,168,156761,1,0,0:0:0:0:
160,168,157114,1,8,0:0:0:0:
160,168,157467,1,8,0:0:0:0:
160,168,157820,1,0,0:0:0:0:
160,168,158172,1,8,0:0:0:0:
160,168,158349,1,8,0:0:0:0:
160,176,158878,1,8,0:0:0:0:
160,176,159231,1,0,0:0:0:0:
160,176,159584,1,8,0:0:0:0:
160,176,159761,1,8,0:0:0:0:
160,176,160290,1,0,0:0:0:0:
160,176,160643,1,8,0:0:0:0:
160,176,160996,1,0,0:0:0:0:
160,176,161172,1,0,0:0:0:0:
160,176,161525,1,8,0:0:0:0:
160,176,161702,1,8,0:0:0:0:
160,176,162055,1,4,0:0:0:0:
160,176,162408,1,8,0:0:0:0:
160,176,162584,1,0,0:0:0:0:
160,176,163114,1,8,0:0:0:0:
160,176,163467,1,0,0:0:0:0:
160,176,163820,1,8,0:0:0:0:
160,176,163996,1,0,0:0:0:0:
160,176,164525,1,8,0:0:0:0:
160,176,164878,1,0,0:0:0:0:
160,176,165231,1,8,0:0:0:0:
160,176,165408,1,8,0:0:0:0:
160,176,165937,1,8,0:0:0:0:
160,176,166290,1,0,0:0:0:0:
160,176,166820,1,0,0:0:0:0:
160,176,167349,1,0,0:0:0:0:
160,176,167702,1,4,0:0:0:0:
160,176,168055,1,0,0:0:0:0:
160,176,168408,1,8,0:0:0:0:
160,176,168761,1,8,0:0:0:0:
160,176,169114,1,0,0:0:0:0:
160,176,169643,1,8,0:0:0:0:
160,176,169996,1,0,0:0:0:0:
160,176,170172,1,8,0:0:0:0:
160,176,170525,1,0,0:0:0:0:
160,176,170878,1,8,0:0:0:0:
160,176,171408,1,0,0:0:0:0:
160,168,171584,1,8,0:0:0:0:
160,176,171937,1,4,0:0:0:0:
160,176,172467,1,4,0:0:0:0:
160,176,172996,1,12,0:0:0:0:
160,176,173349,1,4,0:0:0:0:
256,192,173702,12,0,180055,0:0:0:0:
176,160,185724,5,4,0:0:0:0:
176,160,186101,1,0,0:0:0:0:
176,160,186478,1,0,0:0:0:0:
176,160,186856,1,8,0:0:0:0:
176,160,187044,1,0,0:0:0:0:
176,160,187422,1,0,0:0:0:0:
176,160,187610,1,8,0:0:0:0:
176,160,187988,1,8,0:0:0:0:
176,160,188365,1,0,0:0:0:0:
