osu file format v14

[General]
AudioFilename: audio.mp3
AudioLeadIn: 0
PreviewTime: 117131
Countdown: 1
SampleSet: Normal
StackLeniency: 0.4
Mode: 0
LetterboxInBreaks: 0
WidescreenStoryboard: 0

[Editor]
Bookmarks: 26988,39997,53005,66013,79021,92029,105037,118045,131053,143249,157070,170078
DistanceSpacing: 1.3
BeatDivisor: 4
GridSize: 4
TimelineZoom: 1.7

[Metadata]
Title:Das kann kein Zufall sein (Nightcore Mix)
TitleUnicode:Das kann kein Zufall sein (Nightcore Mix)
Artist:Andrea Berg
ArtistUnicode:Andrea Berg
Creator:Mao
Version:Schwer
Source:
Tags:
BeatmapID:1166665
BeatmapSetID:550708

[Difficulty]
HPDrainRate:7
CircleSize:4
OverallDifficulty:7
ApproachRate:7
SliderMultiplier:1.6
SliderTickRate:1

[Events]
//Background and Video events
0,0,"Anime-Love-Wallpapers-50.jpg",0,0
//Break Periods
//Storyboard Layer 0 (Background)
//Storyboard Layer 1 (Fail)
//Storyboard Layer 2 (Pass)
//Storyboard Layer 3 (Foreground)
Sprite,Foreground,Centre,"SB\MaoMao.png",320,240 M,0,13574,,438,360 S,0,13574,,0.5 R,0,13574,,0.15 F,0,13574,13980,0,1 F,0,13980,26582,1,0.997537 F,0,26582,26988,0.997537,0 F,0,26988,39590,0,0.004913975 F,0,39590,39997,0.004913975,1 F,0,39997,52598,1,0.9951102 F,0,52598,53005,0.9951102,0 F,0,53005,65606,0,0.007334964 F,0,65606,66013,0.007334964,1 F,0,66013,78614,1,0.997561 F,0,78614,79021,0.997561,0 F,0,79021,91623,0 F,0,91623,92029,0,1 F,0,92029,104631,1 F,0,104631,105037,1,0 F,0,105037,117639,0,0.009852217 F,0,117639,118045,0.009852217,1 F,0,118045,130647,1 F,0,130647,131053,1,0 F,0,131053,142842,0,0.004926108 F,0,142842,143249,0.004926108,1 F,0,143249,156663,1 F,0,156663,157070,1,0 F,0,157070,169671,0 F,0,169671,170078,0,1 F,0,170078,181053,1 F,0,181053,181460,1,0
Sprite,Foreground,Centre,"SB\Bonsy.png",320,240 M,0,26582,,198,360 S,0,26582,,0.5 R,0,26582,,-0.15 F,0,26582,26988,0,1 F,0,26988,39590,1,0.997537 F,0,39590,39997,0.997537,0 F,0,39997,52598,0 F,0,52598,53005,0,1 F,0,53005,65606,1,0.990172 F,0,65606,66013,0.990172,0 F,0,66013,78614,0,0.007298565 F,0,78614,79021,0.007298565,1 F,0,79021,91623,1 F,0,91623,92029,1,0 F,0,92029,104631,0 F,0,104631,105037,0,0.9999699 F,0,105037,117639,0.9999699,0.9975069 F,0,117639,118045,0.9975069,0 F,0,118045,130647,0,0.007370741 F,0,130647,131053,0.007370741,1 F,0,131053,142842,1 F,0,142842,143249,1,0 F,0,143249,156663,0,0.004914005 F,0,156663,157070,0.004914005,1 F,0,157070,169671,1,0.9926652 F,0,169671,170078,0.9926652,0
//Storyboard Sound Samples

[TimingPoints]
13980.7486384597,406.50406504065,4,2,0,30,1,0
26988,-90.9090909090909,4,2,0,50,0,0
30037,-82.6446280991736,4,2,0,50,0,0
30240,-90.9090909090909,4,2,0,50,0,0
53005,-83.3333333333333,4,1,0,60,0,1
65911,-83.3333333333333,4,1,0,60,0,0
66013,-83.3333333333333,4,1,0,60,0,1
78208,-100,4,1,0,60,0,0
79021,-133.333333333333,4,3,0,60,0,0
92029,-90.9090909090909,4,2,0,60,0,0
95078,-82.6446280991736,4,2,0,60,0,0
95281,-90.9090909090909,4,2,0,60,0,0
106460,-133.333333333333,4,2,0,60,0,0
107273,-100,4,2,0,60,0,0
108696,-90.9090909090909,4,2,0,60,0,0
109712,-111.111111111111,4,2,0,60,0,0
111948,-90.9090909090909,4,2,0,60,0,0
113167,-111.111111111111,4,2,0,60,0,0
113777,-100,4,2,0,60,0,0
118045,-83.3333333333333,4,1,0,60,0,1
130952,-83.3333333333333,4,1,0,60,0,0
131053,-83.3333333333333,4,1,0,60,0,1
137557,-75.7575757575758,4,1,0,60,0,1
137964,-83.3333333333333,4,1,0,60,0,1
139184,-75.7575757575758,4,1,0,60,0,1
139590,-83.3333333333333,4,1,0,60,0,1
143249,-100,4,2,0,40,0,0
157070,-76.9230769230769,4,1,0,60,0,1
170078,-120.481927710843,4,2,0,40,0,0
179021,517.241379310345,4,2,0,60,1,8
180055,562.060889929742,4,2,0,30,1,8
180195,-100,4,2,0,5,0,8

[Colours]
Combo1 : 251,136,60
Combo2 : 232,209,119
Combo3 : 145,136,189
Combo4 : 189,231,112
SliderBorder : 255,255,255
SliderTrackOverride : 130,30,30

[HitObjects]
171,35,13980,6,0,P|141:106|179:173,1,160,4|0,1:2|1:0,0:0:0:0:
256,216,14590,1,0,0:0:0:0:
332,173,14793,2,0,P|370:106|341:35,1,160,0|0,1:0|1:0,0:0:0:0:
256,41,15403,1,0,0:0:0:0:
256,128,15606,1,0,1:0:0:0:
137,258,16013,5,0,1:0:0:0:
173,337,16216,1,0,0:0:0:0:
256,363,16419,1,2,1:2:0:0:
339,337,16623,1,2,0:0:0:0:
375,258,16826,1,0,1:0:0:0:
360,171,17029,2,0,P|317:190|296:234,1,80,2|4,0:0|1:2,0:0:0:0:
208,30,17639,5,0,1:0:0:0:
137,82,17842,1,0,0:0:0:0:
76,17,18045,2,0,P|52:59|89:159,1,160,0|0,1:0|1:0,0:0:0:0:
169,190,18655,1,0,0:0:0:0:
100,245,18858,1,0,1:0:0:0:
256,355,19265,5,0,1:0:0:0:
315,290,19468,1,0,0:0:0:0:
377,359,19671,2,0,P|424:370|495:330,1,120,2|0,1:2|0:0,0:0:0:0:
486,340,20078,2,0,L|480:258,1,80,0|0,1:0|0:0,0:0:0:0:
471,172,20484,1,4,1:2:0:0:
387,16,20891,5,0,1:0:0:0:
454,71,21094,1,0,0:0:0:0:
371,102,21297,2,0,L|207:73,1,160,0|0,1:0|1:0,0:0:0:0:
127,55,21907,1,0,0:0:0:0:
149,139,22110,1,0,1:0:0:0:
15,286,22517,5,0,1:0:0:0:
38,370,22720,1,0,0:0:0:0:
125,368,22923,1,0,1:0:0:0:
107,281,23127,2,0,L|90:198,1,80,0|0,0:0|1:0,0:0:0:0:
159,147,23533,6,0,L|193:311,2,160,2|2|2,0:0|0:0|0:0,0:0:0:0:
184,63,24549,2,0,P|256:33|328:63,1,160,0|0,1:0|1:0,0:0:0:0:
353,147,25159,1,0,0:0:0:0:
353,147,25362,2,0,L|319:311,1,160,0|0,1:0|1:0,0:0:0:0:
465,202,26175,6,0,L|474:163,3,40,2|0|0|0,1:2|0:0|0:0|0:0,0:0:0:0:
471,151,26582,1,2,1:2:0:0:
468,139,26684,1,0,0:0:0:0:
465,127,26785,1,0,0:0:0:0:
462,115,26887,1,0,0:0:0:0:
459,102,26988,1,4,1:2:0:0:
459,102,27395,6,0,P|417:88|376:101,1,88.000002685547,8|0,1:2|0:0,0:0:0:0:
301,162,27801,2,0,P|228:188|148:133,1,176.000005371094,0|8,1:0|1:2,0:0:0:0:
152,41,28411,1,0,0:0:0:0:
235,90,28614,1,0,1:0:0:0:
67,187,29021,5,8,1:2:0:0:
67,283,29224,1,0,0:0:0:0:
150,332,29427,1,2,1:2:0:0:
150,236,29630,1,2,0:0:0:0:
235,283,29834,1,8,1:2:0:0:
235,379,30037,2,0,L|318:331,1,96.7999972674561,2|4,0:0|1:2,0:0:0:0:
319,101,30647,5,8,1:2:0:0:
236,150,30850,1,0,0:0:0:0:
318,199,31053,2,0,P|394:161|409:68,1,176.000005371094,0|8,1:0|1:2,0:0:0:0:
319,101,31663,1,0,0:0:0:0:
236,49,31866,1,0,1:0:0:0:
73,194,32273,5,8,1:2:0:0:
156,245,32476,1,0,0:0:0:0:
238,194,32679,2,0,L|238:150,1,44.0000013427735,2|0,1:2|0:0,0:0:0:0:
238,114,32883,2,0,P|315:78|394:114,1,176.000005371094,2|2,0:2|0:0,0:0:0:0:
461,182,33492,6,0,L|461:367,1,176.000005371094,4|8,1:2|1:2,0:0:0:0:
367,384,34102,1,0,0:0:0:0:
299,315,34305,2,0,L|299:130,1,176.000005371094,0|8,1:0|1:2,0:0:0:0:
393,113,34915,1,0,0:0:0:0:
393,16,35118,1,0,1:0:0:0:
199,16,35525,5,8,1:2:0:0:
199,113,35728,2,0,L|199:296,1,176.000005371094,2|2,0:0|0:0,0:0:0:0:
293,315,36338,1,8,1:2:0:0:
385,342,36541,2,0,B|416:300|388:258|385:258|381:258|353:217|385:175,2,176.000005371094,2|2|2,0:0|0:0|0:0,0:0:0:0:
293,315,37557,2,0,L|107:266,1,176.000005371094,0|8,1:0|1:2,0:0:0:0:
27,246,38167,6,0,P|15:204|28:163,1,88.000002685547,2|0,0:3|1:0,0:0:0:0:
81,82,38574,2,0,P|94:40|81:0,2,88.000002685547,2|8|2,0:3|1:2|0:3,0:0:0:0:
134,163,39184,6,0,L|175:172,3,44.0000013427735,2|0|0|0,1:2|0:0|0:0|0:0,0:0:0:0:
191,170,39591,1,10,1:2:0:0:
204,166,39693,1,0,0:0:0:0:
217,163,39794,1,0,0:0:0:0:
230,160,39896,1,0,0:0:0:0:
243,157,39997,1,4,1:2:0:0:
381,344,40403,6,0,B|318:297|256:338|256:344|256:349|194:390|131:344,1,264.000008056641,10|0,1:2|0:0,0:0:0:0:
44,305,41216,1,8,1:2:0:0:
118,243,41419,2,0,P|127:194|39:115,1,176.000005371094,2|2,0:0|0:0,0:0:0:0:
256,23,42232,5,2,0:0:0:0:
334,80,42435,1,0,1:0:0:0:
304,172,42638,1,0,0:0:0:0:
207,172,42841,1,8,1:2:0:0:
177,80,43045,1,0,0:0:0:0:
256,23,43249,1,4,1:2:0:0:
480,70,43655,6,0,P|504:111|366:231,1,264.000008056641,10|0,1:2|0:0,0:0:0:0:
304,172,44468,1,8,1:2:0:0:
228,113,44671,2,0,B|180:94|148:133|149:136|150:139|117:178|69:159,1,176.000005371094,2|2,0:0|0:0,0:0:0:0:
256,360,45484,5,2,0:0:0:0:
334,303,45687,1,0,1:0:0:0:
304,211,45890,1,0,0:0:0:0:
207,211,46093,1,8,1:2:0:0:
177,303,46297,1,0,0:0:0:0:
256,361,46501,1,4,1:2:0:0:
444,312,46907,6,0,P|491:194|444:72,1,264.000008056641,10|2,1:2|0:0,0:0:0:0:
355,31,47720,1,8,1:2:0:0:
339,126,47923,2,0,B|297:157|255:129|255:126|255:122|214:94|172:126,1,176.000005371094,2|2,0:0|0:0,0:0:0:0:
46,271,48736,5,2,0:0:0:0:
104,348,48940,1,0,1:0:0:0:
190,304,49143,1,0,0:0:0:0:
136,223,49346,1,8,1:2:0:0:
376,223,49753,1,4,1:2:0:0:
256,28,50159,5,10,1:2:0:0:
256,28,50362,1,0,0:0:0:0:
189,110,50566,1,0,1:0:0:0:
256,192,50769,2,0,L|256:243,2,44.0000013427735,4|0|0,0:3|0:3|1:3,0:3:0:0:
323,110,51175,1,0,0:0:0:0:
256,192,51379,12,2,52598,0:0:0:0:
504,254,53005,6,0,P|447:180|354:179,1,191.999994140625,4|8,0:2|0:0,0:0:0:0:
256,224,53614,1,0,0:0:0:0:
157,179,53818,2,0,P|64:180|7:254,1,191.999994140625,4|8,0:1|0:0,0:0:0:0:
35,356,54427,1,0,0:0:0:0:
140,356,54631,1,2,0:2:0:0:
178,356,54732,1,0,0:0:0:0:
216,356,54834,2,0,L|243:264,1,95.9999970703126,2|8,0:2|0:0,0:0:0:0:
277,164,55240,5,0,0:0:0:0:
364,224,55444,1,0,0:0:0:0:
450,164,55647,1,0,0:0:0:0:
482,264,55850,1,8,0:0:0:0:
419,61,56257,6,0,B|403:11|403:11|316:11|316:11|298:65,1,191.999994140625,4|8,0:2|0:0,0:0:0:0:
277,164,56866,1,0,0:0:0:0:
246,265,57070,2,0,B|229:315|229:315|142:315|142:315|126:265,1,191.999994140625,4|8,0:1|0:0,0:0:0:0:
97,164,57679,1,0,0:0:0:0:
127,62,57883,1,2,0:2:0:0:
165,62,57984,1,0,0:0:0:0:
203,62,58086,2,0,L|295:35,1,95.9999970703126,2|8,0:2|0:0,0:0:0:0:
400,34,58492,5,0,0:0:0:0:
492,87,58695,1,0,0:0:0:0:
512,192,58898,1,0,0:0:0:0:
470,291,59102,1,8,0:0:0:0:
369,326,59305,1,0,0:0:0:0:
339,223,59509,2,0,P|255:183|173:224,1,191.999994140625,4|8,0:2|0:0,0:0:0:0:
112,311,60118,5,0,0:0:0:0:
20,258,60321,1,0,0:0:0:0:
0,153,60524,1,0,0:0:0:0:
42,54,60728,1,8,0:0:0:0:
143,19,60931,1,0,0:0:0:0:
173,121,61135,2,0,P|256:161|338:120,1,191.999994140625,4|8,0:2|0:0,0:0:0:0:
256,54,61744,5,0,0:0:0:0:
173,121,61948,2,0,B|161:170|216:199|220:197|223:195|264:224|256:281,1,191.999994140625,2|8,0:2|0:0,0:0:0:0:
256,371,62557,1,0,0:0:0:0:
256,281,62761,2,0,B|249:224|290:195|293:197|297:199|352:170|340:121,3,191.999994140625,4|8|4|8,0:2|0:0|0:3|0:0,0:0:0:0:
318,22,64184,5,0,0:0:0:0:
318,22,64387,1,4,0:3:0:0:
423,22,64590,1,4,0:3:0:0:
423,22,64793,1,8,0:0:0:0:
445,121,64997,1,4,0:3:0:0:
419,223,65200,5,4,0:3:0:0:
311,223,65403,1,4,0:3:0:0:
201,223,65606,1,8,0:0:0:0:
184,126,65810,1,0,0:3:0:0:
184,126,65911,1,0,0:3:0:0:
184,126,66013,6,0,P|138:90|13:122,1,191.999994140625,4|8,0:2|0:0,0:0:0:0:
97,192,66623,1,0,0:0:0:0:
16,266,66826,2,0,P|102:301|184:258,1,191.999994140625,4|8,0:0|0:0,0:0:0:0:
256,180,67436,1,0,0:0:0:0:
328,258,67639,1,2,0:2:0:0:
351,288,67740,1,0,0:0:0:0:
376,316,67842,2,0,L|471:305,1,95.9999970703126,2|8,0:2|0:0,0:0:0:0:
412,216,68249,5,0,0:0:0:0:
499,157,68452,1,0,0:0:0:0:
446,65,68655,1,0,0:0:0:0:
356,121,68858,1,8,0:0:0:0:
198,33,69265,6,0,B|145:33|145:33|118:115|118:115|161:147,1,191.999994140625,4|8,0:2|0:0,0:0:0:0:
256,192,69875,1,0,0:0:0:0:
351,237,70078,2,0,B|393:268|393:268|366:350|366:350|313:350,1,191.999994140625,4|8,0:0|0:0,0:0:0:0:
220,300,70688,1,0,0:0:0:0:
130,355,70891,1,2,0:2:0:0:
92,347,70992,1,0,0:0:0:0:
54,338,71094,2,0,P|27:300|34:251,1,95.9999970703126,2|8,0:2|0:0,0:0:0:0:
96,168,71501,5,0,0:0:0:0:
154,255,71704,1,0,0:0:0:0:
256,281,71907,1,0,0:0:0:0:
358,255,72110,1,8,0:0:0:0:
416,168,72313,1,0,0:0:0:0:
336,96,72517,2,0,P|256:141|176:96,1,191.999994140625,4|8,0:2|0:0,0:0:0:0:
87,37,73127,5,0,0:0:0:0:
32,127,73330,1,0,0:0:0:0:
114,192,73533,1,0,0:0:0:0:
32,257,73736,1,8,0:0:0:0:
87,347,73939,1,0,0:0:0:0:
175,288,74143,2,0,P|256:244|337:288,1,191.999994140625,4|8,0:2|0:0,0:0:0:0:
424,346,74753,5,0,0:0:0:0:
422,240,74956,2,0,B|374:208|387:155|390:154|394:153|408:100|360:70,1,191.999994140625,2|8,0:2|0:0,0:0:0:0:
255,59,75566,1,0,0:0:0:0:
300,154,75769,2,0,B|345:187|391:157|391:154|391:149|435:119|481:154,3,191.999994140625,4|8|4|8,0:2|0:0|0:3|0:0,0:0:0:0:
497,258,77192,5,0,0:0:0:0:
406,311,77395,2,0,L|347:301,3,47.9999985351563,4|0|0|0,0:2|0:0|0:0|0:0,0:0:0:0:
341,311,77801,1,8,0:0:0:0:
323,319,77903,1,0,0:0:0:0:
305,327,78005,1,4,0:3:0:0:
287,335,78106,1,0,0:0:0:0:
272,342,78208,1,4,0:0:0:0:
101,52,79021,6,0,P|79:106|100:161,1,120.000004577637,2|2,3:3|3:0,0:0:0:0:
177,179,79631,1,0,0:0:0:0:
251,200,79834,2,0,P|272:254|250:309,1,120.000004577637,2|2,3:0|3:0,0:0:0:0:
175,330,80444,1,0,0:0:0:0:
99,351,80647,1,2,3:0:0:0:
57,200,81053,5,2,3:0:0:0:
57,122,81256,1,0,0:0:0:0:
57,43,81460,2,0,P|30:30|0:27,2,60.0000022888184,2|2|0,3:2|3:2|0:2,0:2:0:0:
124,82,82070,2,0,P|150:94|180:97,1,60.0000022888184,2|0,3:2|0:0,0:2:0:0:
372,97,82679,5,2,3:0:0:0:
316,152,82882,1,0,0:0:0:0:
260,207,83086,2,0,P|238:261|259:316,1,120.000004577637,2|2,3:0|3:0,0:0:0:0:
315,371,83696,1,0,0:0:0:0:
392,371,83899,1,2,3:0:0:0:
392,371,84305,6,0,L|441:321,1,60.0000022888184,2|0,0:0|0:0,0:0:0:0:
489,273,84712,1,2,0:2:0:0:
450,205,84915,2,0,B|426:150|426:150|450:95,1,120.000004577637,2|0,0:2|0:2,0:2:0:0:
489,26,85525,1,2,0:3:0:0:
331,26,85931,5,2,0:3:0:0:
369,94,86135,1,0,0:3:0:0:
407,161,86338,2,0,P|352:182|297:160,1,120.000004577637,2|2,0:3|0:3,0:3:0:0:
256,94,86948,1,0,0:3:0:0:
217,161,87151,2,0,P|162:182|107:161,1,120.000004577637,2|2,0:3|0:3,0:3:0:0:
66,94,87761,1,0,0:3:0:0:
108,28,87964,2,0,L|169:28,1,60.0000022888184,2|0,0:3|0:3,0:3:0:0:
360,28,88574,6,0,L|217:28,1,120.000004577637,2|0,0:3|0:3,0:3:0:0:
120,106,89387,2,0,L|360:106,1,240.000009155274,2|0,0:3|0:3,0:3:0:0:
310,369,91216,6,2,B|279:361|256:345|256:345|233:361|201:369,2,120.000004577637,0|0|4,0:0|0:0|1:2,0:2:0:0:
474,266,92436,5,8,1:2:0:0:
381,294,92639,1,0,0:0:0:0:
329,211,92842,2,0,P|256:171|182:211,1,176.000005371094,0|8,1:2|1:2,0:0:0:0:
131,294,93452,1,0,0:0:0:0:
38,266,93655,1,0,1:2:0:0:
61,73,94062,5,8,1:2:0:0:
153,100,94265,1,0,0:0:0:0:
209,21,94468,1,2,1:2:0:0:
303,21,94671,1,2,0:2:0:0:
359,100,94875,1,8,1:2:0:0:
451,73,95078,2,0,P|457:121|423:166,1,96.7999972674561,2|4,0:0|1:2,0:0:0:0:
256,242,95688,6,0,L|256:147,1,88.000002685547,8|0,1:2|0:0,0:0:0:0:
222,63,96094,2,0,P|164:35|62:79,1,176.000005371094,0|8,1:0|1:2,0:0:0:0:
13,155,96704,1,0,0:0:0:0:
109,166,96907,2,0,B|140:208|112:250|109:250|105:250|77:291|109:333,1,176.000005371094,0|8,1:0|1:2,0:0:0:0:
192,379,97517,5,0,0:0:0:0:
270,322,97720,2,0,L|414:348,1,132.00000402832,2|0,1:2|0:0,0:0:0:0:
399,345,98127,1,8,1:2:0:0:
493,320,98330,1,0,0:0:0:0:
419,256,98533,1,4,1:2:0:0:
490,75,98940,5,8,1:2:0:0:
454,164,99143,1,0,0:0:0:0:
394,85,99346,2,0,P|325:40|256:87,1,176.000005371094,0|8,1:0|1:2,0:0:0:0:
306,170,99956,1,0,0:0:0:0:
206,170,100159,1,0,1:0:0:0:
101,333,100566,5,8,1:2:0:0:
153,252,100769,1,0,0:0:0:0:
56,245,100972,1,0,1:0:0:0:
18,155,101175,2,0,B|58:124|99:152|99:156|99:159|141:187|183:156,2,176.000005371094,2|2|2,0:0|0:0|0:0,0:0:0:0:
56,245,102192,5,8,1:2:0:0:
12,331,102395,2,0,P|61:342|150:263,1,176.000005371094,2|0,0:0|0:0,0:0:0:0:
229,211,103005,2,0,P|275:211|313:245,1,88.000002685547,8|0,1:2|0:0,0:0:0:0:
318,331,103411,2,0,P|353:356|396:355,1,88.000002685547,0|0,1:0|0:0,0:0:0:0:
478,302,103818,2,0,L|489:209,1,88.000002685547,8|0,1:2|0:0,0:0:0:0:
473,119,104224,6,0,L|478:75,3,44.0000013427735,0|0|0|0,1:0|0:0|0:0|0:0,0:0:0:0:
465,70,104631,1,8,1:2:0:0:
452,65,104732,1,0,0:0:0:0:
439,59,104834,1,0,0:0:0:0:
426,53,104936,1,0,0:0:0:0:
413,48,105037,1,4,1:2:0:0:
413,48,105444,6,0,B|366:2|303:2|256:48|256:48|209:2|147:2|100:48,1,352.000010742188,8|8,3:2|3:2,0:0:0:0:
99,144,106460,2,0,L|99:336,1,180.000006866455,0|8,3:2|3:2,0:0:0:0:
175,383,107273,5,0,0:0:0:0:
225,301,107476,2,2,P|259:275|307:277,1,80,0|0,3:0|3:0,0:0:0:0:
390,291,107883,2,2,P|428:287|459:262,1,80,0|0,3:0|3:0,0:0:0:0:
504,178,108289,1,4,0:0:0:0:
504,178,108696,6,0,B|504:90|504:90|440:42|380:86|380:90|380:94|316:138|256:90,1,352.000010742188,8|8,3:2|3:2,0:2:0:0:
173,40,109712,2,0,P|63:21|10:120,1,215.999993408203,0|8,3:2|3:2,0:2:0:0:
10,190,110525,5,0,0:2:0:0:
105,190,110728,2,0,L|190:211,1,71.9999978027344,2|0,3:2|0:2,0:2:0:0:
270,209,111135,2,0,L|347:189,1,71.9999978027344,2|0,3:2|0:2,0:2:0:0:
433,190,111541,1,4,1:2:0:0:
280,304,111948,6,0,P|181:247|232:121,1,264.000008056641,10|0,3:2|3:2,0:2:0:0:
319,103,112761,1,8,0:2:0:0:
254,30,112964,1,0,0:2:0:0:
160,51,113167,2,0,L|5:91,1,143.999995605469,0|8,3:2|3:2,0:2:0:0:
20,184,113777,5,0,3:2:0:0:
20,279,113980,1,0,1:2:0:0:
112,306,114184,1,0,3:2:0:0:
204,333,114387,2,0,L|280:310,1,80,8|0,1:2|0:2,0:2:0:0:
372,282,114793,6,0,L|372:236,3,40,4|0|0|0,1:2|3:2|3:2|3:2,3:2:0:0:
372,209,115200,2,0,L|372:163,3,40,8|0|0|0,1:2|3:2|3:2|3:2,3:2:0:0:
372,136,115606,1,4,1:2:0:0:
377,104,115707,1,0,3:2:0:0:
395,79,115809,1,0,1:2:0:0:
424,64,115910,1,0,3:2:0:0:
455,65,116012,1,12,1:2:0:0:
484,79,116114,1,0,3:2:0:0:
502,105,116215,1,0,1:2:0:0:
507,136,116317,1,0,3:2:0:0:
256,192,116419,12,2,117639,0:0:0:0:
46,227,118045,6,0,P|94:304|185:294,1,191.999994140625,4|8,0:2|0:0,0:0:0:0:
256,216,118655,1,0,0:0:0:0:
326,294,118858,2,0,P|417:304|465:227,1,191.999994140625,4|8,0:0|0:0,0:0:0:0:
366,186,119468,1,0,0:0:0:0:
448,120,119671,1,2,0:2:0:0:
462,84,119773,1,0,0:0:0:0:
453,46,119875,2,0,L|353:31,1,95.9999970703126,2|8,0:2|0:0,0:0:0:0:
306,112,120281,5,0,0:0:0:0:
256,29,120484,1,0,0:0:0:0:
206,112,120688,1,0,0:0:0:0:
153,31,120891,1,8,0:0:0:0:
51,216,121297,6,0,P|102:289|202:279,1,191.999994140625,4|8,0:2|0:0,0:0:0:0:
256,192,121907,1,0,0:0:0:0:
315,101,122110,2,0,P|407:93|461:168,1,191.999994140625,4|8,0:0|0:0,0:0:0:0:
451,273,122720,1,0,0:0:0:0:
395,364,122923,1,2,0:2:0:0:
356,357,123025,1,0,0:0:0:0:
318,354,123126,2,0,L|218:374,1,95.9999970703126,2|8,0:2|0:0,0:0:0:0:
118,352,123533,5,0,0:0:0:0:
31,294,123736,1,0,0:0:0:0:
5,192,123939,1,0,0:0:0:0:
31,90,124142,1,8,0:0:0:0:
118,32,124345,1,0,0:0:0:0:
190,111,124549,2,0,P|144:191|189:271,1,191.999994140625,4|8,0:2|0:0,0:0:0:0:
256,353,125159,5,0,0:0:0:0:
323,271,125362,1,0,0:0:0:0:
256,192,125566,1,0,0:0:0:0:
323,113,125769,1,8,0:0:0:0:
256,31,125972,1,0,0:0:0:0:
189,113,126175,2,0,P|256:171|323:113,1,191.999994140625,4|8,0:2|0:0,0:0:0:0:
413,58,126785,5,0,0:0:0:0:
472,144,126988,2,0,P|497:206|444:311,1,191.999994140625,2|8,0:2|0:0,0:0:0:0:
354,368,127598,1,0,0:0:0:0:
294,281,127801,2,0,P|269:219|322:114,3,191.999994140625,4|8|4|8,0:2|0:0|0:3|0:0,0:0:0:0:
245,40,129224,1,4,0:3:0:0:
152,89,129427,6,0,L|97:81,3,47.9999985351563,4|0|4|0,0:3|0:0|0:3|0:0,0:0:0:0:
76,109,129834,2,0,L|21:101,3,47.9999985351563,8|0|4|0,0:0|0:0|0:3|0:0,0:0:0:0:
6,133,130240,1,4,0:3:0:0:
4,171,130342,1,0,0:0:0:0:
15,207,130444,1,4,0:3:0:0:
41,234,130545,1,0,0:0:0:0:
78,242,130647,1,8,0:0:0:0:
115,235,130749,1,0,0:0:0:0:
152,239,130850,1,4,0:3:0:0:
182,262,130952,1,0,0:0:0:0:
197,296,131053,6,0,P|255:359|314:296,1,191.999994140625,4|8,0:2|0:0,0:0:0:0:
256,208,131663,1,0,0:0:0:0:
197,120,131866,2,0,P|254:56|313:119,1,191.999994140625,4|8,0:0|0:0,0:0:0:0:
256,208,132476,1,0,0:0:0:0:
361,208,132679,1,2,0:2:0:0:
396,223,132781,1,0,0:0:0:0:
430,240,132883,2,0,P|447:283|430:327,1,95.9999970703126,2|8,0:2|0:0,0:0:0:0:
327,300,133289,5,0,0:0:0:0:
256,378,133492,1,0,0:0:0:0:
185,300,133696,1,0,0:0:0:0:
81,327,133899,2,0,P|64:283|81:240,1,95.9999970703126,8|0,0:0|0:0,0:0:0:0:
177,194,134305,6,0,B|204:143|167:102|164:103|160:104|123:63|151:14,1,191.999994140625,4|8,0:2|0:0,0:0:0:0:
256,0,134915,1,0,0:0:0:0:
360,15,135118,2,0,B|388:63|351:104|347:103|344:102|307:143|335:194,1,191.999994140625,4|8,0:0|0:0,0:0:0:0:
430,239,135728,1,0,0:0:0:0:
344,299,135931,1,2,0:2:0:0:
325,333,136033,1,0,0:0:0:0:
304,366,136135,2,0,L|208:366,2,95.9999970703126,2|8|0,0:2|0:0|0:0,0:0:0:0:
256,271,136744,5,0,0:0:0:0:
208,176,136948,1,0,0:0:0:0:
256,81,137151,1,8,0:0:0:0:
304,176,137354,1,0,0:0:0:0:
255,270,137557,2,0,P|154:264|104:176,1,211.199999355469,4|8,0:2|0:0,0:0:0:0:
151,81,138167,5,0,0:0:0:0:
256,81,138370,1,0,0:0:0:0:
304,176,138574,1,0,0:0:0:0:
256,271,138777,1,8,0:0:0:0:
207,175,138980,1,0,0:0:0:0:
256,81,139184,2,0,P|357:87|406:175,1,211.199999355469,4|8,0:2|0:0,0:0:0:0:
361,270,139794,5,0,0:0:0:0:
256,271,139997,2,0,B|210:306|164:278|164:274|164:270|118:241|75:277,1,191.999994140625,2|8,0:2|0:0,0:0:0:0:
256,271,140810,2,0,B|301:235|347:263|347:267|347:271|393:300|436:264,3,191.999994140625,4|8|4|8,0:2|0:0|0:3|0:0,0:0:0:0:
379,177,142232,5,0,0:0:0:0:
323,87,142436,2,0,L|264:77,3,47.9999985351563,4|0|0|0,0:3|0:0|0:0|0:0,0:0:0:0:
236,78,142842,2,0,L|188:86,4,47.9999985351563,8|0|0|0|4,0:0|0:0|0:0|0:0|1:0,0:0:0:0:
328,360,144062,6,2,P|257:330|184:360,1,160,4|4,1:1|0:3,0:3:0:0:
256,198,144875,1,4,0:3:0:0:
173,42,145281,1,4,0:3:0:0:
339,42,145688,1,4,0:3:0:0:
441,184,146094,5,4,0:3:0:0:
441,184,146297,2,2,L|454:276,1,80,2|4,0:0|0:3,0:1:0:0:
367,346,146704,2,2,L|354:254,1,80,2|4,0:0|0:3,0:1:0:0:
327,24,147314,6,2,P|256:54|184:24,1,160,4|4,1:0|0:3,0:1:0:0:
85,170,148127,1,4,0:3:0:0:
256,209,148533,1,4,0:3:0:0:
427,170,148940,5,4,0:3:0:0:
305,322,149346,1,4,0:3:0:0:
305,322,149549,2,2,L|326:238,1,80,2|4,0:0|0:3,0:3:0:0:
207,322,149956,2,2,L|186:238,1,80,2|4,0:0|0:3,0:3:0:0:
26,64,150566,6,2,P|95:29|165:63,1,160,4|4,1:0|0:3,0:3:0:0:
256,212,151379,1,4,0:3:0:0:
256,40,151785,1,4,0:3:0:0:
486,64,152192,6,2,P|416:29|346:63,1,160,4|4,1:0|0:3,0:3:0:0:
167,192,153005,1,4,0:3:0:0:
345,192,153411,1,4,0:3:0:0:
256,368,153818,6,2,L|256:197,1,160,4|2,1:0|0:0,0:3:0:0:
256,192,155444,12,2,156663,0:0:0:0:
497,192,157070,6,0,P|440:118|332:124,1,207.999990478516,4|8,0:2|0:0,0:0:0:0:
256,192,157679,1,0,0:0:0:0:
178,260,157883,2,0,P|78:268|14:191,1,207.999990478516,4|8,0:0|0:0,0:0:0:0:
14,87,158492,1,0,0:0:0:0:
87,13,158696,1,2,0:2:0:0:
120,27,158797,1,0,0:0:0:0:
153,41,158899,2,0,L|267:41,1,103.999995239258,2|8,0:2|0:0,0:0:0:0:
360,41,159305,5,0,0:0:0:0:
434,114,159508,1,0,0:0:0:0:
434,218,159711,1,0,0:0:0:0:
360,291,159915,2,0,L|256:291,1,103.999995239258,8|0,0:0|0:0,0:0:0:0:
256,186,160322,6,0,P|213:104|102:95,1,207.999990478516,4|8,0:2|0:0,0:0:0:0:
153,185,160931,1,0,0:0:0:0:
255,186,161135,2,0,P|298:104|409:95,1,207.999990478516,4|8,0:0|0:0,0:0:0:0:
358,185,161744,1,0,0:0:0:0:
358,290,161948,1,2,0:2:0:0:
375,327,162049,1,0,0:0:0:0:
393,365,162151,1,2,0:2:0:0:
467,290,162354,2,0,L|467:186,1,103.999995239258,8|0,0:0|0:0,0:0:0:0:
405,94,162761,5,0,0:2:0:0:
308,136,162964,1,0,0:0:0:0:
204,136,163167,1,8,0:0:0:0:
108,94,163370,2,0,P|57:87|16:118,2,103.999995239258,0|4|0,0:0|0:2|0:0,0:0:0:0:
204,136,163980,2,0,P|254:141|294:111,1,103.999995239258,8|0,0:0|0:0,0:0:0:0:
362,31,164387,5,0,0:0:0:0:
428,111,164590,1,0,0:0:0:0:
493,192,164793,1,8,0:0:0:0:
428,273,164997,1,0,0:0:0:0:
362,353,165200,2,0,L|256:353,2,103.999995239258,4|0|8,0:2|0:0|0:0,0:0:0:0:
428,273,165810,5,0,0:0:0:0:
362,193,166013,2,0,P|262:199|210:283,1,155.999992858887
203,271,166419,2,0,P|142:318|69:315,1,103.999995239258,8|0,0:0|0:0,0:0:0:0:
12,322,166826,5,4,0:2:0:0:
64,232,167029,2,0,B|103:184|74:133|70:133|66:134|36:82|76:37,2,207.999990478516,4|4|4,0:3|0:3|0:3,0:3:0:0:
117,322,168045,2,0,P|181:362|254:351,1,103.999995239258,4|4,0:3|0:3,0:0:0:0:
256,274,168452,5,4,0:3:0:0:
304,183,168655,1,4,0:3:0:0:
352,92,168858,1,4,0:3:0:0:
304,1,169062,1,4,0:3:0:0:
256,92,169265,1,4,0:3:0:0:
208,1,169468,1,4,0:3:0:0:
160,92,169672,1,4,0:3:0:0:
208,183,169875,1,4,0:3:0:0:
256,274,170078,6,0,P|296:303|431:262,1,199.200002887573,4|0,0:0|0:0,0:0:0:0:
475,192,170891,2,0,L|485:42,1,132.800001925049,2|0,0:0|0:0,0:0:0:0:
397,51,171501,2,0,L|387:201,1,132.800001925049,2|0,0:0|0:0,0:0:0:0:
355,371,172314,5,0,0:0:0:0:
300,304,172517,1,2,0:0:0:0:
212,304,172720,1,0,0:0:0:0:
157,371,172923,1,2,0:0:0:0:
37,245,173330,6,0,P|17:182|31:117,1,132.800001925049,4|0,0:0|0:0,0:0:0:0:
180,31,174143,2,0,P|199:93|185:158,1,132.800001925049,2|0,0:0|0:0,0:0:0:0:
134,227,174753,2,0,B|182:266|233:237|233:233|232:229|284:198|329:239,1,199.200002887573,2|0,0:0|0:0,0:0:0:0:
366,307,175566,5,0,0:0:0:0:
424,244,175769,2,0,L|440:173,1,66.4000009625244,2|0,0:0|0:0,0:0:0:0:
467,98,176175,1,0,0:0:0:0:
381,113,176379,2,0,P|332:97|321:24,1,132.800001925049,2|0,0:0|0:0,0:0:0:0:
256,184,177192,5,0,0:0:0:0:
188,240,177395,2,0,L|116:220,1,66.4000009625244,2|0,0:0|0:0,0:0:0:0:
64,166,177801,1,0,0:0:0:0:
131,113,178005,2,0,P|180:97|191:24,1,132.800001925049,2|0,0:0|0:0,0:0:0:0:
256,184,178818,5,0,0:0:0:0:
324,240,179021,2,0,P|256:276|188:240,1,160,2|0,0:0|0:0,0:0:0:0:
232,58,180055,6,0,B|224:35|189:27|157:46|146:82|157:121|189:144|240:140|256:187|256:187|271:140|322:144|354:121|365:82|354:46|322:27|287:35|279:58,1,480,2|0,0:0|0:0,0:0:0:0:
