osu file format v14

[General]
AudioFilename: audio.mp3
AudioLeadIn: 0
PreviewTime: 53366
Countdown: 0
SampleSet: Soft
StackLeniency: 0.4
Mode: 0
LetterboxInBreaks: 0
WidescreenStoryboard: 1

[Editor]
DistanceSpacing: 1
BeatDivisor: 4
GridSize: 16
TimelineZoom: 1

[Metadata]
Title:Especial de Natal da Luna
TitleUnicode:Especial de Natal da Luna
Artist:Andre Abujamra
ArtistUnicode:Andre Abujamra
Creator:reicavera
Version:Normal
Source:O Show da Luna!
Tags:português portuguese cartoon earth to brasil brazil christmas xmas júpiter jupiter cláudio claudio clyde kid andré marcio nigro
BeatmapID:2257271
BeatmapSetID:1078828

[Difficulty]
HPDrainRate:4
CircleSize:3.2
OverallDifficulty:3
ApproachRate:4.5
SliderMultiplier:1
SliderTickRate:1

[Events]
//Background and Video events
0,0,"bg.jpg",0,0
//Break Periods
//Storyboard Layer 0 (Background)
//Storyboard Layer 1 (Fail)
//Storyboard Layer 2 (Pass)
//Storyboard Layer 3 (Foreground)
//Storyboard Layer 4 (Overlay)
//Storyboard Sound Samples

[TimingPoints]
866,416.666666666667,4,2,0,50,1,0
14199,-100,4,2,1,50,0,0
27532,-100,4,2,1,65,0,0
52949,-100,4,2,1,67,0,0
53157,-100,4,2,1,69,0,0
53366,-100,4,2,1,71,0,0
53782,-100,4,2,1,75,0,0
54199,-100,4,2,1,80,0,1
67532,-100,4,2,1,80,0,0

[Colours]
Combo1 : 224,224,224
Combo2 : 255,62,62
Combo3 : 174,255,255
Combo4 : 159,255,64

[HitObjects]
126,173,14199,5,0,1:3:0:0:
181,89,14616,2,0,L|236:100,1,50,6|2,0:3|1:3,0:3:0:0:
275,78,15032,2,0,P|265:127|279:189,1,100,10|6,0:3|0:3,0:3:0:0:
197,241,15866,2,0,P|207:290|193:352,1,100,2|6,1:3|0:3,0:3:0:0:
178,384,16491,1,0,1:3:0:0:
178,384,16699,2,0,B|210:370|210:370|289:374,1,100,8|4,0:3|0:3,0:3:0:0:
372,351,17532,5,0,1:3:0:0:
354,252,17949,2,0,P|351:222|354:194,1,50,6|2,0:3|1:3,0:3:0:0:
374,157,18366,2,0,B|387:126|387:126|378:60,1,100,10|6,0:3|0:3,0:3:0:0:
279,43,19199,2,0,P|218:56|174:45,1,100,2|4,1:3|0:3,0:3:0:0:
136,34,19824,1,0,1:3:0:0:
136,34,20032,2,0,B|142:80|142:80|135:107|135:107|140:152,1,100,8|4,0:3|0:3,0:3:0:0:
198,205,20866,5,0,1:3:0:0:
120,268,21282,2,0,P|79:256|64:254,1,50,6|2,0:3|1:3,0:3:0:0:
25,272,21699,2,0,L|40:162,1,100,10|6,0:3|0:3,0:3:0:0:
138,144,22532,2,0,L|123:34,1,100,2|6,1:3|0:3,0:3:0:0:
152,8,23157,1,0,1:3:0:0:
152,8,23366,2,0,P|188:29|262:31,1,100,8|6,0:3|0:3,0:3:0:0:
345,30,24199,6,0,P|326:77|335:140,1,100,2|6,1:3|0:3,0:3:0:0:
357,166,24824,1,0,1:3:0:0:
357,166,25032,2,0,P|376:213|367:276,1,100,10|6,0:3|0:3,0:3:0:0:
302,330,25866,2,0,L|239:321,1,50,2|0,1:3|0:3,0:3:0:0:
214,290,26282,2,0,L|164:297,1,50,4|0,0:3|1:3,0:3:0:0:
116,312,26699,1,8,0:3:0:0:
66,224,27116,1,4,0:3:0:0:
134,151,27532,5,0,1:3:0:0:
224,193,27949,2,0,L|289:190,1,50,6|2,0:3|1:3,0:3:0:0:
317,165,28366,2,0,P|308:213|320:271,1,100,10|6,0:3|0:3,0:3:0:0:
377,330,29199,2,0,P|401:322|430:317,1,50,2|2,1:3|0:3,0:3:0:0:
464,348,29616,2,0,B|460:309|460:309|466:285|466:285|458:236,1,100,6|10,0:3|0:3,0:3:0:0:
373,199,30449,1,6,0:3:0:0:
446,130,30866,6,0,P|459:85|442:19,1,100,0|6,1:3|0:3,0:3:0:0:
402,16,31491,1,2,1:3:0:0:
402,16,31699,2,0,B|362:29|362:29|290:17,1,100,10|6,0:3|0:3,0:3:0:0:
236,92,32532,2,0,B|178:82|178:82|138:95,1,100,2|6,1:3|0:3,0:3:0:0:
96,121,33157,1,2,1:3:0:0:
96,121,33366,2,0,L|102:230,1,100,10|4,0:3|0:3,0:3:0:0:
31,292,34199,5,0,1:3:0:0:
99,364,34616,2,0,P|135:348|153:344,1,50,6|2,0:3|1:3,0:3:0:0:
193,358,35032,2,0,P|179:308|183:248,1,100,10|6,0:3|0:3,0:3:0:0:
204,162,35866,1,2,1:3:0:0:
300,136,36282,2,0,L|367:144,1,50,6|2,0:3|1:3,0:3:0:0:
375,184,36699,2,0,L|424:178,1,50,10|2,0:3|0:3,0:3:0:0:
474,171,37116,1,6,0:3:0:0:
510,263,37532,5,0,1:3:0:0:
447,341,37949,2,0,P|409:327|385:323,1,50,6|2,0:3|1:3,0:3:0:0:
350,331,38366,2,0,P|364:279|361:228,1,100,10|6,0:3|0:3,0:3:0:0:
282,172,39199,2,0,B|242:170|242:170|211:180|211:180|174:176,1,100,2|6,1:3|0:3,0:3:0:0:
84,165,40032,1,10,0:3:0:0:
56,68,40449,1,8,0:3:0:0:
143,19,40866,6,0,P|190:40|246:38,1,100,4|6,1:1|0:3,0:3:0:0:
285,23,41491,1,2,1:3:0:0:
285,23,41699,2,0,P|334:5|391:7,1,100,10|6,0:3|0:3,0:3:0:0:
468,53,42532,2,0,P|461:82|460:108,1,50,2|2,1:3|0:3,0:3:0:0:
492,140,42949,2,0,B|508:162|508:162|494:253,1,100,6|10,0:3|0:3,0:3:0:0:
431,309,43782,1,6,1:3:0:0:
341,263,44199,5,0,1:3:0:0:
258,319,44616,2,0,L|193:311,1,50,6|2,0:3|1:3,0:3:0:0:
185,268,45032,2,0,B|142:271|142:271|117:286|117:286|71:289,1,100,10|6,0:3|0:3,0:3:0:0:
3,235,45866,1,2,1:3:0:0:
84,177,46282,2,0,L|77:119,1,50,6|2,0:3|1:3,0:3:0:0:
70,77,46699,1,10,0:3:0:0:
169,81,47116,2,0,P|200:79|238:69,1,50,4|8,0:3|0:3,0:3:0:0:
264,56,47532,6,0,P|253:96|257:154,1,100,0|6,1:3|0:3,0:3:0:0:
286,194,48157,1,2,1:3:0:0:
286,194,48366,2,0,B|317:176|317:176|389:187,1,100,10|6,0:3|0:3,0:3:0:0:
449,112,49199,1,2,1:3:0:0:
386,33,49616,2,0,L|324:41,1,50,6|2,0:3|1:3,0:3:0:0:
295,68,50032,2,0,L|245:61,1,50,10|2,0:3|0:3,0:3:0:0:
196,52,50449,1,6,0:3:0:0:
122,119,50866,5,0,1:3:0:0:
197,183,51282,2,0,P|203:221|200:239,1,50,6|2,0:3|1:3,0:3:0:0:
165,267,51699,2,0,B|201:267|201:267|234:283|234:283|265:283,1,100,10|6,0:3|0:3,0:3:0:0:
357,310,52532,2,0,P|343:261|354:215,1,100,2|14,1:3|0:3,0:3:0:0:
376,175,53157,1,8,0:3:0:0:
376,175,53366,2,0,P|390:126|379:80,1,100,10|12,0:3|0:3,0:3:0:0:
309,7,54199,6,0,L|193:17,1,100,6|14,1:1|0:3,0:3:0:0:
121,63,55032,2,0,P|113:97|111:124,1,50,6|0,1:3|0:3,0:3:0:0:
130,158,55449,2,0,P|138:192|140:219,1,50,14|2,0:3|1:3,0:3:0:0:
128,255,55866,2,0,B|160:246|160:246|247:256,1,100,6|14,1:3|0:3,0:3:0:0:
325,267,56699,1,4,1:3:0:0:
378,182,57116,1,12,0:3:0:0:
307,110,57532,6,0,B|266:106|266:106|240:115|240:115|206:112,1,100,6|12,1:3|0:3,0:3:0:0:
169,143,58157,1,0,1:3:0:0:
169,143,58366,2,0,L|57:130,1,100,6|12,1:3|0:3,0:3:0:0:
30,39,59199,2,0,L|129:50,1,100,6|12,1:3|0:3,0:3:0:0:
218,6,60032,1,4,1:3:0:0:
249,99,60449,1,12,0:3:0:0:
325,34,60866,6,0,P|389:15|444:23,1,100,6|14,1:3|0:3,0:3:0:0:
472,102,61699,2,0,L|480:166,1,50,6|0,1:3|0:3,0:3:0:0:
438,181,62116,2,0,L|430:245,1,50,14|2,0:3|1:3,0:3:0:0:
451,276,62532,2,0,P|377:256|340:265,1,100,6|14,1:3|0:3,0:3:0:0:
265,303,63366,1,4,1:3:0:0:
204,223,63782,1,12,0:3:0:0:
268,146,64199,6,0,B|283:123|283:123|272:34,1,100,6|12,1:3|0:3,0:3:0:0:
234,19,64824,1,0,1:3:0:0:
234,19,65032,2,0,P|182:40|130:32,1,100,6|12,1:3|0:3,0:3:0:0:
43,6,65866,2,0,L|49:119,1,100,6|12,1:3|0:3,0:3:0:0:
101,189,66699,1,4,1:3:0:0:
188,140,67116,1,12,0:3:0:0:
268,199,67532,1,8,0:3:0:0:
