osu file format v14

[General]
AudioFilename: audio.mp3
AudioLeadIn: 0
PreviewTime: 60049
Countdown: 1
SampleSet: Soft
StackLeniency: 0.7
Mode: 0
LetterboxInBreaks: 0
WidescreenStoryboard: 0

[Editor]
Bookmarks: 69801
DistanceSpacing: 1.3
BeatDivisor: 8
GridSize: 4
TimelineZoom: 1.8

[Metadata]
Title:Libera La Mare
TitleUnicode:Libera La Mare
Artist:Andre
ArtistUnicode:Andre
Creator:Tony
Version:Kitschie
Source:
Tags:
BeatmapID:1460078
BeatmapSetID:689798

[Difficulty]
HPDrainRate:6
CircleSize:5
OverallDifficulty:7
ApproachRate:8
SliderMultiplier:2.69999990463257
SliderTickRate:2

[Events]
//Background and Video events
0,0,"bg.jpg",0,0
//Break Periods
//Storyboard Layer 0 (Background)
//Storyboard Layer 1 (Fail)
//Storyboard Layer 2 (Pass)
//Storyboard Layer 3 (Foreground)
//Storyboard Sound Samples

[TimingPoints]
128,625,4,2,0,65,1,0
54753,-57.1428571428571,4,2,0,55,0,0
54909,-100,4,2,0,55,0,0
98253,-100,4,2,0,35,0,0
98878,-100,4,2,0,25,0,0
99503,-100,4,2,0,15,0,0
100128,-100,4,2,0,55,0,0
122628,-66.6666666666667,4,2,0,55,0,0
132628,-200,4,2,0,55,0,0

[Colours]
Combo1 : 214,190,56
Combo2 : 202,102,53
Combo3 : 41,154,78
Combo4 : 138,77,138

[HitObjects]
188,272,128,6,0,P|236:220|332:228,1,134.999995231628,2|0,0:0|0:0,0:0:0:0:
472,128,753,2,0,P|424:180|372:84,1,202.499992847443,2|0,0:0|0:0,0:0:0:0:
362,97,1378,1,0,0:0:0:0:
196,48,1690,2,0,L|32:64,2,134.999995231628,2|0|2,0:0|0:0|0:0,0:0:0:0:
324,272,2628,6,0,P|276:220|180:228,1,134.999995231628,0|0,3:0|0:0,0:0:0:0:
40,128,3253,2,0,P|88:180|140:84,1,202.499992847443,0|0,3:0|0:0,0:0:0:0:
150,97,3878,1,0,0:0:0:0:
316,48,4190,2,0,L|480:64,2,134.999995231628,2|0|2,0:0|0:0|0:0,0:0:0:0:
52,100,5128,6,0,P|52:176|12:236,1,134.999995231628,0|0,3:0|0:0,0:0:0:0:
144,352,5753,2,0,P|144:276|184:216,1,134.999995231628,0|0,3:0|0:0,0:0:0:0:
172,226,6221,1,0,3:0:0:0:
172,226,6378,1,0,3:0:0:0:
340,44,6690,1,0,3:0:0:0:
408,192,7003,1,0,3:0:0:0:
408,192,7159,1,0,3:0:0:0:
408,192,7315,1,0,3:0:0:0:
268,340,7628,6,0,L|136:312,1,134.999995231628,2|0,0:0|0:0,0:0:0:0:
56,76,8253,2,0,L|188:48,1,134.999995231628,2|0,0:0|0:0,0:0:0:0:
68,172,8773,1,2,0:0:0:0:
68,172,8878,2,0,L|200:144,3,134.999995231628,2|0|2|0,0:0|0:0|0:0|0:0,0:0:0:0:
428,92,10128,5,4,1:0:0:0:
396,252,10440,2,0,L|380:328,1,67.4999976158142,2|0,0:0|1:0,0:0:0:0:
304,276,10753,2,0,L|332:140,1,134.999995231628,8|0,1:0|1:0,0:0:0:0:
120,35,11378,6,2,P|75:85|66:151,1,134.999995231628,2|2,1:0|1:0,1:0:0:0:
67,151,11846,1,2,0:0:0:0:
104,296,12003,2,2,P|153:340|219:349,1,134.999995231628,10|2,1:0|1:0,1:0:0:0:
220,348,12471,1,2,0:0:0:0:
368,288,12628,6,0,L|248:268,1,67.4999976158142,2|0,1:0|0:0,0:0:0:0:
188,220,12940,2,0,L|308:200,1,67.4999976158142,2|0,1:0|0:0,0:0:0:0:
360,120,13253,2,2,L|224:88,1,134.999995231628,10|2,1:0|1:0,1:0:0:0:
228,89,13721,1,0,0:0:0:0:
228,89,13878,1,0,1:0:0:0:
44,136,14190,6,2,L|16:288,2,134.999995231628,2|10|2,1:0|1:0|1:0,1:0:0:0:
256,192,15128,1,2,1:0:0:0:
44,136,15440,2,0,L|64:40,1,67.4999976158142,0|2,1:0|0:0,0:0:0:0:
104,188,15753,2,0,L|76:332,1,134.999995231628,10|0,1:0|1:0,0:0:0:0:
272,320,16378,5,2,1:0:0:0:
348,276,16690,1,0,1:0:0:0:
424,232,17003,1,10,1:0:0:0:
348,276,17315,1,2,1:0:0:0:
272,320,17628,2,2,P|196:344|112:264,1,202.499992847443,2|0,1:0|0:0,1:0:0:0:
43,218,18253,2,0,P|107:289|202:270,1,202.499992847443,2|0,0:0|0:0,0:0:0:0:
148,180,18878,5,8,1:0:0:0:
148,180,19034,1,0,3:0:0:0:
124,144,19112,1,0,3:0:0:0:
108,108,19190,2,0,P|88:76|84:32,1,67.4999976158142,2|0,3:0|1:0,0:0:0:0:
204,124,19503,2,0,P|224:156|228:200,2,67.4999976158142,8|0|0,1:0|0:0|1:0,0:0:0:0:
28,308,20128,5,12,1:0:0:0:
112,332,20284,1,0,0:0:0:0:
172,272,20440,2,0,L|256:300,1,67.4999976158142
312,244,20753,1,8,1:0:0:0:
396,276,20909,1,0,0:0:0:0:
424,192,21065,2,0,L|508:220,1,67.4999976158142,0|0,1:0|0:0,0:0:0:0:
428,64,21378,5,0,1:0:0:0:
428,64,21534,1,0,0:0:0:0:
352,32,21690,1,0,0:0:0:0:
352,32,21846,1,0,0:0:0:0:
280,84,22003,2,0,L|208:64,1,67.4999976158142,8|0,1:0|0:0,0:0:0:0:
40,24,22315,2,2,P|12:96|28:140,1,89.9999968210856,2|0,1:0|0:0,1:0:0:0:
20,112,22628,5,12,1:0:0:0:
180,132,22784,1,0,0:0:0:0:
104,268,22940,1,0,0:0:0:0:
220,212,23096,1,0,0:0:0:0:
60,192,23253,1,8,1:0:0:0:
140,52,23409,1,0,0:0:0:0:
344,80,23565,2,0,P|376:112|380:180,1,89.9999968210856,0|0,1:0|0:0,0:0:0:0:
380,164,23878,5,0,1:0:0:0:
472,196,24034,1,0,0:0:0:0:
480,104,24190,2,0,L|452:28,1,67.4999976158142
472,196,24503,2,0,L|500:272,2,67.4999976158142,8|0|0,1:0|0:0|0:0,0:0:0:0:
356,96,24971,5,0,0:0:0:0:
268,88,25128,1,4,1:0:0:0:
268,88,25284,2,0,L|164:72,1,67.4999976158142
108,180,25596,2,0,L|212:164,2,67.4999976158142,0|8|0,0:0|1:0|0:0,0:0:0:0:
304,272,26065,2,0,L|188:252,1,89.9999968210856
156,252,26378,6,0,P|144:300|152:336,1,67.4999976158142,0|0,1:0|0:0,0:0:0:0:
212,372,26690,1,0,0:0:0:0:
304,272,26846,2,0,P|352:284|388:276,1,67.4999976158142,0|8,0:0|1:0,0:0:0:0:
440,232,27159,1,0,0:0:0:0:
396,156,27315,1,0,0:0:0:0:
396,156,27393,1,2,0:0:0:0:
212,40,27628,6,0,P|172:40|136:60,1,67.4999976158142,4|0,1:0|0:0,0:0:0:0:
184,204,27940,2,0,P|196:172|194:139,1,67.4999976158142
72,108,28253,1,8,1:0:0:0:
296,80,28409,1,0,0:0:0:0:
296,80,28487,2,0,L|392:64,1,67.4999976158142
368,200,28799,5,0,0:0:0:0:
368,200,28878,1,0,1:0:0:0:
456,248,29034,1,0,0:0:0:0:
400,332,29190,1,0,0:0:0:0:
312,284,29346,1,0,0:0:0:0:
144,200,29503,1,8,1:0:0:0:
56,248,29659,1,0,0:0:0:0:
112,332,29815,1,0,0:0:0:0:
200,284,29971,1,0,0:0:0:0:
256,72,30128,6,0,L|336:56,1,67.4999976158142,4|0,1:0|0:0,0:0:0:0:
240,152,30440,2,0,L|160:136,1,67.4999976158142
324,172,30753,2,0,P|332:248|300:288,1,101.249996423721,8|0,1:0|0:0,0:0:0:0:
300,288,31065,1,0,0:0:0:0:
300,288,31221,1,0,0:0:0:0:
212,320,31378,2,0,P|224:356|264:384,1,67.4999976158142,0|0,1:0|0:0,0:0:0:0:
232,244,31690,2,0,P|220:208|180:180,1,67.4999976158142
116,160,32003,1,8,1:0:0:0:
116,248,32159,1,0,0:0:0:0:
244,132,32315,5,0,0:0:0:0:
244,132,32471,1,0,0:0:0:0:
296,68,32628,2,0,L|388:60,1,67.4999976158142,4|0,1:0|0:0,0:0:0:0:
392,160,32940,1,0,0:0:0:0:
392,160,33096,1,0,0:0:0:0:
444,96,33253,2,0,L|536:88,1,67.4999976158142,8|0,1:0|0:0,0:0:0:0:
484,248,33565,2,0,P|432:224|384:240,1,101.249996423721
391,234,33878,5,0,1:0:0:0:
316,280,34034,1,0,0:0:0:0:
272,204,34190,1,0,0:0:0:0:
348,160,34346,1,0,0:0:0:0:
124,76,34503,1,8,1:0:0:0:
199,30,34659,1,0,0:0:0:0:
243,106,34815,1,0,0:0:0:0:
167,150,34971,1,0,0:0:0:0:
64,332,35128,6,0,L|136:328,1,67.4999976158142,4|0,1:0|0:0,0:0:0:0:
220,320,35440,1,0,0:0:0:0:
92,252,35596,2,0,L|244:240,1,134.999995231628,2|0,0:0|0:0,0:0:0:0:
432,120,36221,2,0,L|297:130,1,134.999995231628,2|0,0:0|0:0,0:0:0:0:
208,140,36690,1,0,0:0:0:0:
208,140,36846,1,0,0:0:0:0:
124,120,37003,2,0,P|128:172|156:204,1,67.4999976158142,0|0,1:0|0:0,0:0:0:0:
196,312,37315,2,0,P|136:284|84:300,1,101.249996423721,2|0,0:0|0:0,0:0:0:0:
64,308,37628,5,6,1:0:0:0:
12,240,37784,1,0,0:0:0:0:
52,164,37940,1,0,0:0:0:0:
138,182,38096,2,0,P|198:174|246:110,1,134.999995231628,2|0,1:0|0:0,0:0:0:0:
244,120,38565,1,0,0:0:0:0:
208,260,38721,6,0,P|216:320|264:364,1,101.249996423721,2|0,1:0|0:0,0:0:0:0:
280,368,39034,1,0,0:0:0:0:
324,292,39190,1,0,0:0:0:0:
400,336,39346,1,0,0:0:0:0:
440,256,39503,2,0,L|376:136,1,134.999995231628,10|0,1:0|0:0,0:0:0:0:
232,32,39971,5,0,0:0:0:0:
168,92,40128,2,0,P|100:96|80:80,1,67.4999976158142,4|0,1:0|0:0,0:0:0:0:
28,120,40440,2,0,P|22:87|33:55,2,67.4999976158142,0|0|8,0:0|0:0|1:0,0:0:0:0:
84,188,40909,1,0,0:0:0:0:
72,304,41065,6,0,L|-4:316,1,67.4999976158142
188,352,41378,2,0,L|112:364,2,67.4999976158142,0|0|0,1:0|0:0|0:0,0:0:0:0:
276,340,41846,1,0,0:0:0:0:
364,324,42003,1,8,1:0:0:0:
276,340,42159,1,0,0:0:0:0:
300,176,42315,6,0,P|308:116|324:104,1,67.4999976158142
264,40,42628,2,0,P|293:24|326:29,1,67.4999976158142,4|0,1:0|0:0,0:0:0:0:
392,88,42940,1,0,0:0:0:0:
392,88,43096,1,0,0:0:0:0:
188,104,43253,2,0,L|112:112,1,67.4999976158142,8|0,1:0|0:0,0:0:0:0:
92,244,43565,5,0,0:0:0:0:
112,328,43721,1,0,0:0:0:0:
200,308,43878,2,0,P|204:364|188:392,1,67.4999976158142,0|0,1:0|0:0,0:0:0:0:
180,220,44112,1,0,0:0:0:0:
180,220,44190,2,0,P|176:164|192:136,1,67.4999976158142
228,80,44503,1,8,1:0:0:0:
232,273,44659,2,0,P|169:290|115:254,1,134.999995231628
52,176,45128,6,0,L|-28:196,1,67.4999976158142,4|0,1:0|0:0,0:0:0:0:
128,88,45440,2,0,L|48:108,1,67.4999976158142
216,140,45753,2,0,L|136:160,2,67.4999976158142,8|0|0,1:0|0:0|0:0,0:0:0:0:
256,64,46221,5,0,0:0:0:0:
256,64,46378,1,0,1:0:0:0:
196,216,46534,1,0,0:0:0:0:
196,216,46690,1,0,0:0:0:0:
360,172,46846,1,0,0:0:0:0:
256,64,47003,1,8,1:0:0:0:
364,176,47159,2,0,P|384:232|360:296,1,101.249996423721
344,304,47471,6,0,P|360:352|388:372,2,67.4999976158142,0|4|0,0:0|1:0|0:0,0:0:0:0:
308,224,47940,1,0,0:0:0:0:
256,352,48096,1,0,0:0:0:0:
204,224,48253,1,8,1:0:0:0:
168,304,48409,2,0,P|152:352|124:372,2,67.4999976158142
40,276,48878,6,0,L|116:316,1,67.4999976158142,0|0,1:0|0:0,0:0:0:0:
84,164,49112,1,0,0:0:0:0:
84,164,49190,2,0,L|109:246,1,67.4999976158142
192,100,49503,1,8,1:0:0:0:
176,188,49659,1,0,0:0:0:0:
176,188,50128,6,0,P|208:212|244:216,1,67.4999976158142,4|0,1:0|0:0,0:0:0:0:
288,284,50440,2,0,P|312:252|316:216,1,67.4999976158142
280,144,50753,1,8,1:0:0:0:
280,144,50909,1,0,0:0:0:0:
384,300,51065,1,0,0:0:0:0:
384,300,51221,1,0,0:0:0:0:
196,296,51378,6,0,P|192:336|204:376,1,67.4999976158142,0|0,1:0|0:0,0:0:0:0:
176,196,51690,2,0,P|136:192|96:204,1,67.4999976158142
8,140,52003,2,0,L|48:112,1,33.7499988079071,8|0,1:0|0:0,0:0:0:0:
40,48,52159,2,0,L|68:88,1,33.7499988079071
148,112,52315,2,0,L|80:112,1,67.4999976158142
96,188,52628,5,4,1:0:0:0:
56,268,52784,1,0,0:0:0:0:
20,348,52940,2,0,P|60:376|100:368,1,67.4999976158142
56,268,53253,5,8,1:0:0:0:
136,308,53409,1,0,0:0:0:0:
216,344,53565,2,0,P|244:304|236:264,1,67.4999976158142
136,308,53878,5,0,1:0:0:0:
176,228,54034,1,0,0:0:0:0:
196,188,54112,1,0,0:0:0:0:
212,148,54190,2,0,P|172:120|132:128,1,67.4999976158142
12,104,54503,2,0,P|52:132|92:124,1,67.4999976158142,8|0,1:0|0:0,0:0:0:0:
212,148,54815,2,2,P|204:99|154:120,1,118.124996954203,2|0,1:0|0:0,1:0:0:0:
264,200,55128,6,0,P|292:156|296:132,1,67.4999976158142,4|0,1:0|0:0,0:0:0:0:
284,56,55440,1,0,0:0:0:0:
364,92,55596,1,0,0:0:0:0:
296,261,55753,2,0,P|226:259|193:210,1,134.999995231628,8|0,1:0|0:0,0:0:0:0:
104,328,56221,6,0,L|160:288,1,67.4999976158142,0|0,0:0|1:0,0:0:0:0:
264,200,56534,2,0,L|224:144,1,67.4999976158142
144,36,56846,1,0,0:0:0:0:
28,108,57003,1,8,1:0:0:0:
28,108,57471,6,0,P|24:160|36:184,1,67.4999976158142,0|4,0:0|1:0,0:0:0:0:
88,304,57784,2,0,P|92:252|80:228,2,67.4999976158142
4,276,58253,1,8,1:0:0:0:
176,244,58409,5,0,0:0:0:0:
228,172,58565,1,0,0:0:0:0:
304,216,58721,1,0,0:0:0:0:
256,292,58878,1,0,1:0:0:0:
148,136,59034,5,0,0:0:0:0:
148,136,59112,1,0,0:0:0:0:
148,136,59190,2,0,P|184:80|208:76,1,67.4999976158142
380,16,59503,2,0,P|324:64|264:68,1,134.999995231628,8|0,1:0|0:0,0:0:0:0:
72,296,60128,6,0,L|228:272,1,134.999995231628,6|0,1:0|0:0,0:0:0:0:
440,176,60596,1,0,0:0:0:0:
440,176,60753,2,0,L|284:200,1,134.999995231628,6|0,1:0|0:0,0:0:0:0:
80,296,61221,1,0,0:0:0:0:
80,296,61378,6,0,L|64:228,1,67.4999976158142,4|0,1:0|0:0,0:0:0:0:
0,144,61690,2,0,L|65:128,1,67.4999976158142,2|0,1:0|0:0,0:0:0:0:
140,48,62003,2,0,L|155:113,1,67.4999976158142,10|0,1:0|0:0,0:0:0:0:
248,204,62315,2,0,L|182:219,1,67.4999976158142,2|0,1:0|0:0,0:0:0:0:
328,112,62628,6,0,P|368:168|364:248,1,134.999995231628,6|0,1:0|0:0,0:0:0:0:
369,232,63096,1,0,0:0:0:0:
256,88,63253,2,0,P|290:46|348:44,1,67.4999976158142,8|0,1:0|0:0,0:0:0:0:
448,153,63565,2,0,P|381:151|328:112,1,134.999995231628,0|0,0:0|1:0,0:0:0:0:
120,36,64034,5,0,0:0:0:0:
80,48,64112,1,0,0:0:0:0:
36,60,64190,2,0,L|24:136,1,67.4999976158142,2|0,1:0|0:0,0:0:0:0:
8,272,64503,2,0,L|84:284,1,67.4999976158142,10|0,1:0|0:0,0:0:0:0:
220,304,64815,2,0,L|232:228,1,67.4999976158142,2|0,1:0|0:0,0:0:0:0:
208,32,65128,6,0,P|257:72|304:32,2,134.999995231628,6|0|8,1:0|0:0|1:0,0:0:0:0:
372,288,66065,2,0,L|304:268,1,67.4999976158142
140,288,66378,2,0,L|208:268,1,67.4999976158142,0|0,1:0|0:0,0:0:0:0:
303,32,66690,2,2,P|255:72|208:32,2,134.999995231628,2|10|2,1:0|1:0|1:0,1:0:0:0:
124,136,67628,6,0,P|176:192|240:184,1,134.999995231628,6|0,1:0|0:0,0:0:0:0:
396,300,68253,2,0,P|344:244|280:252,2,134.999995231628,8|0|2,1:0|0:0|1:0,0:0:0:0:
492,144,69034,5,0,0:0:0:0:
451,123,69112,1,0,0:0:0:0:
410,103,69191,2,0,L|348:75,1,67.4999976158142,2|0,0:0|0:0,0:0:0:0:
165,107,69503,2,0,L|284:172,1,134.999995231628,8|2,1:0|1:0,0:0:0:0:
460,304,70128,6,0,P|452:236|504:180,1,134.999995231628,6|0,1:0|0:0,0:0:0:0:
507,369,70596,1,0,0:0:0:0:
507,369,70753,2,0,P|441:377|389:338,1,134.999995231628,10|0,1:0|0:0,0:0:0:0:
340,264,71221,1,0,0:0:0:0:
196,328,71378,6,0,L|272:308,1,67.4999976158142,2|0,1:0|0:0,0:0:0:0:
96,244,71690,2,0,L|161:261,1,67.4999976158142,2|0,1:0|0:0,0:0:0:0:
108,92,72003,2,0,L|125:157,1,67.4999976158142,10|0,1:0|0:0,0:0:0:0:
220,8,72315,2,0,L|202:73,1,67.4999976158142,2|0,1:0|0:0,0:0:0:0:
312,240,72628,6,0,L|360:104,1,134.999995231628,6|0,1:0|0:0,0:0:0:0:
396,300,73096,1,0,0:0:0:0:
396,300,73253,2,0,L|420:232,1,67.4999976158142,10|0,1:0|0:0,0:0:0:0:
308,328,73565,2,0,P|252:344|184:300,1,134.999995231628,2|0,1:0|1:0,0:0:0:0:
84,188,74034,1,2,0:0:0:0:
120,156,74112,1,0,0:0:0:0:
156,124,74190,6,0,P|152:84|132:64,1,67.4999976158142,2|0,1:0|0:0,0:0:0:0:
188,204,74503,2,0,P|213:225|246:225,1,67.4999976158142,10|0,1:0|0:0,0:0:0:0:
84,188,74815,2,0,P|62:213|62:246,1,67.4999976158142,2|0,1:0|0:0,0:0:0:0:
240,356,75128,6,0,L|376:348,1,134.999995231628,6|0,1:0|0:0,0:0:0:0:
272,28,75753,2,0,L|136:36,1,134.999995231628,10|0,1:0|0:0,0:0:0:0:
44,40,76221,1,0,0:0:0:0:
108,144,76378,1,0,1:0:0:0:
44,40,76534,1,0,0:0:0:0:
105,252,76690,6,0,P|182:242|214:198,2,134.999995231628,2|10|2,1:0|1:0|1:0,0:0:0:0:
184,40,77628,6,0,L|324:28,1,134.999995231628,6|0,1:0|0:0,0:0:0:0:
96,180,78253,2,0,L|236:168,2,134.999995231628,10|0|2,1:0|0:0|1:0,0:0:0:0:
360,292,79034,1,0,0:0:0:0:
312,296,79112,1,0,0:0:0:0:
264,300,79191,6,0,L|176:308,1,67.4999976158142,2|0,1:0|0:0,0:0:0:0:
304,222,79503,2,0,L|371:215,1,67.4999976158142,10|0,1:0|0:0,0:0:0:0:
244,168,79815,2,0,L|156:176,1,67.4999976158142,2|0,1:0|0:0,0:0:0:0:
164,78,80128,6,0,B|98:59|51:89|31:142|52:216|121:272|162:305|225:330|225:330|275:293|321:251|377:182|381:105|351:58|298:38|239:70,1,809.999971389771,4|0,1:0|1:0,0:0:0:0:
206,171,82315,5,0,0:0:0:0:
152,272,82628,2,0,B|186:282|215:261|215:261|250:272|279:251,1,134.999995231628,2|0,1:0|0:0,0:0:0:0:
161,303,83253,2,0,B|197:304|220:276|220:276|256:278|279:250,1,134.999995231628,10|0,1:0|0:0,0:0:0:0:
182,338,83878,2,0,B|216:328|230:294|230:294|264:285|278:251,1,134.999995231628,2|0,1:0|0:0,0:0:0:0:
239,70,84503,5,2,1:0:0:0:
239,70,84815,5,2,1:0:0:0:
239,70,85128,6,0,B|262:221|262:221|142:106|142:106|309:144|309:144|151:196|151:196|239:70|239:70,1,809.999971389771,2|0,1:0|1:0,0:0:0:0:
238,70,87315,5,0,1:0:0:0:
408,196,87628,6,0,P|385:271|336:301,1,134.999995231628,2|0,1:0|0:0,0:0:0:0:
341,89,88253,2,0,P|393:129|408:194,1,134.999995231628,10|0,1:0|0:0,0:0:0:0:
236,157,88878,2,0,P|276:104|341:89,1,134.999995231628,2|0,1:0|0:0,0:0:0:0:
428,308,89503,6,0,B|405:330|361:328|326:299|323:268|323:268|300:289|255:287|220:259|217:227,1,269.999990463257,2|2,1:0|1:0,0:0:0:0:
88,296,90440,1,2,0:0:0:0:
88,296,90753,2,0,B|112:317|156:315|191:286|194:255|194:255|217:276|262:274|297:246|300:214,1,269.999990463257,10|2,1:0|1:0,0:0:0:0:
300,213,91690,1,2,0:0:0:0:
428,128,92003,6,0,P|452:200|432:260,1,134.999995231628,8|2,1:0|1:0,0:0:0:0:
344,36,92628,2,0,P|320:108|340:168,1,134.999995231628,2|0,1:0|0:0,0:0:0:0:
337,162,93253,1,2,1:0:0:0:
337,162,93565,1,2,1:0:0:0:
84,128,93878,6,0,P|72:168|88:216,1,67.4999976158142,2|0,1:0|3:0,0:0:0:0:
92,236,94112,1,2,0:0:0:0:
92,236,94190,1,0,0:0:0:0:
168,36,94346,1,0,0:0:0:0:
168,36,94503,2,0,P|192:108|172:168,1,134.999995231628,10|2,1:0|1:0,0:0:0:0:
160,320,95128,6,0,P|256:368|368:320,1,202.499992847443,2|0,1:0|0:0,0:0:0:0:
344,344,95753,2,0,L|482:224,1,134.999995231628,10|2,1:0|1:0,0:0:0:0:
352,64,96378,2,0,P|256:16|144:64,1,202.499992847443,2|0,1:0|0:0,0:0:0:0:
168,40,97003,2,0,L|31:159,1,134.999995231628,10|2,1:0|1:0,0:0:0:0:
188,272,97628,6,0,P|268:280|312:248,1,134.999995231628,2|2,1:0|1:0,0:0:0:0:
128,296,98253,6,0,P|208:304|252:272,1,134.999995231628,2|2,1:0|1:0,0:0:0:0:
68,320,98878,6,0,P|148:328|192:296,1,134.999995231628,2|2,1:0|1:0,0:0:0:0:
4,340,99503,6,0,P|84:348|128:316,1,134.999995231628,2|0,1:0|0:0,0:0:0:0:
256,192,100128,12,6,102628,1:0:0:0:
72,208,102940,5,0,0:0:0:0:
108,120,103096,1,0,0:0:0:0:
72,208,103253,2,0,L|228:184,1,134.999995231628,10|0,1:0|0:0,0:0:0:0:
300,172,103721,1,0,0:0:0:0:
404,360,103878,6,0,P|336:280|332:228,1,134.999995231628,2|2,1:0|1:0,0:0:0:0:
88,340,104346,1,0,0:0:0:0:
88,340,104503,2,0,P|168:272|220:268,1,134.999995231628,10|2,1:0|1:0,0:0:0:0:
452,56,105128,6,0,P|392:80|328:40,1,134.999995231628,6|0,1:0|0:0,0:0:0:0:
180,76,105596,2,0,L|268:56,1,67.4999976158142,0|10,0:0|1:0,0:0:0:0:
100,36,105909,1,0,0:0:0:0:
48,116,106065,1,0,0:0:0:0:
132,160,106221,1,0,0:0:0:0:
120,320,106378,6,0,P|173:317|208:294,1,67.4999976158142,2|0,1:0|0:0,0:0:0:0:
198,306,106612,1,0,0:0:0:0:
207,299,106690,1,0,0:0:0:0:
276,236,106846,1,0,0:0:0:0:
452,314,107003,2,0,P|388:334|326:311,1,134.999995231628,10|2,1:0|1:0,0:0:0:0:
276,236,107471,1,0,0:0:0:0:
208,52,107628,6,0,L|68:72,1,134.999995231628,6|0,1:0|0:0,0:0:0:0:
304,112,108096,1,0,0:0:0:0:
304,112,108253,2,0,L|444:92,1,134.999995231628,10|0,1:0|0:0,0:0:0:0:
508,32,108721,1,0,0:0:0:0:
344,320,108878,5,2,1:0:0:0:
420,276,109190,1,2,1:0:0:0:
496,232,109503,1,10,1:0:0:0:
420,276,109815,1,2,1:0:0:0:
344,320,110128,6,0,P|292:344|216:316,1,134.999995231628,6|0,1:0|0:0,0:0:0:0:
24,260,110596,1,0,0:0:0:0:
24,260,110753,2,0,P|76:236|152:264,1,134.999995231628,10|0,1:0|0:0,0:0:0:0:
128,352,111221,1,0,0:0:0:0:
232,224,111378,5,2,1:0:0:0:
232,224,111534,1,0,0:0:0:0:
264,192,111612,1,0,0:0:0:0:
296,160,111690,2,0,L|380:148,1,67.4999976158142,2|0,1:0|0:0,0:0:0:0:
188,72,112003,2,0,L|254:81,1,67.4999976158142,2|0,1:0|0:0,0:0:0:0:
120,152,112315,1,2,1:0:0:0:
120,152,112628,6,0,P|104:228|132:304,1,134.999995231628,4|0,1:0|0:0,0:0:0:0:
392,232,113096,1,0,0:0:0:0:
392,232,113253,2,0,P|408:156|380:80,1,134.999995231628,8|0,1:0|0:0,0:0:0:0:
256,32,113721,1,0,0:0:0:0:
208,148,113878,6,0,L|296:128,1,67.4999976158142,2|0,1:0|0:0,0:0:0:0:
122,95,114190,2,0,L|107:29,1,67.4999976158142,2|0,1:0|0:0,0:0:0:0:
68,176,114503,2,0,L|2:190,1,67.4999976158142,10|0,1:0|0:0,0:0:0:0:
152,236,114815,2,0,L|166:301,1,67.4999976158142,2|0,1:0|0:0,0:0:0:0:
364,336,115128,6,0,P|404:352|496:332,1,134.999995231628,6|0,1:0|0:0,0:0:0:0:
348,120,115596,1,0,0:0:0:0:
348,120,115753,2,0,P|308:104|216:124,1,134.999995231628,10|0,1:0|0:0,0:0:0:0:
140,172,116221,1,0,0:0:0:0:
40,296,116378,5,0,1:0:0:0:
120,344,116534,1,0,0:0:0:0:
120,344,116612,1,0,0:0:0:0:
120,344,116690,2,0,P|180:360|212:348,1,67.4999976158142,2|0,1:0|0:0,0:0:0:0:
336,296,117003,2,0,P|276:280|244:292,1,67.4999976158142,10|0,1:0|0:0,0:0:0:0:
120,344,117315,2,0,P|180:360|212:348,1,67.4999976158142,2|0,1:0|0:0,0:0:0:0:
336,296,117628,6,0,L|380:168,1,134.999995231628,2|0,1:0|0:0,0:0:0:0:
176,296,118096,1,0,0:0:0:0:
176,296,118253,2,0,L|132:168,1,134.999995231628,8|0,1:0|0:0,0:0:0:0:
96,80,118721,2,0,P|64:64|32:68,2,67.4999976158142,0|2|0,0:0|1:0|0:0,0:0:0:0:
228,208,119190,2,0,P|280:224|360:188,2,134.999995231628,2|10|2,1:0|1:0|1:0,0:0:0:0:
464,68,120128,6,0,P|496:188|488:200,1,134.999995231628,6|0,1:0|0:0,0:0:0:0:
320,340,120753,2,0,P|440:308|452:316,2,134.999995231628,10|0|2,1:0|0:0|1:0,0:0:0:0:
336,200,121534,1,0,0:0:0:0:
336,200,121690,1,2,0:0:0:0:
336,200,122003,1,2,0:0:0:0:
336,200,122315,1,0,0:0:0:0:
56,280,122628,6,0,P|-1:195|15:71,1,202.500000572205,6|0,1:0|0:0,0:0:0:0:
127,159,123096,1,0,0:0:0:0:
308,105,123253,2,0,P|208:102|126:158,1,202.500000572205,10|0,1:0|0:0,0:0:0:0:
244,236,123721,1,0,0:0:0:0:
288,40,123878,2,0,P|184:48|100:96,1,202.500000572205,2|2,1:0|1:0,0:0:0:0:
244,236,124346,1,0,0:0:0:0:
369,350,124503,2,0,P|338:258|244:236,1,202.500000572205,10|2,1:0|1:0,0:0:0:0:
296,56,125128,6,0,B|332:92|356:140|356:140|364:76|388:40,1,202.500000572205,6|0,1:0|1:0,0:0:0:0:
496,224,125596,1,0,0:0:0:0:
496,224,125753,2,0,B|460:188|436:140|436:140|428:204|404:240,2,202.500000572205,10|0|0,1:0|0:0|1:0,0:0:0:0:
360,312,126534,1,0,0:0:0:0:
328,308,126612,1,0,0:0:0:0:
292,304,126690,2,0,L|392:348,1,101.250000286102,2|0,1:0|0:0,0:0:0:0:
205,294,127003,6,0,B|206:257|180:198|180:198|226:227|275:239,1,202.500000572205,2|2,1:0|1:0,0:0:0:0:
208,52,127628,6,0,B|52:76|52:76|92:76|112:108,1,202.500000572205,6|0,1:0|0:0,0:0:0:0:
304,112,128096,1,0,0:0:0:0:
304,112,128253,2,0,B|460:88|460:88|420:88|400:56,1,202.500000572205,10|0,1:0|0:0,0:0:0:0:
460,12,128721,1,0,0:0:0:0:
398,221,128878,6,0,P|338:233|294:205,1,101.250000286102,2|0,1:0|0:0,0:0:0:0:
114,163,129190,2,0,P|174:151|218:179,1,101.250000286102,2|0,1:0|0:0,0:0:0:0:
398,221,129503,2,0,P|338:233|294:205,2,101.250000286102,8|0|2,1:0|0:0|1:0,0:0:0:0:
217,349,130128,6,0,P|259:296|265:381,1,202.500000572205,6|0,1:0|0:0,0:0:0:0:
160,168,130596,1,0,0:0:0:0:
160,168,130753,2,0,P|118:221|112:136,1,202.500000572205,10|0,1:0|0:0,0:0:0:0:
109,136,131221,1,0,0:0:0:0:
256,56,131378,5,2,1:0:0:0:
396,36,131534,1,0,0:0:0:0:
396,36,131612,1,0,0:0:0:0:
396,36,131690,2,0,P|436:88|436:128,1,101.250000286102,2|0,1:0|0:0,0:0:0:0:
472,312,132003,2,0,P|432:260|432:220,2,101.250000286102,10|0|2,1:0|0:0|1:0,0:0:0:0:
268,168,132628,6,0,L|200:176,1,67.4999976158142,0|0,1:0|1:0,0:0:0:0:
200,175,133096,1,0,0:0:0:0:
168,256,133253,2,0,L|100:264,1,67.4999976158142,8|0,1:0|1:0,0:0:0:0:
100,263,133721,1,0,0:0:0:0:
40,128,133878,2,0,B|44:104|24:80|32:60,3,67.4999976158142,0|0|8|0,1:0|1:0|1:0|1:0,0:0:0:0:
28,260,135128,6,0,P|32:296|60:328,1,67.4999976158142,0|0,1:0|0:0,0:0:0:0:
120,344,135596,1,0,1:0:0:0:
176,300,135753,2,0,L|224:292,2,33.7499988079071,8|0|0,1:0|0:0|1:0,0:0:0:0:
108,280,136221,1,0,0:0:0:0:
92,204,136378,6,0,L|48:196,1,33.7499988079071,0|0,1:0|0:0,0:0:0:0:
36,192,136612,1,0,0:0:0:0:
36,192,136690,1,0,1:0:0:0:
24,120,136846,1,0,0:0:0:0:
16,56,137003,1,8,1:0:0:0:
196,172,137628,6,0,P|232:196|264:192,2,67.4999976158142,0|0|8,1:0|1:0|1:0,0:0:0:0:
168,104,138565,1,0,1:0:0:0:
168,104,138721,1,0,0:0:0:0:
108,156,138878,1,0,1:0:0:0:
108,156,139034,1,0,0:0:0:0:
44,200,139190,2,0,L|48:268,2,67.4999976158142,0|8|0,1:0|1:0|1:0,0:0:0:0:
140,316,140128,6,0,L|136:244,3,67.4999976158142,0|0|8|0,1:0|0:0|1:0|1:0,0:0:0:0:
172,168,141378,1,0,1:0:0:0:
232,132,141534,1,0,0:0:0:0:
292,96,141690,5,2,0:0:0:0:
296,240,142003,1,2,0:0:0:0:
172,168,142315,1,2,0:0:0:0:
