osu file format v14

[General]
AudioFilename: audio.mp3
AudioLeadIn: 0
PreviewTime: 60049
Countdown: 1
SampleSet: Soft
StackLeniency: 0.7
Mode: 0
LetterboxInBreaks: 0
WidescreenStoryboard: 1

[Editor]
DistanceSpacing: 0.8
BeatDivisor: 4
GridSize: 4
TimelineZoom: 0.9999999

[Metadata]
Title:Libera La Mare
TitleUnicode:Libera La Mare
Artist:Andre
ArtistUnicode:Andre
Creator:Tony
Version:Cornie
Source:
Tags:
BeatmapID:1488740
BeatmapSetID:689798

[Difficulty]
HPDrainRate:1
CircleSize:3
OverallDifficulty:0
ApproachRate:3
SliderMultiplier:1.69999990463257
SliderTickRate:2

[Events]
//Background and Video events
0,0,"bg.jpg",0,0
//Break Periods
//Storyboard Layer 0 (Background)
//Storyboard Layer 1 (Fail)
//Storyboard Layer 2 (Pass)
//Storyboard Layer 3 (Foreground)
//Storyboard Sound Samples

[TimingPoints]
128,625,4,2,0,55,1,0
17628,-100,4,2,0,40,0,0
20128,-100,4,2,0,55,0,0

[Colours]
Combo1 : 214,190,56
Combo2 : 202,102,53
Combo3 : 41,154,78
Combo4 : 138,77,138

[HitObjects]
384,124,10128,6,0,P|412:204|380:308,2,169.999990463257,2|2|0,0:0|0:0|0:0,0:0:0:0:
256,84,12003,1,0,0:0:0:0:
128,124,12628,2,0,P|100:204|132:308,2,169.999990463257,2|2|0,0:0|0:0|0:0,0:0:0:0:
380,232,15128,5,2,0:0:0:0:
256,284,15753,1,2,0:0:0:0:
132,232,16378,1,0,0:0:0:0:
72,32,17628,6,2,P|256:180|440:32,1,509.999971389771,0|2,1:0|1:0,1:0:0:0:
504,152,20128,5,4,1:0:0:0:
412,252,20753,1,8,0:0:0:0:
308,340,21378,2,0,L|132:356,1,169.999990463257,0|8,1:0|0:0,0:0:0:0:
56,248,22628,5,4,1:0:0:0:
148,148,23253,1,8,0:0:0:0:
252,60,23878,2,0,L|428:44,1,169.999990463257,0|8,1:0|0:0,0:0:0:0:
404,180,25128,6,0,P|408:256|460:348,2,169.999990463257,4|8|0,1:0|0:0|1:0,0:0:0:0:
421,44,27003,1,8,0:0:0:0:
288,64,27628,6,0,L|100:52,1,169.999990463257,4|8,1:0|0:0,0:0:0:0:
116,188,28878,2,0,L|285:198,1,169.999990463257,0|8,1:0|0:0,0:0:0:0:
420,212,30128,5,4,1:0:0:0:
476,88,30753,2,0,P|424:52|136:48,1,339.999980926514,8|8,0:0|0:0,0:0:0:0:
172,172,32628,5,4,1:0:0:0:
116,296,33253,2,0,P|168:332|456:336,1,339.999980926514,8|8,0:0|0:0,0:0:0:0:
420,212,35128,5,4,1:0:0:0:
452,80,35753,1,8,0:0:0:0:
320,44,36378,1,0,1:0:0:0:
284,176,37003,1,8,0:0:0:0:
176,92,37628,6,0,P|108:152|244:300,1,339.999980926514,4|0,1:0|1:0,0:0:0:0:
284,176,39503,1,8,0:0:0:0:
400,244,40128,6,0,P|413:161|378:85,2,169.999990463257,4|8|0,1:0|0:0|1:0,0:0:0:0:
284,176,42003,1,8,0:0:0:0:
160,120,42628,6,0,P|146:202|181:278,2,169.999990463257,4|8|0,1:0|0:0|1:0,0:0:0:0:
264,36,44503,1,8,0:0:0:0:
320,160,45128,6,0,P|376:208|468:204,1,169.999990463257,4|8,1:0|0:0,0:0:0:0:
412,79,46378,2,0,P|356:31|264:35,1,169.999990463257,0|8,1:0|0:0,0:0:0:0:
144,100,47628,5,4,1:0:0:0:
76,220,48253,1,8,0:0:0:0:
212,220,48878,2,0,L|384:220,1,169.999990463257,0|8,1:0|0:0,0:0:0:0:
436,96,50128,6,0,L|92:96,1,339.999980926514,4|0,1:0|1:0,0:0:0:0:
0,192,52003,1,8,0:0:0:0:
84,300,52628,6,0,L|428:300,1,339.999980926514,4|0,1:0|1:0,0:0:0:0:
512,192,54503,1,8,0:0:0:0:
452,68,55128,6,0,P|376:36|304:84,1,169.999990463257,4|8,1:0|0:0,0:0:0:0:
240,196,56378,1,0,1:0:0:0:
116,140,57003,1,8,0:0:0:0:
176,264,57628,6,0,P|252:296|324:248,1,169.999990463257,4|8,1:0|0:0,0:0:0:0:
388,136,58878,1,0,1:0:0:0:
512,192,59503,1,8,0:0:0:0:
400,268,60128,6,0,P|344:324|236:304,2,169.999990463257,6|8|0,1:0|1:0|1:0,0:0:0:0:
292,184,62003,1,8,1:0:0:0:
180,108,62628,6,0,P|236:52|344:72,2,169.999990463257,6|8|0,1:0|1:0|1:0,0:0:0:0:
292,184,64503,1,8,1:0:0:0:
176,256,65128,6,0,B|104:288|104:288|60:272|4:284,1,169.999990463257,6|8,1:0|1:0,0:0:0:0:
8,144,66378,2,0,B|53:133|97:149|97:149|169:117,1,169.999990463257,0|8,1:0|1:0,0:0:0:0:
256,16,67628,5,6,1:0:0:0:
372,84,68253,1,8,1:0:0:0:
324,212,68878,1,0,1:0:0:0:
188,212,69503,1,8,1:0:0:0:
140,84,70128,6,0,P|76:80|0:152,2,169.999990463257,6|8|0,1:0|1:0|1:0,0:0:0:0:
112,216,72003,1,8,1:0:0:0:
80,348,72628,6,0,P|144:352|220:280,2,169.999990463257,6|8|0,1:0|1:0|1:0,0:0:0:0:
112,216,74503,1,8,1:0:0:0:
24,112,75128,5,6,1:0:0:0:
160,92,75753,2,0,L|344:68,1,169.999990463257,8|0,1:0|1:0,0:0:0:0:
464,52,77003,1,8,1:0:0:0:
408,176,77628,5,6,1:0:0:0:
336,292,78253,1,8,1:0:0:0:
236,200,78878,2,0,P|156:180|52:208,1,169.999990463257,0|8,1:0|1:0,0:0:0:0:
8,80,80128,6,0,P|100:60|352:112,1,339.999980926514,4|0,1:0|1:0,0:0:0:0:
444,192,82003,1,8,1:0:0:0:
336,276,82628,2,0,P|244:296|-8:244,1,339.999980926514,0|0,1:0|1:0,0:0:0:0:
100,152,84503,6,0,P|180:172|284:144,1,169.999990463257,8|4,1:0|1:0,0:0:0:0:
356,52,85753,2,0,P|276:32|172:60,1,169.999990463257,8|0,1:0|1:0,0:0:0:0:
100,152,87003,1,8,1:0:0:0:
188,256,87628,5,4,1:0:0:0:
188,256,88253,1,8,1:0:0:0:
188,256,88878,1,0,1:0:0:0:
324,256,89503,6,0,P|372:196|352:104,1,169.999990463257,8|4,1:0|1:0,0:0:0:0:
260,16,90753,2,0,P|212:76|232:168,1,169.999990463257,8|0,1:0|1:0,0:0:0:0:
336,248,92003,1,8,1:0:0:0:
216,312,92628,6,0,L|16:316,1,169.999990463257,4|8,1:0|1:0,0:0:0:0:
12,184,93878,1,0,1:0:0:0:
12,184,94503,1,8,1:0:0:0:
76,64,95128,6,0,L|420:56,1,339.999980926514,4|0,1:0|1:0,0:0:0:0:
508,156,97003,1,8,1:0:0:0:
440,272,97628,5,2,1:0:0:0:
440,272,98253,1,2,1:0:0:0:
308,308,98878,1,2,1:0:0:0:
308,308,99503,1,2,1:0:0:0:
256,192,100128,12,6,102628,1:0:0:0:
256,64,103878,5,0,1:0:0:0:
100,288,105128,6,0,P|256:348|412:288,1,339.999980926514,6|0,1:0|1:0,0:0:0:0:
256,68,107628,5,6,1:0:0:0:
148,152,108253,1,8,1:0:0:0:
188,280,108878,1,0,1:0:0:0:
324,280,109503,1,8,1:0:0:0:
364,152,110128,6,0,P|421:149|512:220,3,169.999990463257,6|8|0|8,1:0|1:0|1:0|1:0,0:0:0:0:
392,284,112628,6,0,L|40:296,1,339.999980926514,6|0,1:0|1:0,0:0:0:0:
144,40,115128,2,0,L|496:28,1,339.999980926514,6|0,1:0|1:0,0:0:0:0:
444,296,117628,5,6,1:0:0:0:
384,176,118253,1,8,1:0:0:0:
256,128,118878,1,0,1:0:0:0:
128,176,119503,1,8,1:0:0:0:
68,296,120128,6,0,P|108:332|220:328,2,169.999990463257,6|8|0,1:0|1:0|1:0,0:0:0:0:
260,100,122628,6,0,P|220:64|108:68,2,169.999990463257,6|8|0,1:0|1:0|1:0,0:0:0:0:
332,216,124503,1,8,1:0:0:0:
220,292,125128,6,0,P|138:305|69:259,2,169.999990463257,6|8|0,1:0|1:0|1:0,0:0:0:0:
332,216,127003,1,8,1:0:0:0:
356,84,127628,5,6,1:0:0:0:
488,112,128253,1,8,1:0:0:0:
464,244,128878,1,0,1:0:0:0:
332,216,129503,1,8,1:0:0:0:
356,84,130128,5,6,1:0:0:0:
224,52,130753,1,8,1:0:0:0:
196,184,131378,1,0,1:0:0:0:
332,216,132003,1,8,1:0:0:0:
452,156,132628,6,0,P|444:288|264:356,1,339.999980926514,2|0,1:0|1:0,0:0:0:0:
308,88,135128,6,0,P|232:128|188:208,2,169.999990463257,2|8|0,1:0|1:0|1:0,0:0:0:0:
48,160,137628,6,0,P|56:292|236:360,1,339.999980926514,2|0,1:0|1:0,0:0:0:0:
200,92,140128,6,0,P|276:132|320:212,1,169.999990463257,2|8,1:0|1:0,0:0:0:0:
184,224,141378,1,0,1:0:0:0:
