osu file format v14

[General]
AudioFilename: audio.mp3
AudioLeadIn: 0
PreviewTime: 55735
Countdown: 0
SampleSet: Normal
StackLeniency: 0.7
Mode: 1
LetterboxInBreaks: 0
WidescreenStoryboard: 1

[Editor]
Bookmarks: 544,14558,28573,49595,56602,70616,84631
DistanceSpacing: 2
BeatDivisor: 4
GridSize: 32
TimelineZoom: 2

[Metadata]
Title:Shougeki (Cut Ver.)
TitleUnicode:衝撃 (Cut Ver.)
Artist:Andou Yuuko
ArtistUnicode:安藤裕子
Creator:tadahitotsu
Version:muzukashii
Source:進撃の巨人
Tags:j-pop shock shingeki no kyojin attack on titan final season ending ed japanese pop jpop anime faputa jaltzu realy0_ reealy_ kanpakyin
BeatmapID:2836834
BeatmapSetID:1372166

[Difficulty]
HPDrainRate:6
CircleSize:2
OverallDifficulty:4
ApproachRate:10
SliderMultiplier:1.4
SliderTickRate:1

[Events]
//Background and Video events
0,0,"landscape-swamp-grey-man-wallpaper.jpg",0,0
//Break Periods
//Storyboard Layer 0 (Background)
//Storyboard Layer 1 (Fail)
//Storyboard Layer 2 (Pass)
//Storyboard Layer 3 (Foreground)
//Storyboard Layer 4 (Overlay)
//Storyboard Sound Samples

[TimingPoints]
553,437.956204379562,4,1,0,50,1,0
14567,-95.2380952380952,4,1,0,60,0,0
28582,-90.9090909090909,4,1,0,65,0,0
42596,-86.9565217391304,4,1,0,65,0,0
49166,-95.2380952380952,4,1,0,65,0,0
49604,-95.2380952380952,4,1,0,50,0,0
50042,-95.2380952380952,4,1,0,50,0,0
55735,-90.9090909090909,4,1,0,60,0,0
56611,-83.3333333333333,4,1,0,80,0,1
63588,-76.9230769230769,4,1,0,80,0,1
70625,-76.9230769230769,4,1,0,55,0,0
71036,-100,4,1,0,30,0,0

[HitObjects]
256,192,553,5,0,0:0:0:0:
256,192,2304,1,0,0:0:0:0:
256,192,4056,1,8,0:0:0:0:
256,192,5808,1,8,0:0:0:0:
256,192,7560,1,0,0:0:0:0:
256,192,9312,1,0,0:0:0:0:
256,192,11063,1,8,0:0:0:0:
256,192,12815,1,8,0:0:0:0:
156,174,14567,1,0,0:0:0:0:
306,146,15443,1,0,0:0:0:0:
306,146,15881,1,0,0:0:0:0:
306,146,16319,1,8,0:0:0:0:
246,125,16757,1,0,0:0:0:0:
246,125,17195,1,0,0:0:0:0:
260,175,17414,1,0,0:0:0:0:
246,125,17633,1,8,0:0:0:0:
246,125,18071,1,8,0:0:0:0:
166,188,18728,1,0,0:0:0:0:
166,188,18947,1,8,0:0:0:0:
188,175,19604,1,8,0:0:0:0:
397,144,19823,1,0,0:0:0:0:
258,142,20698,1,0,0:0:0:0:
302,282,20917,1,0,0:0:0:0:
258,142,21136,1,8,0:0:0:0:
258,142,21574,1,8,0:0:0:0:
189,135,22012,1,0,0:0:0:0:
189,135,22450,1,0,0:0:0:0:
189,135,22888,1,8,0:0:0:0:
332,208,23107,1,0,0:0:0:0:
234,110,23326,1,8,0:0:0:0:
276,95,24640,1,0,0:0:0:0:
302,125,25078,1,8,0:0:0:0:
141,126,25735,1,0,0:0:0:0:
141,126,25954,1,8,0:0:0:0:
243,152,26611,1,8,0:0:0:0:
264,182,26830,1,8,0:0:0:0:
270,144,27706,1,0,0:0:0:0:
270,144,27925,1,0,0:0:0:0:
168,193,28144,1,0,0:0:0:0:
333,197,28582,1,8,0:0:0:0:
42,163,29020,1,0,0:0:0:0:
42,163,29239,1,0,0:0:0:0:
42,163,29458,1,8,0:0:0:0:
251,202,29896,1,0,0:0:0:0:
148,167,30334,1,8,0:0:0:0:
296,117,30771,1,0,0:0:0:0:
296,117,30990,1,0,0:0:0:0:
296,117,31209,1,8,0:0:0:0:
146,180,31647,1,0,0:0:0:0:
254,176,32085,1,8,0:0:0:0:
345,184,32523,1,0,0:0:0:0:
345,184,32742,1,0,0:0:0:0:
345,184,32961,1,8,0:0:0:0:
345,184,33399,1,0,0:0:0:0:
345,184,33837,1,8,0:0:0:0:
301,160,34494,1,8,0:0:0:0:
301,160,34932,1,0,0:0:0:0:
258,126,35151,1,0,0:0:0:0:
301,160,35370,1,8,0:0:0:0:
235,118,35589,1,0,0:0:0:0:
235,118,36027,1,8,0:0:0:0:
235,118,36246,1,8,0:0:0:0:
235,118,36465,1,0,0:0:0:0:
244,138,36903,1,8,0:0:0:0:
235,118,37341,1,0,0:0:0:0:
138,160,37779,1,8,0:0:0:0:
138,160,37998,1,8,0:0:0:0:
138,160,38217,1,0,0:0:0:0:
254,148,38655,1,8,0:0:0:0:
281,130,39093,1,0,0:0:0:0:
246,162,39531,1,8,0:0:0:0:
170,65,39750,1,8,0:0:0:0:
246,162,39969,1,0,0:0:0:0:
174,140,40407,1,0,0:0:0:0:
174,140,40844,1,8,0:0:0:0:
378,202,41501,1,8,0:0:0:0:
212,95,41720,1,0,0:0:0:0:
212,95,41939,1,0,0:0:0:0:
212,95,42377,1,0,0:0:0:0:
351,111,42596,1,8,0:0:0:0:
226,190,43034,1,0,0:0:0:0:
226,190,43253,1,0,0:0:0:0:
351,111,43472,1,8,0:0:0:0:
296,108,43910,1,8,0:0:0:0:
279,142,44129,1,0,0:0:0:0:
296,108,44348,1,0,0:0:0:0:
276,93,44786,1,8,0:0:0:0:
152,163,45224,1,0,0:0:0:0:
152,163,45443,1,0,0:0:0:0:
276,93,45662,1,8,0:0:0:0:
80,66,45881,1,0,0:0:0:0:
235,86,46100,1,8,0:0:0:0:
235,86,46538,1,0,0:0:0:0:
235,86,46757,1,0,0:0:0:0:
235,86,46976,1,8,0:0:0:0:
159,95,47414,1,0,0:0:0:0:
235,86,47852,1,8,0:0:0:0:
103,128,48728,1,0,0:0:0:0:
103,128,49166,1,8,0:0:0:0:
103,128,49385,1,0,0:0:0:0:
103,128,49604,1,8,0:0:0:0:
182,177,50042,1,8,0:0:0:0:
182,177,50480,1,8,0:0:0:0:
250,189,50917,1,0,0:0:0:0:
250,189,51136,1,8,0:0:0:0:
250,189,51793,1,0,0:0:0:0:
250,189,52231,1,0,0:0:0:0:
250,189,52669,1,8,0:0:0:0:
250,189,52888,1,8,0:0:0:0:
250,189,53545,1,8,0:0:0:0:
250,189,53983,1,8,0:0:0:0:
250,189,54421,1,0,0:0:0:0:
250,189,54640,1,8,0:0:0:0:
106,159,55735,1,0,0:0:0:0:
106,159,55954,1,0,0:0:0:0:
106,159,56173,1,8,0:0:0:0:
368,249,56611,1,12,0:0:0:0:
266,264,57049,1,0,0:0:0:0:
266,178,57487,1,0,0:0:0:0:
237,139,57925,1,8,0:0:0:0:
261,149,58144,1,0,0:0:0:0:
143,98,58253,1,0,0:0:0:0:
261,149,58363,1,0,0:0:0:0:
219,96,58582,1,0,0:0:0:0:
252,128,58801,1,8,0:0:0:0:
261,89,59020,1,0,0:0:0:0:
252,128,59239,1,8,0:0:0:0:
261,89,59677,1,0,0:0:0:0:
260,171,59896,1,8,0:0:0:0:
260,171,60005,1,8,0:0:0:0:
103,134,60115,1,8,0:0:0:0:
157,158,60552,1,8,0:0:0:0:
157,158,60990,1,0,0:0:0:0:
263,166,61209,1,0,0:0:0:0:
232,123,61428,1,8,0:0:0:0:
232,123,61647,1,0,0:0:0:0:
104,102,61757,1,0,0:0:0:0:
232,123,61866,1,0,0:0:0:0:
304,136,62085,1,8,0:0:0:0:
214,138,62304,1,8,0:0:0:0:
214,138,62742,1,8,0:0:0:0:
214,138,63618,1,12,0:0:0:0:
165,122,63837,1,0,0:0:0:0:
230,113,64056,1,8,0:0:0:0:
361,46,64275,1,0,0:0:0:0:
361,46,64385,1,0,0:0:0:0:
361,46,64494,1,0,0:0:0:0:
212,148,64713,1,0,0:0:0:0:
212,148,64932,1,8,0:0:0:0:
212,148,65370,1,8,0:0:0:0:
212,148,65589,1,0,0:0:0:0:
285,89,65808,1,8,0:0:0:0:
285,89,66027,1,0,0:0:0:0:
63,200,66246,1,0,0:0:0:0:
63,200,66355,1,0,0:0:0:0:
20,197,66465,1,0,0:0:0:0:
184,101,66684,1,8,0:0:0:0:
156,52,66793,1,8,0:0:0:0:
184,101,66903,1,8,0:0:0:0:
182,123,67122,1,8,0:0:0:0:
286,149,67560,1,8,0:0:0:0:
261,131,67779,1,0,0:0:0:0:
261,131,67998,1,8,0:0:0:0:
261,131,68107,1,8,0:0:0:0:
261,131,68217,1,8,0:0:0:0:
234,116,68436,1,8,0:0:0:0:
234,116,68655,1,0,0:0:0:0:
234,116,68874,1,8,0:0:0:0:
274,117,69312,1,8,0:0:0:0:
128,117,69531,1,0,0:0:0:0:
274,117,69750,1,8,0:0:0:0:
128,117,69859,1,8,0:0:0:0:
274,117,69969,1,8,0:0:0:0:
274,117,70188,1,0,0:0:0:0:
195,211,70297,1,0,0:0:0:0:
201,36,70407,1,0,0:0:0:0:
124,99,70625,1,0,0:0:0:0:
248,204,71063,1,8,0:0:0:0:
324,152,71501,1,0,0:0:0:0:
324,152,71939,1,8,0:0:0:0:
253,182,72158,1,0,0:0:0:0:
253,182,72377,1,0,0:0:0:0:
209,173,72815,1,8,0:0:0:0:
209,173,73253,1,0,0:0:0:0:
209,173,73691,1,8,0:0:0:0:
312,94,74567,1,8,0:0:0:0:
219,142,75443,1,8,0:0:0:0:
219,142,75881,1,8,0:0:0:0:
219,142,76319,1,0,0:0:0:0:
219,142,76757,1,0,0:0:0:0:
219,142,77195,1,8,0:0:0:0:
235,225,77633,1,0,0:0:0:0:
202,189,78509,1,0,0:0:0:0:
255,159,79385,1,8,0:0:0:0:
170,133,80261,1,8,0:0:0:0:
170,133,80698,1,8,0:0:0:0:
206,157,81136,1,0,0:0:0:0:
276,169,82012,1,0,0:0:0:0:
277,190,82888,1,8,0:0:0:0:
256,241,83764,1,0,0:0:0:0:
277,190,84421,1,8,0:0:0:0:
