osu file format v14

[General]
AudioFilename: audio.mp3
AudioLeadIn: 0
PreviewTime: 55735
Countdown: 0
SampleSet: Normal
StackLeniency: 0.7
Mode: 1
LetterboxInBreaks: 0
WidescreenStoryboard: 1

[Editor]
DistanceSpacing: 2
BeatDivisor: 4
GridSize: 32
TimelineZoom: 1.9

[Metadata]
Title:Shougeki (Cut Ver.)
TitleUnicode:衝撃 (Cut Ver.)
Artist:Andou Yuuko
ArtistUnicode:安藤裕子
Creator:tadahitotsu
Version:kanpakyin's futsuu
Source:進撃の巨人
Tags:j-pop shock shingeki no kyojin attack on titan final season ending ed japanese pop jpop anime faputa jaltzu realy0_ reealy_ kanpakyin
BeatmapID:2844086
BeatmapSetID:1372166

[Difficulty]
HPDrainRate:7
CircleSize:4
OverallDifficulty:4
ApproachRate:5
SliderMultiplier:1.4
SliderTickRate:1

[Events]
//Background and Video events
0,0,"landscape-swamp-grey-man-wallpaper.jpg",0,0
//Break Periods
//Storyboard Layer 0 (Background)
//Storyboard Layer 1 (Fail)
//Storyboard Layer 2 (Pass)
//Storyboard Layer 3 (Foreground)
//Storyboard Layer 4 (Overlay)
//Storyboard Sound Samples

[TimingPoints]
553,437.956204379562,4,1,0,50,1,0
553,-111.111111111111,4,1,0,50,0,0
14567,-105.263157894737,4,1,0,60,0,0
28582,-105.263157894737,4,1,0,65,0,0
49166,-108.695652173913,4,1,0,65,0,0
49385,-109.89010989011,4,1,0,65,0,0
49604,-111.111111111111,4,1,0,50,0,0
55735,-105.263157894737,4,1,0,65,0,0
56611,-100,4,1,0,80,0,1
69750,-101.010101010101,4,1,0,80,0,1
69969,-104.166666666667,4,1,0,80,0,1
70188,-107.52688172043,4,1,0,80,0,1
70625,-111.111111111111,4,1,0,70,0,0
71501,-111.111111111111,4,1,0,65,0,0

[HitObjects]
403,111,553,5,0,0:0:0:0:
403,111,1428,1,0,0:0:0:0:
403,111,1866,1,8,0:0:0:0:
403,111,2304,1,0,0:0:0:0:
409,106,3180,1,8,0:0:0:0:
409,106,3618,1,8,0:0:0:0:
409,106,4056,1,0,0:0:0:0:
405,95,5370,1,8,0:0:0:0:
405,95,5808,1,0,0:0:0:0:
413,92,6684,1,8,0:0:0:0:
413,92,7122,1,8,0:0:0:0:
404,82,7560,1,0,0:0:0:0:
404,88,8436,1,0,0:0:0:0:
404,88,8874,1,8,0:0:0:0:
404,88,9312,1,0,0:0:0:0:
408,93,10188,1,8,0:0:0:0:
408,93,10625,1,8,0:0:0:0:
408,93,11063,1,0,0:0:0:0:
402,91,12815,1,0,0:0:0:0:
402,91,13691,1,8,0:0:0:0:
402,91,14567,1,0,0:0:0:0:
394,91,15005,1,8,0:0:0:0:
386,84,15443,1,0,0:0:0:0:
376,81,15881,1,8,0:0:0:0:
376,81,16319,1,0,0:0:0:0:
376,81,16757,1,0,0:0:0:0:
376,81,17195,1,8,0:0:0:0:
376,81,17633,1,8,0:0:0:0:
376,81,18071,1,0,0:0:0:0:
376,81,18728,1,0,0:0:0:0:
376,81,18947,1,8,0:0:0:0:
376,81,19823,1,0,0:0:0:0:
368,79,20698,1,0,0:0:0:0:
368,79,21136,1,8,0:0:0:0:
368,79,21574,1,0,0:0:0:0:
363,66,22450,1,0,0:0:0:0:
363,66,23326,1,0,0:0:0:0:
372,60,24202,1,0,0:0:0:0:
372,60,24640,1,0,0:0:0:0:
372,60,25078,1,8,0:0:0:0:
366,56,25735,1,0,0:0:0:0:
366,57,25954,1,8,0:0:0:0:
366,57,26830,1,0,0:0:0:0:
366,57,27706,1,0,0:0:0:0:
368,53,28144,1,8,0:0:0:0:
368,53,28582,1,0,0:0:0:0:
356,52,29020,1,0,0:0:0:0:
356,53,29239,1,0,0:0:0:0:
356,53,29458,1,8,0:0:0:0:
368,51,30334,1,0,0:0:0:0:
368,51,30771,1,0,0:0:0:0:
368,51,30990,1,0,0:0:0:0:
353,48,31209,1,0,0:0:0:0:
359,55,31647,1,8,0:0:0:0:
359,55,32085,1,0,0:0:0:0:
359,55,32523,1,0,0:0:0:0:
359,55,32742,1,0,0:0:0:0:
359,55,32961,1,8,0:0:0:0:
351,46,33399,1,8,0:0:0:0:
359,55,33837,1,0,0:0:0:0:
351,46,34275,1,0,0:0:0:0:
351,46,34713,1,8,0:0:0:0:
351,46,35589,1,0,0:0:0:0:
351,46,36027,1,0,0:0:0:0:
351,46,36246,1,8,0:0:0:0:
346,39,36465,1,0,0:0:0:0:
346,39,37341,1,0,0:0:0:0:
346,47,37779,1,0,0:0:0:0:
346,47,37998,1,8,0:0:0:0:
346,47,38217,1,0,0:0:0:0:
348,52,38655,1,8,0:0:0:0:
348,52,39093,1,0,0:0:0:0:
348,52,39531,1,0,0:0:0:0:
348,52,39750,1,0,0:0:0:0:
348,52,39969,1,8,0:0:0:0:
340,41,40407,1,0,0:0:0:0:
340,40,40844,1,0,0:0:0:0:
340,40,41720,1,8,0:0:0:0:
340,40,42158,1,0,0:0:0:0:
340,40,42596,1,8,0:0:0:0:
340,40,43472,1,0,0:0:0:0:
340,40,43910,1,8,0:0:0:0:
340,40,44348,1,0,0:0:0:0:
347,40,44786,1,8,0:0:0:0:
346,55,45662,1,8,0:0:0:0:
350,51,46100,1,0,0:0:0:0:
351,51,46538,1,8,0:0:0:0:
256,192,46757,12,0,48728,0:0:0:0:
351,54,49166,5,0,0:0:0:0:
351,54,49385,1,0,0:0:0:0:
351,54,49604,1,8,0:0:0:0:
342,58,50480,1,0,0:0:0:0:
342,58,51136,1,8,0:0:0:0:
342,58,51793,1,0,0:0:0:0:
342,58,52231,1,8,0:0:0:0:
342,58,52888,1,0,0:0:0:0:
350,68,53545,1,0,0:0:0:0:
350,68,53983,1,8,0:0:0:0:
350,68,54640,1,0,0:0:0:0:
350,68,55735,5,0,0:0:0:0:
302,183,56611,5,4,0:0:0:0:
302,183,57268,1,0,0:0:0:0:
302,183,57487,1,8,0:0:0:0:
302,183,57925,1,0,0:0:0:0:
302,183,58144,1,8,0:0:0:0:
302,183,58363,1,0,0:0:0:0:
289,180,58582,1,0,0:0:0:0:
290,180,58801,1,0,0:0:0:0:
291,175,59239,1,8,0:0:0:0:
290,180,59677,1,0,0:0:0:0:
291,175,59896,1,8,0:0:0:0:
291,175,60115,1,0,0:0:0:0:
291,174,60552,1,0,0:0:0:0:
291,175,60990,1,8,0:0:0:0:
283,156,61209,1,0,0:0:0:0:
290,158,61647,1,8,0:0:0:0:
286,170,61866,1,0,0:0:0:0:
280,159,62742,1,8,0:0:0:0:
286,153,63180,1,0,0:0:0:0:
286,153,63399,1,8,0:0:0:0:
286,154,63618,1,4,0:0:0:0:
286,153,63837,1,0,0:0:0:0:
286,153,64056,1,8,0:0:0:0:
302,155,64494,1,8,0:0:0:0:
301,154,64713,1,0,0:0:0:0:
298,152,64932,1,8,0:0:0:0:
299,148,65370,1,0,0:0:0:0:
299,139,65589,1,0,0:0:0:0:
298,129,65808,1,8,0:0:0:0:
284,145,66246,1,8,0:0:0:0:
297,141,66465,1,0,0:0:0:0:
301,139,66684,1,8,0:0:0:0:
302,136,66903,1,8,0:0:0:0:
302,136,67122,1,0,0:0:0:0:
291,123,67341,1,0,0:0:0:0:
306,134,67560,1,8,0:0:0:0:
309,123,67998,1,0,0:0:0:0:
312,130,68217,1,0,0:0:0:0:
306,134,68436,1,8,0:0:0:0:
297,132,68655,1,8,0:0:0:0:
317,134,68874,1,0,0:0:0:0:
317,134,69093,1,0,0:0:0:0:
317,134,69312,1,8,0:0:0:0:
326,127,69750,1,0,0:0:0:0:
326,126,69969,1,8,0:0:0:0:
326,126,70188,1,0,0:0:0:0:
326,127,70625,1,8,0:0:0:0:
331,123,71501,1,0,0:0:0:0:
331,123,72158,1,8,0:0:0:0:
331,123,72815,1,0,0:0:0:0:
331,123,73253,1,8,0:0:0:0:
321,126,73691,1,8,0:0:0:0:
321,126,74129,1,0,0:0:0:0:
321,126,74567,1,8,0:0:0:0:
325,120,75443,1,8,0:0:0:0:
325,120,76319,1,8,0:0:0:0:
318,110,76757,1,8,0:0:0:0:
318,110,77195,1,8,0:0:0:0:
318,110,77633,1,0,0:0:0:0:
318,110,78071,1,8,0:0:0:0:
318,110,78509,1,0,0:0:0:0:
326,105,79385,1,0,0:0:0:0:
326,105,80261,1,8,0:0:0:0:
326,105,80698,1,8,0:0:0:0:
326,105,81136,1,0,0:0:0:0:
326,105,82012,1,8,0:0:0:0:
326,105,82888,1,0,0:0:0:0:
256,192,83107,12,0,84421,0:0:0:0:
