osu file format v14

[General]
AudioFilename: audio.mp3
AudioLeadIn: 0
PreviewTime: 55735
Countdown: 0
SampleSet: Normal
StackLeniency: 0.7
Mode: 1
LetterboxInBreaks: 0
WidescreenStoryboard: 1

[Editor]
Bookmarks: 544
DistanceSpacing: 2
BeatDivisor: 4
GridSize: 32
TimelineZoom: 1.9

[Metadata]
Title:Shougeki (Cut Ver.)
TitleUnicode:衝撃 (Cut Ver.)
Artist:Andou Yuuko
ArtistUnicode:安藤裕子
Creator:tadahitotsu
Version:jaltzu's oni
Source:進撃の巨人
Tags:j-pop shock shingeki no kyojin attack on titan final season ending ed japanese pop jpop anime faputa jaltzu realy0_ reealy_ kanpakyin
BeatmapID:2836833
BeatmapSetID:1372166

[Difficulty]
HPDrainRate:5.5
CircleSize:2
OverallDifficulty:5
ApproachRate:10
SliderMultiplier:1.4
SliderTickRate:1

[Events]
//Background and Video events
0,0,"landscape-swamp-grey-man-wallpaper.jpg",0,0
//Break Periods
//Storyboard Layer 0 (Background)
//Storyboard Layer 1 (Fail)
//Storyboard Layer 2 (Pass)
//Storyboard Layer 3 (Foreground)
//Storyboard Layer 4 (Overlay)
//Storyboard Sound Samples

[TimingPoints]
553,437.956204379562,4,1,0,30,1,0
14458,-90.9090909090909,4,1,0,40,0,0
28527,-90.9090909090909,4,1,0,40,0,0
28965,-90.3954802259887,4,1,0,40,0,0
29184,-90.1408450704225,4,1,0,41,0,0
29403,-89.8876404494382,4,1,0,41,0,0
29622,-89.6358543417367,4,1,0,42,0,0
29841,-89.3854748603352,4,1,0,42,0,0
30060,-89.1364902506964,4,1,0,42,0,0
30279,-88.8888888888889,4,1,0,43,0,0
30716,-88.3977900552486,4,1,0,43,0,0
30935,-88.1542699724518,4,1,0,43,0,0
31154,-87.9120879120879,4,1,0,44,0,0
31373,-87.6712328767123,4,1,0,44,0,0
31592,-87.431693989071,4,1,0,45,0,0
31811,-87.1934604904632,4,1,0,45,0,0
32030,-86.9565217391304,4,1,0,45,0,0
32468,-86.4864864864865,4,1,0,46,0,0
32687,-86.2533692722372,4,1,0,46,0,0
32906,-86.0215053763441,4,1,0,46,0,0
33344,-85.5614973262032,4,1,0,47,0,0
33782,-85.1063829787234,4,1,0,47,0,0
34220,-84.6560846560847,4,1,0,48,0,0
34439,-84.4327176781003,4,1,0,48,0,0
34658,-84.2105263157895,4,1,0,48,0,0
34877,-83.989501312336,4,1,0,49,0,0
35096,-83.7696335078534,4,1,0,49,0,0
35315,-83.5509138381201,4,1,0,49,0,0
35534,-83.3333333333333,4,1,0,50,0,0
35972,-82.9015544041451,4,1,0,50,0,0
36191,-82.687338501292,4,1,0,51,0,0
36410,-82.4742268041237,4,1,0,51,0,0
36629,-82.2622107969152,4,1,0,51,0,0
36848,-82.0512820512821,4,1,0,52,0,0
37067,-81.8414322250639,4,1,0,52,0,0
37286,-81.6326530612245,4,1,0,52,0,0
37724,-81.2182741116751,4,1,0,53,0,0
37943,-81.0126582278481,4,1,0,53,0,0
38162,-80.8080808080808,4,1,0,54,0,0
38381,-80.6045340050378,4,1,0,54,0,0
38600,-80.4020100502513,4,1,0,54,0,0
38819,-80.2005012531328,4,1,0,55,0,0
39038,-80,4,1,0,55,0,0
39476,-79.6019900497512,4,1,0,55,0,0
39695,-79.4044665012407,4,1,0,56,0,0
39914,-79.2079207920792,4,1,0,56,0,0
40352,-78.8177339901478,4,1,0,57,0,0
40789,-78.4313725490196,4,1,0,57,0,0
41227,-78.0487804878049,4,1,0,57,0,0
41446,-77.8588807785888,4,1,0,58,0,0
41665,-77.6699029126214,4,1,0,58,0,0
41884,-77.4818401937046,4,1,0,58,0,0
42103,-77.2946859903382,4,1,0,59,0,0
42322,-77.1084337349398,4,1,0,59,0,0
42541,-76.9230769230769,4,1,0,60,0,0
49111,-86.9565217391304,4,1,0,50,0,0
49330,-93.0232558139535,4,1,0,45,0,0
49549,-100,4,1,0,40,0,0
56501,-71.4285714285714,4,1,0,70,0,0
56611,-71.4285714285714,4,1,0,70,0,1
63509,-66.6666666666667,4,1,0,80,0,1
70242,-67.7966101694915,4,1,0,80,0,1
70352,-68.9655172413793,4,1,0,70,0,1
70461,-70.1754385964912,4,1,0,70,0,1
70571,-71.4285714285714,4,1,0,50,0,1
70625,-71.4285714285714,4,1,0,50,0,0
71008,-72.2883901953811,4,1,0,50,0,0
71227,-72.726109109527,4,1,0,50,0,0
71446,-73.1691612472708,4,1,0,50,0,0
71884,-74.0717147527893,4,1,0,50,0,0
72103,-74.5313654071611,4,1,0,50,0,0
72322,-74.9967563902861,4,1,0,50,0,0
72760,-75.9451949095455,4,1,0,50,0,0
72979,-76.4284671583055,4,1,0,50,0,0
73198,-76.917929338575,4,1,0,50,0,0
73417,-77.4137011413102,4,1,0,50,0,0
73636,-77.9159053633413,4,1,0,50,0,0
74074,-78.9401807098617,4,1,0,50,0,0
74512,-79.99168086519,4,1,0,50,0,0
75388,-82.1810184857983,4,1,0,50,0,0
75826,-83.3213211761971,4,1,0,50,0,0
76264,-84.4936422758869,4,1,0,50,0,0
76483,-85.0922612842975,4,1,0,50,0,0
76702,-85.699422985785,4,1,0,50,0,0
76921,-86.3153115594328,4,1,0,50,0,0
77140,-86.9401165171441,4,1,0,50,0,0
77578,-88.2172614715521,4,1,0,50,0,0
78016,-89.5325683670692,4,1,0,50,0,0
78454,-90.887608383473,4,1,0,50,0,0
78892,-92.2842946895926,4,1,0,50,0,0
79330,-93.7245772084322,4,1,0,50,0,0
79987,-95.9714081980696,4,1,0,50,0,0
80206,-96.7444524312365,4,1,0,50,0,0
80643,-98.3285135973585,4,1,0,50,0,0
81081,-99.9653120367232,4,1,0,50,0,0
81684,-95.2380952380952,4,1,0,50,0,0
81903,-90.880422266794,4,1,0,50,0,0
82560,-86.9565217391304,4,1,0,50,0,0
82779,-83.3092430772102,4,1,0,50,0,0
83436,-80,4,1,0,50,0,0
83655,-76.9025498578456,4,1,0,50,0,0
83874,-74.0740740740741,4,1,0,50,0,0
84312,-71.4285714285714,4,1,0,50,0,0

[HitObjects]
256,192,553,5,0,0:0:0:0:
256,192,2304,1,0,0:0:0:0:
256,192,4056,1,8,0:0:0:0:
256,192,5808,1,8,0:0:0:0:
256,192,7560,1,0,0:0:0:0:
256,192,9312,1,0,0:0:0:0:
256,192,11063,1,8,0:0:0:0:
256,192,12815,1,8,0:0:0:0:
256,192,14567,5,0,0:0:0:0:
256,192,15005,1,8,0:0:0:0:
256,192,15443,1,8,0:0:0:0:
256,192,15662,1,8,0:0:0:0:
256,192,15881,1,0,0:0:0:0:
256,192,16319,1,8,0:0:0:0:
256,192,16757,1,0,0:0:0:0:
256,192,16976,1,0,0:0:0:0:
256,192,17195,1,8,0:0:0:0:
256,192,17414,1,0,0:0:0:0:
256,192,17633,1,8,0:0:0:0:
256,192,18071,1,0,0:0:0:0:
256,192,18728,1,0,0:0:0:0:
256,192,18947,1,8,0:0:0:0:
256,192,19604,1,8,0:0:0:0:
256,192,19823,1,0,0:0:0:0:
256,192,20261,1,0,0:0:0:0:
256,192,20698,1,8,0:0:0:0:
256,192,20917,1,8,0:0:0:0:
256,192,21136,1,0,0:0:0:0:
256,192,21574,1,8,0:0:0:0:
256,192,22012,1,8,0:0:0:0:
256,192,22231,1,0,0:0:0:0:
256,192,22450,1,8,0:0:0:0:
256,192,22888,1,0,0:0:0:0:
256,192,23107,1,0,0:0:0:0:
256,192,23326,1,8,0:0:0:0:
256,192,23764,1,8,0:0:0:0:
256,192,23983,1,8,0:0:0:0:
256,192,24202,1,0,0:0:0:0:
256,192,24421,1,0,0:0:0:0:
256,192,24640,1,8,0:0:0:0:
256,192,25078,1,8,0:0:0:0:
256,192,25516,1,0,0:0:0:0:
256,192,25735,1,0,0:0:0:0:
256,192,25954,1,8,0:0:0:0:
256,192,26392,1,0,0:0:0:0:
256,192,26611,1,8,0:0:0:0:
256,192,26830,12,8,28144,0:0:0:0:
256,192,28582,5,0,0:0:0:0:
256,192,29020,1,8,0:0:0:0:
256,192,29239,1,0,0:0:0:0:
256,192,29458,1,8,0:0:0:0:
256,192,29677,1,8,0:0:0:0:
256,192,29896,1,0,0:0:0:0:
256,192,30115,1,0,0:0:0:0:
256,192,30334,1,8,0:0:0:0:
256,192,30771,1,0,0:0:0:0:
256,192,30990,1,8,0:0:0:0:
256,192,31209,1,8,0:0:0:0:
256,192,31428,1,0,0:0:0:0:
256,192,31647,1,0,0:0:0:0:
256,192,31866,1,8,0:0:0:0:
256,192,32085,1,0,0:0:0:0:
256,192,32523,1,0,0:0:0:0:
256,192,32742,1,0,0:0:0:0:
256,192,32961,1,0,0:0:0:0:
256,192,33399,1,8,0:0:0:0:
256,192,33837,1,8,0:0:0:0:
256,192,34275,1,0,0:0:0:0:
256,192,34494,1,0,0:0:0:0:
256,192,34713,1,8,0:0:0:0:
256,192,34932,1,0,0:0:0:0:
256,192,35151,1,8,0:0:0:0:
256,192,35370,1,8,0:0:0:0:
256,192,35589,1,0,0:0:0:0:
256,192,36027,1,8,0:0:0:0:
256,192,36246,1,0,0:0:0:0:
256,192,36465,1,8,0:0:0:0:
256,192,36684,1,8,0:0:0:0:
256,192,36903,1,0,0:0:0:0:
256,192,37122,1,8,0:0:0:0:
256,192,37341,1,0,0:0:0:0:
256,192,37779,1,0,0:0:0:0:
256,192,37998,1,8,0:0:0:0:
256,192,38217,1,0,0:0:0:0:
256,192,38436,1,8,0:0:0:0:
256,192,38655,1,8,0:0:0:0:
256,192,38874,1,8,0:0:0:0:
256,192,39093,1,0,0:0:0:0:
256,192,39531,1,0,0:0:0:0:
256,192,39750,1,0,0:0:0:0:
256,192,39969,1,8,0:0:0:0:
256,192,40407,1,0,0:0:0:0:
256,192,40844,1,8,0:0:0:0:
256,192,41282,1,8,0:0:0:0:
256,192,41501,1,0,0:0:0:0:
256,192,41720,1,8,0:0:0:0:
256,192,41939,1,8,0:0:0:0:
256,192,42158,1,8,0:0:0:0:
256,192,42377,1,0,0:0:0:0:
256,192,42596,5,8,0:0:0:0:
256,192,43034,1,8,0:0:0:0:
256,192,43253,1,0,0:0:0:0:
256,192,43472,1,0,0:0:0:0:
256,192,43691,1,0,0:0:0:0:
256,192,43910,1,8,0:0:0:0:
256,192,44348,1,0,0:0:0:0:
256,192,44786,1,8,0:0:0:0:
256,192,45005,1,8,0:0:0:0:
256,192,45224,1,8,0:0:0:0:
256,192,45443,1,0,0:0:0:0:
256,192,45662,1,8,0:0:0:0:
256,192,46100,1,8,0:0:0:0:
256,192,46319,1,8,0:0:0:0:
256,192,46538,1,0,0:0:0:0:
256,192,46757,1,0,0:0:0:0:
256,192,46976,1,8,0:0:0:0:
256,192,47414,1,0,0:0:0:0:
256,192,47633,1,0,0:0:0:0:
256,192,47852,1,8,0:0:0:0:
256,192,48509,1,8,0:0:0:0:
256,192,48728,1,0,0:0:0:0:
256,192,49166,1,0,0:0:0:0:
256,192,49385,1,0,0:0:0:0:
256,192,49604,1,8,0:0:0:0:
256,192,50042,1,0,0:0:0:0:
256,192,50480,1,0,0:0:0:0:
256,192,50917,1,0,0:0:0:0:
256,192,51136,1,0,0:0:0:0:
256,192,51793,1,8,0:0:0:0:
256,192,52231,1,0,0:0:0:0:
256,192,52669,1,8,0:0:0:0:
256,192,52888,1,8,0:0:0:0:
256,192,53545,1,0,0:0:0:0:
256,192,53983,1,8,0:0:0:0:
256,192,54421,1,8,0:0:0:0:
256,192,54640,1,0,0:0:0:0:
256,192,55735,1,0,0:0:0:0:
256,192,55954,1,8,0:0:0:0:
256,192,56173,1,0,0:0:0:0:
256,192,56611,5,4,0:0:0:0:
256,192,57049,1,8,0:0:0:0:
256,192,57268,1,0,0:0:0:0:
256,192,57487,1,8,0:0:0:0:
256,192,57596,1,0,0:0:0:0:
256,192,57706,1,0,0:0:0:0:
256,192,57925,1,0,0:0:0:0:
256,192,58144,1,8,0:0:0:0:
256,192,58363,1,0,0:0:0:0:
256,192,58582,1,0,0:0:0:0:
256,192,58801,1,0,0:0:0:0:
256,192,59020,1,8,0:0:0:0:
256,192,59129,1,8,0:0:0:0:
256,192,59239,1,8,0:0:0:0:
256,192,59677,1,0,0:0:0:0:
256,192,59896,1,8,0:0:0:0:
256,192,60115,1,0,0:0:0:0:
256,192,60552,1,0,0:0:0:0:
256,192,60771,1,0,0:0:0:0:
256,192,60990,1,8,0:0:0:0:
256,192,61209,1,0,0:0:0:0:
256,192,61428,1,0,0:0:0:0:
256,192,61647,1,8,0:0:0:0:
256,192,61757,1,8,0:0:0:0:
256,192,61866,1,0,0:0:0:0:
256,192,62085,1,0,0:0:0:0:
256,192,62304,1,0,0:0:0:0:
256,192,62523,1,8,0:0:0:0:
256,192,62742,1,8,0:0:0:0:
256,192,62852,1,0,0:0:0:0:
256,192,62961,1,0,0:0:0:0:
256,192,63180,1,0,0:0:0:0:
256,192,63399,1,8,0:0:0:0:
256,192,63618,5,4,0:0:0:0:
256,192,63837,1,0,0:0:0:0:
256,192,64056,1,8,0:0:0:0:
256,192,64275,1,0,0:0:0:0:
256,192,64385,1,0,0:0:0:0:
256,192,64494,1,8,0:0:0:0:
256,192,64604,1,0,0:0:0:0:
256,192,64713,1,0,0:0:0:0:
256,192,64932,1,8,0:0:0:0:
256,192,65151,1,0,0:0:0:0:
256,192,65261,1,8,0:0:0:0:
256,192,65370,1,0,0:0:0:0:
256,192,65589,1,0,0:0:0:0:
256,192,65808,1,8,0:0:0:0:
256,192,66136,1,0,0:0:0:0:
256,192,66246,1,8,0:0:0:0:
256,192,66355,1,0,0:0:0:0:
256,192,66465,1,0,0:0:0:0:
256,192,66684,1,8,0:0:0:0:
256,192,66793,1,0,0:0:0:0:
256,192,66903,1,8,0:0:0:0:
256,192,67012,1,0,0:0:0:0:
256,192,67122,1,0,0:0:0:0:
256,192,67341,1,0,0:0:0:0:
256,192,67560,1,8,0:0:0:0:
256,192,67779,1,0,0:0:0:0:
256,192,67888,1,0,0:0:0:0:
256,192,67998,1,8,0:0:0:0:
256,192,68107,1,0,0:0:0:0:
256,192,68217,1,0,0:0:0:0:
256,192,68436,1,8,0:0:0:0:
256,192,68655,1,8,0:0:0:0:
256,192,68764,1,8,0:0:0:0:
256,192,68874,1,0,0:0:0:0:
256,192,69093,1,0,0:0:0:0:
256,192,69312,1,8,0:0:0:0:
256,192,69640,1,0,0:0:0:0:
256,192,69750,1,8,0:0:0:0:
256,192,69859,1,0,0:0:0:0:
256,192,69969,1,0,0:0:0:0:
256,192,70188,1,8,0:0:0:0:
256,192,70297,1,0,0:0:0:0:
256,192,70407,1,8,0:0:0:0:
256,192,70516,1,8,0:0:0:0:
256,192,70625,5,0,0:0:0:0:
256,192,71063,1,8,0:0:0:0:
256,192,71501,1,0,0:0:0:0:
256,192,71939,1,0,0:0:0:0:
256,192,72158,1,8,0:0:0:0:
256,192,72377,1,0,0:0:0:0:
256,192,72815,1,8,0:0:0:0:
256,192,73034,1,8,0:0:0:0:
256,192,73253,1,0,0:0:0:0:
256,192,73472,1,0,0:0:0:0:
256,192,73691,1,8,0:0:0:0:
256,192,74129,1,0,0:0:0:0:
256,192,74567,1,8,0:0:0:0:
256,192,75443,1,8,0:0:0:0:
256,192,75881,1,8,0:0:0:0:
256,192,76319,1,0,0:0:0:0:
256,192,76538,1,0,0:0:0:0:
256,192,76757,1,8,0:0:0:0:
256,192,76976,1,0,0:0:0:0:
256,192,77195,1,8,0:0:0:0:
256,192,77633,1,0,0:0:0:0:
256,192,78071,1,8,0:0:0:0:
256,192,78509,1,8,0:0:0:0:
256,192,78947,1,0,0:0:0:0:
256,192,79385,1,8,0:0:0:0:
256,192,80042,1,0,0:0:0:0:
256,192,80261,1,8,0:0:0:0:
256,192,80698,1,8,0:0:0:0:
256,192,81136,1,8,0:0:0:0:
256,192,81793,1,0,0:0:0:0:
256,192,82012,1,8,0:0:0:0:
256,192,82669,1,0,0:0:0:0:
256,192,82888,1,8,0:0:0:0:
256,192,83545,1,0,0:0:0:0:
256,192,83764,1,0,0:0:0:0:
256,192,83983,1,8,0:0:0:0:
256,192,84421,1,8,0:0:0:0:
