osu file format v14

[General]
AudioFilename: audio.mp3
AudioLeadIn: 0
PreviewTime: 4557
Countdown: 0
SampleSet: Soft
StackLeniency: 0
Mode: 0
LetterboxInBreaks: 0
WidescreenStoryboard: 1

[Editor]
Bookmarks: 15104,18959
DistanceSpacing: 4.5
BeatDivisor: 4
GridSize: 32
TimelineZoom: 1.8

[Metadata]
Title:Gourmet Race
TitleUnicode:プププランドステージ
Artist:Ando Hirokazu
ArtistUnicode:安藤浩和
Creator:gary00737
Version:Yugu's Hidden Extra
Source:ニンテンドウオールスター!大乱闘スマッシュブラザーズ
Tags:Ultimate Stickfab kanor Kirby Super Star GodKei Yugu Pata-Mon walaowey Cris- Video Game Instrumental 激突!グルメレース Super Smash Bros. 64 石川淳 Ishikawa Jun nintendo 任天堂
BeatmapID:3326605
BeatmapSetID:1608572

[Difficulty]
HPDrainRate:0
CircleSize:0
OverallDifficulty:0
ApproachRate:0
SliderMultiplier:2
SliderTickRate:1

[Events]
//Background and Video events
0,0,"iZK3K4G.jpeg",0,0
Video,0,"01.mp4"
//Break Periods
//Storyboard Layer 0 (Background)
//Storyboard Layer 1 (Fail)
//Storyboard Layer 2 (Pass)
//Storyboard Layer 3 (Foreground)
//Storyboard Layer 4 (Overlay)
//Storyboard Sound Samples
Sample,354,0,"soundeffect.wav",100

[TimingPoints]
4692,321.285140562249,4,2,1,60,1,0

[Colours]
Combo1 : 255,89,89
Combo2 : 0,204,102
Combo3 : 55,155,255

[HitObjects]
204,335,4692,6,0,P|189:263|128:223,1,150,4|0,0:3|0:0,0:0:0:0:
128,223,5013,1,8,0:0:0:0:
382,155,5173,1,0,0:0:0:0:
94,96,5334,1,0,0:0:0:0:
509,121,5495,1,0,0:0:0:0:
221,62,5655,1,8,0:0:0:0:
221,62,5977,5,6,0:0:0:0:
2,4,6137,1,0,0:3:0:0:
62,222,6298,1,6,0:0:0:0:
221,62,6459,1,0,3:3:0:0:
2,4,6619,1,6,0:0:0:0:
94,96,6780,1,0,0:0:0:0:
94,96,6860,1,0,0:0:0:0:
94,96,6940,1,2,0:3:0:0:
94,96,7262,6,0,B|205:110|162:175|267:183,1,200,0|8,0:0|0:0,0:0:0:0:
394,160,7744,1,0,0:0:0:0:
180,364,7904,2,0,B|291:349|248:284|353:276,1,200,0|8,0:0|0:0,0:0:0:0:
480,300,8386,1,0,0:0:0:0:
266,182,8547,6,0,L|254:83,1,100,0|0,0:0|0:0,0:0:0:0:
65,164,8868,2,0,L|77:263,1,100,8|0,0:0|0:0,0:0:0:0:
480,300,9189,2,0,L|455:101,1,200,0|10,0:0|0:0,0:0:0:0:
365,7,9671,1,0,0:0:0:0:
195,324,9832,6,0,P|177:277|185:228,1,100,0|0,0:0|0:0,0:0:0:0:
326,228,10153,2,0,P|334:277|317:324,1,100,8|0,0:0|0:0,0:0:0:0:
65,164,10475,2,0,P|73:115|104:76,1,100,0|0,0:0|0:0,0:0:0:0:
407,76,10796,2,0,P|438:115|447:164,1,100,8|0,0:0|0:0,0:0:0:0:
195,324,11117,6,0,P|145:315|96:308,1,100,0|0,0:0|0:0,0:0:0:0:
317,324,11438,2,0,P|366:315|415:308,1,100,8|0,0:0|0:0,0:0:0:0:
256,218,11760,2,0,L|256:5,1,200,0|8,0:0|0:3,0:0:0:0:
256,18,12242,1,0,0:0:0:0:
5,136,12402,6,0,B|11:236|84:220|95:308,1,200,0|8,0:0|0:0,0:0:0:0:
0,367,12884,1,0,0:0:0:0:
256,18,13045,2,0,B|249:118|176:102|165:190,1,200,0|8,0:0|0:0,0:0:0:0:
261,266,13527,1,0,0:0:0:0:
484,107,13687,6,0,L|386:85,1,100,0|0,0:0|0:0,0:0:0:0:
261,266,14009,2,0,L|358:287,1,100,8|0,0:0|0:0,0:0:0:0:
146,101,14330,2,0,L|0:68,1,150,0|0,0:0|0:0,0:0:0:0:
0,68,14651,1,10,0:0:0:0:
256,18,14812,1,0,0:0:0:0:
261,266,14973,6,0,L|163:244,1,100,0|0,0:0|0:0,0:0:0:0:
386,85,15294,2,0,L|483:106,1,100,8|0,0:0|0:0,0:0:0:0:
163,244,15615,2,0,L|65:222,1,100,0|0,0:0|0:0,0:0:0:0:
288,63,15936,2,0,L|385:84,1,100,8|0,0:0|0:0,0:0:0:0:
445,362,16258,6,0,P|395:365|349:346,1,100,0|0,0:0|0:0,0:0:0:0:
192,47,16579,2,0,P|241:43|287:62,1,100,8|0,0:0|0:0,0:0:0:0:
65,222,16900,2,0,L|37:23,1,200,0|8,0:0|0:3,0:0:0:0:
445,362,17543,6,0,L|472:163,1,200,4|8,0:0|0:0,0:0:0:0:
490,34,18025,1,0,0:0:0:0:
316,340,18185,2,0,L|343:141,1,200,0|8,0:0|0:0,0:0:0:0:
361,12,18667,1,0,0:0:0:0:
58,230,18828,6,0,B|22:221|22:221|7:159,1,100,0|0,0:0|0:0,0:0:0:0:
189,0,19149,2,0,B|225:9|225:9|239:70,1,100,8|0,0:0|0:0,0:0:0:0:
187,370,19471,2,0,B|162:335|162:335|187:180,1,200,0|10,0:0|0:0,0:0:0:0:
239,70,19953,1,0,0:0:0:0:
393,330,20113,6,0,L|295:309,1,100,0|0,0:0|0:0,0:0:0:0:
415,191,20434,2,0,L|512:211,1,100,8|0,0:0|0:0,0:0:0:0:
187,370,20756,2,0,L|89:349,1,100,0|0,0:0|0:0,0:0:0:0:
239,70,21077,2,0,L|336:90,1,100,8|0,0:0|0:0,0:0:0:0:
25,253,21398,6,0,L|16:153,1,100,0|0,0:0|0:0,0:0:0:0:
118,12,21720,2,0,L|126:111,1,100,8|0,0:0|0:0,0:0:0:0:
187,370,22041,2,0,L|170:170,1,200,0|8,0:0|0:3,0:0:0:0:
170,170,22523,1,0,0:0:0:0:
322,305,22683,6,0,B|405:292|405:292|424:260|424:260|501:247,1,200,4|8,0:0|0:0,0:0:0:0:
493,369,23165,1,0,0:0:0:0:
341,106,23326,2,0,B|258:93|258:93|239:61|239:61|161:48,1,200,0|8,0:0|0:0,0:0:0:0:
170,170,23808,1,0,0:0:0:0:
434,21,23969,6,0,P|458:63|463:113,1,100,0|0,0:0|0:0,0:0:0:0:
322,305,24290,2,0,P|297:262|292:212,1,100,8|0,0:0|0:0,0:0:0:0:
434,21,24611,2,0,P|452:117|416:210,1,200,0|10,0:0|0:0,0:0:0:0:
51,367,25254,6,0,P|34:319|7:278,1,100,2|0,0:0|0:0,0:0:0:0:
166,326,25575,2,0,P|162:276|145:229,1,100,10|0,0:0|0:0,0:0:0:0:
298,12,25896,2,0,P|281:59|253:100,1,100,2|0,0:0|0:0,0:0:0:0:
413,53,26217,2,0,P|409:102|392:149,1,100,10|0,0:0|0:0,0:0:0:0:
510,353,26539,5,2,0:0:0:0:
478,226,26700,1,0,0:0:0:0:
298,12,26860,5,10,0:0:0:0:
266,139,27021,1,0,0:0:0:0:
379,371,27181,5,2,0:0:0:0:
347,244,27342,1,0,0:0:0:0:
167,30,27502,5,8,0:3:0:0:
135,157,27663,1,0,0:0:0:0:
0,362,27824,6,0,B|41:363|61:326|61:326|80:289|122:291,1,150,4|0,0:0|0:0,0:0:0:0:
122,291,28145,2,0,L|242:317,1,100,8|0,0:0|0:0,0:0:0:0:
512,274,28467,2,0,B|471:275|451:238|451:238|432:201|390:203,1,150,4|0,0:0|0:0,0:0:0:0:
390,203,28788,2,0,L|269:229,1,100,8|0,0:0|0:0,0:0:0:0:
0,175,29109,6,0,B|41:176|61:139|61:139|80:102|122:104,1,150,4|0,0:0|0:0,0:0:0:0:
122,104,29430,2,0,L|242:130,1,100,8|0,0:0|0:0,0:0:0:0:
512,76,29752,2,0,B|471:77|451:40|451:40|432:3|390:5,1,150,4|0,0:0|0:0,0:0:0:0:
390,5,30073,2,0,L|269:31,1,100,8|0,0:0|0:0,0:0:0:0:
331,348,30394,6,0,P|426:345|467:259,1,200,4|8,0:0|0:0,0:0:0:0:
408,156,30876,1,0,0:0:0:0:
97,212,31037,2,0,P|124:303|217:321,1,200,4|8,0:0|0:0,0:0:0:0:
300,236,31519,1,0,0:0:0:0:
121,9,31679,6,0,P|29:36|11:129,1,200,4|8,0:0|0:0,0:0:0:0:
97,212,32161,1,0,0:0:0:0:
507,181,32322,2,0,B|466:151|466:151|404:145|404:145|375:123|375:123|315:118|315:118|283:91|283:91|225:86,1,300,4|0,0:0|0:0,0:0:0:0:
9,340,32965,6,0,P|106:323|199:356,1,200,4|8,0:3|0:0,0:0:0:0:
381,184,33447,1,0,0:0:0:0:
468,284,33607,2,0,P|370:300|277:267,1,200,0|8,0:0|0:0,0:0:0:0:
199,356,34089,1,0,0:0:0:0:
41,174,34250,6,0,B|56:80|143:106|155:18,2,200,0|8|0,0:0|0:0|0:0,0:0:0:0:
157,200,35053,1,0,0:0:0:0:
157,200,35214,2,0,L|281:177,1,100,10|0,0:0|0:0,0:0:0:0:
469,9,35535,6,0,P|472:58|452:103,1,100,0|0,0:0|0:0,0:0:0:0:
419,142,35776,1,0,0:0:0:0:
387,180,35856,2,0,P|383:229|403:274,1,100,8|0,0:0|0:0,0:0:0:0:
196,361,36177,2,0,L|0:324,1,200,0|8,0:0|0:0,0:0:0:0:
153,26,36659,1,0,0:0:0:0:
61,107,36820,5,0,0:0:0:0:
323,348,37141,1,8,0:0:0:0:
401,1,37463,2,0,P|351:8|309:34,1,100,0|0,0:0|0:0,0:0:0:0:
359,156,37784,2,0,P|408:148|450:122,1,100,10|0,0:3|0:0,0:0:0:0:
69,34,38105,6,0,L|81:183,1,150,4|0,0:0|0:0,0:0:0:0:
81,183,38426,2,0,L|182:210,1,100,8|0,0:0|0:0,0:0:0:0:
443,34,38748,2,0,L|430:183,1,150,4|0,0:0|0:0,0:0:0:0:
430,183,39069,2,0,L|330:210,1,100,8|0,0:0|0:0,0:0:0:0:
18,297,39390,6,0,L|163:335,1,150,4|0,0:0|0:0,0:0:0:0:
163,335,39712,2,0,P|186:291|189:242,1,100,8|0,0:0|0:0,0:0:0:0:
494,297,40033,2,0,L|348:335,1,150,4|0,0:0|0:0,0:0:0:0:
348,335,40355,2,0,P|325:291|322:242,1,100,8|0,0:0|0:0,0:0:0:0:
105,28,40675,6,0,P|37:92|83:173,1,200,4|8,0:0|0:0,0:0:0:0:
191,113,41157,1,0,0:0:0:0:
407,28,41318,2,0,P|474:92|428:173,1,200,4|8,0:0|0:0,0:0:0:0:
321,113,41800,1,0,0:0:0:0:
175,312,41961,6,0,P|255:361|336:311,1,200,4|8,0:0|0:0,0:0:0:0:
256,224,42443,1,0,0:0:0:0:
105,28,42603,2,0,P|255:28|406:28,1,300,4|0,0:0|0:0,0:0:0:0:
175,312,43246,6,0,B|126:220|71:262|33:177,1,200,4|8,0:3|0:0,0:0:0:0:
57,359,43728,1,0,0:0:0:0:
147,134,43888,2,0,B|195:42|250:84|288:0,1,200,0|8,0:0|0:0,0:0:0:0:
399,295,44370,1,0,0:0:0:0:
512,0,44531,5,0,0:0:0:0:
175,312,44852,1,8,0:0:0:0:
0,0,45173,1,0,0:0:0:0:
337,312,45495,1,10,0:0:0:0:
256,0,45816,6,0,L|256:128,1,100,0|0,0:0|0:0,0:0:0:0:
256,150,46057,1,0,0:0:0:0:
256,199,46137,2,0,L|256:327,1,100,8|0,0:0|0:0,0:0:0:0:
127,99,46459,1,0,0:0:0:0:
385,99,46619,1,0,0:0:0:0:
144,245,46780,1,8,0:0:0:0:
368,245,46940,1,0,0:0:0:0:
81,368,47101,6,0,L|17:257,1,100
256,352,47422,2,0,L|256:224,1,100,8|0,0:0|0:0,0:0:0:0:
431,368,47744,2,0,L|495:257,1,100
256,352,48065,2,0,L|256:198,1,150,10|0,0:3|0:0,0:0:0:0:
0,0,48386,5,4,0:0:0:0:
219,13,48547,1,8,0:1:0:0:
169,10,48628,1,0,0:0:0:0:
120,7,48708,1,0,0:0:0:0:
338,20,48868,1,8,0:1:0:0:
53,107,49028,5,0,0:0:0:0:
272,120,49189,1,8,0:1:0:0:
222,117,49270,1,0,0:0:0:0:
173,114,49350,1,0,0:0:0:0:
391,127,49511,1,8,0:1:0:0:
106,214,49671,5,0,0:0:0:0:
325,227,49832,1,8,0:1:0:0:
275,224,49912,1,0,0:0:0:0:
226,221,49993,1,0,0:0:0:0:
444,234,50153,1,8,0:1:0:0:
159,321,50314,6,0,L|390:335,1,200,8|2,0:1|0:0,0:0:0:0:
477,340,50796,2,0,L|485:255,1,50,8|8,0:1|0:1,0:0:0:0:
512,0,50957,5,0,0:0:0:0:
293,13,51118,1,8,0:1:0:0:
343,10,51199,1,0,0:0:0:0:
392,7,51278,1,0,0:0:0:0:
174,20,51439,1,8,0:1:0:0:
459,107,51599,5,0,0:0:0:0:
459,107,51760,1,8,0:1:0:0:
121,127,51920,1,0,0:0:0:0:
121,127,52082,1,8,0:1:0:0:
406,214,52242,5,0,0:0:0:0:
187,227,52403,1,8,0:1:0:0:
237,224,52483,1,0,0:0:0:0:
286,221,52564,1,0,0:0:0:0:
68,234,52724,1,8,0:1:0:0:
353,321,52885,6,0,L|121:335,1,200,8|8,0:1|0:3,0:0:0:0:
35,340,53366,2,0,L|27:255,1,50,8|8,0:1|0:1,0:0:0:0:
55,2,53527,5,0,0:0:0:0:
45,171,53687,1,8,0:1:0:0:
45,171,53769,1,0,0:0:0:0:
45,171,53848,1,0,0:0:0:0:
35,340,54009,1,8,0:1:0:0:
177,4,54169,5,0,0:0:0:0:
167,173,54329,1,8,0:1:0:0:
167,173,54411,1,8,0:1:0:0:
167,173,54491,1,0,0:0:0:0:
157,342,54651,1,8,0:1:0:0:
299,6,54812,5,0,0:0:0:0:
292,126,54973,1,8,0:1:0:0:
289,175,55052,1,8,0:1:0:0:
286,225,55133,1,0,0:0:0:0:
279,344,55294,1,8,0:1:0:0:
421,8,55455,6,0,L|407:240,1,200,8|2,0:1|0:0,0:0:0:0:
35,340,56097,5,0,0:0:0:0:
33,123,56258,1,8,0:1:0:0:
17,171,56338,1,8,0:1:0:0:
10,221,56418,1,0,0:0:0:0:
108,30,56579,1,8,0:1:0:0:
124,259,56740,5,0,0:0:0:0:
230,71,56901,1,8,0:1:0:0:
192,104,56981,1,8,0:1:0:0:
161,143,57061,1,0,0:0:0:0:
342,27,57222,1,8,0:1:0:0:
241,233,57382,5,8,0:3:0:0:
427,124,57543,1,8,0:1:0:0:
378,133,57623,1,8,0:1:0:0:
332,152,57703,1,8,0:3:0:0:
490,20,57864,1,8,0:1:0:0:
325,322,58025,6,0,P|413:276|512:274,1,200,8|8,0:3|0:3,0:0:0:0:
511,273,58507,2,0,L|429:255,1,50,8|8,0:1|0:1,0:0:0:0:
35,340,58667,5,4,0:3:0:0:
304,356,58828,1,8,0:1:0:0:
255,354,58908,1,8,0:1:0:0:
206,352,58989,1,8,0:0:0:0:
477,364,59149,1,8,0:1:0:0:
79,232,59310,5,0,0:0:0:0:
79,232,59471,1,8,0:1:0:0:
433,252,59631,1,8,0:0:0:0:
433,252,59792,1,8,0:1:0:0:
35,120,59953,5,0,0:0:0:0:
304,136,60113,1,8,0:1:0:0:
255,134,60194,1,8,0:1:0:0:
206,132,60274,1,8,0:0:0:0:
477,144,60435,1,8,0:1:0:0:
108,13,60595,6,0,L|350:24,1,200,8|10,0:1|0:0,0:0:0:0:
451,46,61077,2,0,L|446:100,1,50,8|8,0:1|0:1,0:0:0:0:
255,354,61238,5,0,0:0:0:0:
98,173,61398,1,8,0:1:0:0:
96,223,61479,1,8,0:1:0:0:
123,264,61559,1,8,0:0:0:0:
108,13,61720,1,8,0:1:0:0:
255,354,61880,5,0,0:0:0:0:
255,354,62041,1,8,0:1:0:0:
256,48,62202,1,8,0:0:0:0:
256,48,62362,1,8,0:1:0:0:
255,354,62523,5,0,0:0:0:0:
412,173,62683,1,8,0:1:0:0:
414,223,62764,1,8,0:1:0:0:
387,264,62844,1,8,0:0:0:0:
402,13,63005,1,8,0:1:0:0:
167,276,63165,6,0,P|255:237|343:278,1,200,8|8,0:1|0:3,0:3:0:0:
82,364,63647,2,0,L|19:353,1,50,8|8,0:1|0:1,0:0:0:0:
29,100,63808,5,0,0:0:0:0:
29,100,63969,1,8,0:1:0:0:
29,100,64049,1,8,0:1:0:0:
29,100,64129,1,8,0:0:0:0:
29,100,64290,1,8,0:1:0:0:
152,77,64451,5,0,0:0:0:0:
135,145,64611,1,8,0:1:0:0:
138,131,64692,1,8,0:1:0:0:
142,116,64772,1,8,0:0:0:0:
125,184,64933,1,8,0:1:0:0:
275,54,65093,5,0,0:0:0:0:
238,188,65253,1,8,0:1:0:0:
246,160,65334,1,8,0:1:0:0:
253,133,65414,1,8,0:0:0:0:
218,266,65575,1,8,0:1:0:0:
402,13,65736,5,0,0:0:0:0:
342,235,65896,1,8,0:1:0:0:
354,188,65977,1,8,0:1:0:0:
368,142,66057,1,10,0:0:0:0:
308,363,66218,1,8,0:1:0:0:
29,100,66378,5,14,0:0:0:0:
480,192,66539,1,8,0:1:0:0:
29,284,66700,1,8,0:1:0:0:
402,13,66860,5,14,0:0:0:0:
484,363,67021,1,0,0:0:0:0:
45,280,67181,1,8,0:1:0:0:
487,111,67342,2,0,P|502:158|491:206,1,100,14|8,0:0|0:1,0:0:0:0:
28,342,67663,5,14,0:0:0:0:
256,0,67824,1,8,0:1:0:0:
484,342,67985,1,14,0:0:0:0:
256,0,68145,1,8,0:1:0:0:
256,368,68306,5,14,0:0:0:0:
