osu file format v14

[General]
AudioFilename: audio.mp3
AudioLeadIn: 0
PreviewTime: 4557
Countdown: 0
SampleSet: Soft
StackLeniency: 0.3
Mode: 0
LetterboxInBreaks: 0
WidescreenStoryboard: 1

[Editor]
Bookmarks: 7072,27634,48196
DistanceSpacing: 1
BeatDivisor: 4
GridSize: 32
TimelineZoom: 1

[Metadata]
Title:Gourmet Race
TitleUnicode:プププランドステージ
Artist:Ando Hirokazu
ArtistUnicode:安藤浩和
Creator:gary00737
Version:Pata-Mon's Insane
Source:ニンテンドウオールスター!大乱闘スマッシュブラザーズ
Tags:Ultimate Stickfab kanor Kirby Super Star GodKei Yugu Pata-Mon walaowey Cris- Video Game Instrumental 激突!グルメレース Super Smash Bros. 64 石川淳 Ishikawa Jun nintendo 任天堂
BeatmapID:3307042
BeatmapSetID:1608572

[Difficulty]
HPDrainRate:5
CircleSize:5
OverallDifficulty:7
ApproachRate:8
SliderMultiplier:1.92
SliderTickRate:1

[Events]
//Background and Video events
Video,0,"01.mp4"
0,0,"pata.jpg",0,0
//Break Periods
//Storyboard Layer 0 (Background)
//Storyboard Layer 1 (Fail)
//Storyboard Layer 2 (Pass)
//Storyboard Layer 3 (Foreground)
//Storyboard Layer 4 (Overlay)
//Storyboard Sound Samples
Sample,354,0,"soundeffect.wav",100

[TimingPoints]
4692,321.285140562249,4,2,23,40,1,0
4692,-100,4,2,23,40,0,0
5977,-83.3333333333333,4,2,25,40,0,0
6940,-166.666666666667,4,2,25,40,0,0
7262,-100,4,2,23,40,0,0
17222,-166.666666666667,4,2,25,40,0,0
17543,-100,4,2,23,40,0,0
27824,-250,4,2,24,30,0,0
28467,-166.666666666667,4,2,24,30,0,0
29109,-125,4,2,24,30,0,0
29752,-166.666666666667,4,2,24,30,0,0
30394,-250,4,2,24,30,0,0
31037,-166.666666666667,4,2,24,30,0,0
31679,-125,4,2,24,30,0,0
32965,-100,4,2,23,40,0,0
35535,-95.4929658551372,4,2,23,40,0,0
35696,-100,4,2,0,5,0,0
35776,-100,4,2,23,40,0,0
36177,-95.4929658551372,4,2,23,40,0,0
36499,-100,4,2,23,40,0,0
36820,-95.4929658551372,4,2,23,40,0,0
37463,-100,4,2,23,40,0,0
37704,-100,4,2,0,5,0,0
37784,-100,4,2,23,40,0,0
38105,-250,4,2,24,30,0,0
38748,-166.666666666667,4,2,24,30,0,0
39390,-125,4,2,24,30,0,0
40033,-166.666666666667,4,2,24,30,0,0
40675,-250,4,2,24,30,0,0
41318,-166.666666666667,4,2,24,30,0,0
41961,-125,4,2,24,30,0,0
43246,-100,4,2,23,40,0,0
44049,-100,4,2,0,5,0,0
44129,-100,4,2,23,40,0,0
45977,-100,4,2,0,5,0,0
46057,-100,4,2,23,40,0,0
47342,-100,4,2,0,5,0,0
47422,-100,4,2,23,40,0,0
47824,-100,4,2,0,5,0,0
48065,-100,4,2,23,40,0,0
66378,-100,4,2,25,40,0,0
66539,-100,4,2,23,40,0,0
66860,-100,4,2,25,40,0,0
67021,-100,4,2,23,40,0,0
67342,-100,4,2,25,40,0,0
67503,-100,4,2,23,40,0,0

[Colours]
Combo1 : 255,89,89
Combo2 : 0,204,102
Combo3 : 55,155,255

[HitObjects]
351,144,4692,6,0,P|383:107|446:87,1,96,10|0,0:0|0:0,0:0:0:0:
387,275,5013,1,2,0:0:0:0:
304,227,5173,1,2,0:0:0:0:
208,227,5334,1,2,0:0:0:0:
125,275,5495,1,2,0:0:0:0:
161,144,5655,2,0,P|129:107|66:87,1,96,10|0,0:0|0:0,0:0:0:0:
387,275,5977,6,0,P|413:193|455:153,1,115.199996484375,6|0,0:0|0:0,0:0:0:0:
256,192,6298,2,0,L|256:69,1,115.199996484375,6|0,0:0|0:0,0:0:0:0:
125,275,6619,2,0,P|99:193|57:153,1,115.199996484375,6|0,0:0|0:0,0:0:0:0:
260,288,6940,6,0,B|268:302|256:314|256:314|244:302|252:288,1,57.5999982421876,10|0,0:0|0:0,0:0:0:0:
422,192,7262,6,0,L|339:144,1,96,6|0,0:0|0:0,0:0:0:0:
256,192,7583,1,8,0:0:0:0:
256,192,7744,1,0,0:0:0:0:
90,192,7904,2,0,L|173:144,1,96,2|0,0:0|0:0,0:0:0:0:
256,192,8226,1,8,0:0:0:0:
256,192,8386,1,0,0:0:0:0:
90,288,8547,6,0,L|173:240,1,96,2|0,0:0|0:0,0:0:0:0:
422,288,8868,2,0,L|339:240,1,96,2|0,0:0|0:0,0:0:0:0:
256,384,9189,2,0,L|256:288,2,96,2|0|8,0:0|0:0|0:0,0:0:0:0:
256,192,9671,1,0,0:0:0:0:
387,157,9832,6,0,L|373:252,1,96,2|0,0:0|0:0,0:0:0:0:
304,109,10153,2,0,L|318:14,1,96,10|0,0:0|0:0,0:0:0:0:
125,157,10475,2,0,L|139:252,1,96,2|0,0:0|0:0,0:0:0:0:
208,109,10796,2,0,L|194:14,1,96,10|0,0:0|0:0,0:0:0:0:
44,238,11117,6,0,L|139:252,1,96,2|0,0:0|0:0,0:0:0:0:
373,252,11438,2,0,L|468:238,1,96,2|0,0:0|0:0,0:0:0:0:
208,185,11760,2,0,L|304:185,2,96,2|0|8,0:0|0:0|0:0,0:0:0:0:
256,89,12242,1,0,0:0:0:0:
304,275,12402,6,0,L|318:370,1,96,2|0,0:0|0:0,0:0:0:0:
387,227,12724,1,8,0:0:0:0:
387,227,12884,1,0,0:0:0:0:
208,275,13045,2,0,L|194:370,1,96,2|0,0:0|0:0,0:0:0:0:
125,227,13366,1,8,0:0:0:0:
125,227,13527,1,0,0:0:0:0:
339,144,13687,6,0,L|422:96,1,96,2|0,0:0|0:0,0:0:0:0:
173,144,14009,2,0,L|90:96,1,96,2|0,0:0|0:0,0:0:0:0:
256,288,14330,2,0,L|256:384,1,96,2|0,0:0|0:0,0:0:0:0:
173,240,14651,1,8,0:0:0:0:
339,240,14812,1,0,0:0:0:0:
256,96,14973,6,0,L|256:0,1,96,2|0,0:0|0:0,0:0:0:0:
173,144,15294,2,0,L|173:240,1,96,10|0,0:0|0:0,0:0:0:0:
339,240,15615,2,0,L|339:144,1,96,2|0,0:0|0:0,0:0:0:0:
256,288,15936,2,0,L|256:384,1,96,10|0,0:0|0:0,0:0:0:0:
173,144,16258,6,0,L|90:96,1,96,2|0,0:0|0:0,0:0:0:0:
339,144,16579,2,0,L|422:96,1,96,2|0,0:0|0:0,0:0:0:0:
256,288,16900,2,0,L|256:384,1,96,2|0,0:0|0:0,0:0:0:0:
260,192,17222,6,0,B|268:178|256:166|256:166|244:178|252:192,1,57.5999982421876,10|0,0:0|0:0,0:0:0:0:
327,352,17543,6,0,P|401:328|480:208,1,192,6|8,0:0|0:0,0:0:0:0:
256,288,18025,1,0,0:0:0:0:
185,352,18185,2,0,P|111:328|32:208,1,192,2|8,0:0|0:0,0:0:0:0:
256,288,18667,1,0,0:0:0:0:
166,257,18828,6,0,P|134:223|114:178,1,96,2|0,0:0|0:0,0:0:0:0:
346,257,19149,2,0,P|378:223|398:178,1,96,2|0,0:0|0:0,0:0:0:0:
208,125,19471,2,0,P|265:191|304:125,1,192,2|8,0:0|0:0,0:0:0:0:
256,42,19953,1,0,0:0:0:0:
398,178,20113,6,0,P|378:223|346:257,1,96,2|0,0:0|0:0,0:0:0:0:
166,257,20434,2,0,P|134:223|114:178,1,96,10|0,0:0|0:0,0:0:0:0:
346,257,20756,2,0,P|378:291|398:336,1,96,2|0,0:0|0:0,0:0:0:0:
114,336,21077,2,0,P|134:291|166:257,1,96,10|0,0:0|0:0,0:0:0:0:
398,178,21398,6,0,P|378:223|346:257,1,96,2|0,0:0|0:0,0:0:0:0:
166,257,21720,2,0,P|134:223|114:178,1,96,2|0,0:0|0:0,0:0:0:0:
304,125,22041,2,0,P|247:191|208:125,1,192,2|8,0:0|0:0,0:0:0:0:
256,42,22523,1,0,0:0:0:0:
448,51,22683,6,0,P|388:131|304:125,1,192,2|8,0:0|0:0,0:0:0:0:
256,42,23165,1,0,0:0:0:0:
64,51,23326,2,0,P|124:131|208:125,1,192,2|8,0:0|0:0,0:0:0:0:
256,42,23808,1,0,0:0:0:0:
168,280,23969,6,0,P|83:274|41:225,1,96,2|0,0:0|0:0,0:0:0:0:
344,280,24290,2,0,P|338:365|289:407,1,96,10|0,0:0|0:0,0:0:0:0:
344,104,24611,2,0,P|429:110|471:159,1,96,2|0,0:0|0:0,0:0:0:0:
168,104,24932,2,0,P|174:19|223:-23,1,96,10|0,0:0|0:0,0:0:0:0:
344,104,25254,6,0,P|168:104|168:280,1,96,2|0,0:0|0:0,0:0:0:0:
168,280,25575,2,0,P|344:280|344:104,1,96,10|0,0:0|0:0,0:0:0:0:
168,104,25896,2,0,P|168:280|344:280,1,96,2|0,0:0|0:0,0:0:0:0:
344,280,26218,2,0,P|344:104|168:104,1,96,10|0,0:0|0:0,0:0:0:0:
217,169,26539,6,0,P|288:225|295:169,2,192,2|8|2,0:0|0:0|0:0,0:0:0:0:
256,0,27503,2,0,L|256:96,1,96,8|0,0:0|0:0,0:0:0:0:
256,336,27824,6,0,P|237:327|231:311,1,38.4,6|8,0:0|0:0,0:0:0:0:
281,311,28145,2,0,P|275:327|256:336,1,38.4,10|8,0:0|0:0,0:0:0:0:
154,294,28467,6,0,P|165:267|185:247,1,57.5999982421876,6|8,0:0|0:0,0:0:0:0:
327,247,28788,2,0,P|347:267|358:294,1,57.5999982421876,10|8,0:0|0:0,0:0:0:0:
149,183,29109,6,0,P|132:149|127:111,1,76.8,6|8,0:0|0:0,0:0:0:0:
385,111,29430,2,0,P|380:149|363:183,1,76.8,10|8,0:0|0:0,0:0:0:0:
154,294,29752,6,0,P|165:267|185:247,1,57.5999982421876,6|8,0:0|0:0,0:0:0:0:
327,247,30073,2,0,P|347:267|358:294,1,57.5999982421876,10|8,0:0|0:0,0:0:0:0:
256,336,30394,6,0,P|237:327|231:311,1,38.4,6|8,0:0|0:0,0:0:0:0:
281,311,30716,2,0,P|275:327|256:336,1,38.4,10|8,0:0|0:0,0:0:0:0:
154,294,31037,6,0,P|165:267|185:247,1,57.5999982421876,6|8,0:0|0:0,0:0:0:0:
327,247,31358,2,0,P|347:267|358:294,1,57.5999982421876,10|8,0:0|0:0,0:0:0:0:
149,183,31679,6,0,P|132:149|127:111,1,76.8,6|8,0:0|0:0,0:0:0:0:
385,111,32001,2,0,P|380:149|363:183,1,76.8,10|8,0:0|0:0,0:0:0:0:
217,144,32322,6,0,P|281:67|295:144,1,230.4,6|0,0:0|0:0,0:0:0:0:
140,201,32965,6,0,P|113:82|162:0,1,192,2|8,0:0|0:0,0:0:0:0:
228,239,33447,1,2,0:0:0:0:
151,296,33607,2,0,P|78:273|46:220,1,96,2|0,0:0|0:0,0:0:0:0:
217,144,33928,1,10,0:0:0:0:
228,239,34089,1,2,0:0:0:0:
294,87,34250,6,0,P|367:110|399:162,1,96,2|0,0:0|0:0,0:0:0:0:
217,144,34571,2,0,P|211:39|258:-2,1,96,2|0,0:0|0:0,0:0:0:0:
305,182,34892,2,0,P|179:232|129:182,1,192,2|8,0:0|0:0,0:0:0:0:
398,226,35535,6,0,P|385:274|350:309,1,100.530965080046,2|0,0:0|0:0,0:0:0:0:
327,312,35776,1,2,0:0:0:0:
304,315,35856,1,10,0:0:0:0:
256,232,36017,1,2,0:0:0:0:
256,136,36177,2,0,P|269:88|304:53,1,100.530965080046,2|0,0:0|0:0,0:0:0:0:
173,184,36499,1,10,0:0:0:0:
77,184,36659,1,2,0:0:0:0:
304,53,36820,6,0,P|291:101|256:136,1,100.530965080046,2|0,0:0|0:0,0:0:0:0:
77,184,37141,2,0,P|125:171|173:184,1,100.530965080046,2|0,0:0|0:0,0:0:0:0:
345,328,37463,2,0,P|304:315|256:232,1,144,2|0,0:0|0:0,0:0:0:0:
256,232,37784,2,0,L|352:232,1,96,10|0,0:0|0:0,0:0:0:0:
256,108,38105,6,0,P|237:117|231:133,1,38.4,6|8,0:0|0:0,0:0:0:0:
281,133,38426,2,0,P|275:117|256:108,1,38.4,10|8,0:0|0:0,0:0:0:0:
154,150,38748,6,0,P|165:177|185:197,1,57.5999982421876,6|8,0:0|0:0,0:0:0:0:
327,197,39069,2,0,P|347:177|358:150,1,57.5999982421876,10|8,0:0|0:0,0:0:0:0:
149,261,39390,6,0,P|132:295|127:333,1,76.8,6|8,0:0|0:0,0:0:0:0:
385,333,39712,2,0,P|380:295|363:261,1,76.8,10|8,0:0|0:0,0:0:0:0:
154,150,40033,6,0,P|165:177|185:197,1,57.5999982421876,6|8,0:0|0:0,0:0:0:0:
327,197,40354,2,0,P|347:177|358:150,1,57.5999982421876,10|8,0:0|0:0,0:0:0:0:
256,108,40675,6,0,P|237:117|231:133,1,38.4,6|8,0:0|0:0,0:0:0:0:
281,133,40997,2,0,P|275:117|256:108,1,38.4,10|8,0:0|0:0,0:0:0:0:
154,150,41318,6,0,P|165:177|185:197,1,57.5999982421876,6|8,0:0|0:0,0:0:0:0:
327,197,41639,2,0,P|347:177|358:150,1,57.5999982421876,10|8,0:0|0:0,0:0:0:0:
149,261,41961,6,0,P|132:295|127:333,1,76.8,6|8,0:0|0:0,0:0:0:0:
385,333,42282,2,0,P|380:295|363:261,1,76.8,10|8,0:0|0:0,0:0:0:0:
217,300,42603,6,0,P|281:377|295:300,1,230.4,6|0,0:0|0:0,0:0:0:0:
161,150,43246,6,0,B|256:136|256:136|351:150,1,192,2|8,0:0|0:0,0:0:0:0:
256,233,43728,1,2,0:0:0:0:
304,52,43888,2,0,L|399:66,1,96,2|0,0:0|0:0,0:0:0:0:
416,83,44129,1,2,0:0:0:0:
433,100,44210,1,10,0:0:0:0:
351,150,44370,1,2,0:0:0:0:
208,52,44531,6,0,L|113:66,1,96,2|0,0:0|0:0,0:0:0:0:
113,227,44852,2,0,L|208:241,1,96,2|0,0:0|0:0,0:0:0:0:
304,143,45173,2,0,L|399:157,1,96,2|0,0:0|0:0,0:0:0:0:
399,318,45495,2,0,L|304:332,1,96,10|0,0:0|0:0,0:0:0:0:
113,227,45816,6,0,L|127:132,1,96,2|0,0:0|0:0,0:0:0:0:
147,117,46057,1,2,0:0:0:0:
166,102,46137,1,10,0:0:0:0:
202,191,46298,1,2,0:0:0:0:
129,361,46459,1,2,0:0:0:0:
188,286,46619,1,2,0:0:0:0:
372,264,46780,1,10,0:0:0:0:
277,250,46940,1,2,0:0:0:0:
393,121,47101,6,0,L|365:311,1,144,2|0,0:0|0:0,0:0:0:0:
372,264,47422,2,0,L|358:169,1,96,2|0,0:0|0:0,0:0:0:0:
337,26,47744,2,0,L|351:121,1,48,2|0,0:0|0:0,0:0:0:0:
256,286,48065,6,0,B|240:239|272:239|256:192,1,96,10|0,0:0|0:0,0:0:0:0:
256,54,48386,6,0,P|216:77|216:123,1,96,6|8,0:0|0:0,0:0:0:0:
296,123,48627,1,0,0:0:0:0:
296,123,48708,2,0,P|296:77|256:54,1,96,0|8,0:0|0:0,0:0:0:0:
136,261,49029,6,0,P|176:284|216:261,1,96,2|8,0:0|0:0,0:0:0:0:
176,192,49270,1,0,0:0:0:0:
176,192,49350,2,0,P|136:215|136:261,1,96,0|8,0:0|0:0,0:0:0:0:
376,261,49671,6,0,P|376:215|336:192,1,96,2|8,0:0|0:0,0:0:0:0:
296,261,49912,1,0,0:0:0:0:
296,261,49993,2,0,P|336:284|376:261,1,96,0|8,0:0|0:0,0:0:0:0:
167,363,50314,6,0,B|217:366|256:334|256:334|295:366|345:363,1,192,10|8,0:0|0:0,0:0:0:0:
438,338,50796,1,0,0:0:0:0:
427,316,50876,1,0,0:0:0:0:
416,294,50957,6,0,P|404:248|416:202,1,96,2|8,0:0|0:0,0:0:0:0:
416,110,51198,1,0,0:0:0:0:
416,110,51278,2,0,P|428:156|416:202,1,96,0|8,0:0|0:0,0:0:0:0:
256,202,51599,5,2,0:0:0:0:
336,156,51760,1,8,0:0:0:0:
176,156,51920,1,2,0:0:0:0:
256,110,52081,1,8,0:0:0:0:
96,110,52242,6,0,P|84:156|96:202,1,96,2|8,0:0|0:0,0:0:0:0:
96,294,52483,1,0,0:0:0:0:
96,294,52563,2,0,P|108:248|96:202,1,96,0|8,0:0|0:0,0:0:0:0:
180,333,52884,6,0,B|232:337|256:384|256:384|280:337|332:333,1,192,10|8,0:0|0:0,0:0:0:0:
360,245,53366,1,0,0:0:0:0:
353,222,53447,1,0,0:0:0:0:
346,199,53527,6,0,P|346:153|386:130,1,96,2|8,0:0|0:0,0:0:0:0:
426,199,53768,1,0,0:0:0:0:
426,199,53848,2,0,P|426:153|386:130,1,96,0|8,0:0|0:0,0:0:0:0:
216,64,54169,6,0,P|216:110|256:133,1,96,2|8,0:0|0:0,0:0:0:0:
296,64,54410,1,0,0:0:0:0:
296,64,54491,2,0,P|296:110|256:133,1,96,0|8,0:0|0:0,0:0:0:0:
86,199,54812,6,0,P|86:153|126:130,1,96,2|8,0:0|0:0,0:0:0:0:
166,199,55053,1,0,0:0:0:0:
166,199,55133,2,0,P|166:153|126:130,1,96,0|8,0:0|0:0,0:0:0:0:
126,268,55455,6,0,P|167:279|216:261,1,96,2|8,0:0|0:0,0:0:0:0:
296,123,55776,2,0,P|345:105|386:116,1,96,2|8,0:0|0:0,0:0:0:0:
166,199,56097,6,0,P|215:181|256:192,1,96,2|8,0:0|0:0,0:0:0:0:
166,199,56338,1,0,0:0:0:0:
166,199,56418,2,0,P|117:217|76:206,1,96,0|8,0:0|0:0,0:0:0:0:
307,266,56740,6,0,P|266:233|256:192,1,96,2|8,0:0|0:0,0:0:0:0:
307,266,56981,1,0,0:0:0:0:
307,266,57061,2,0,P|348:299|358:340,1,96,0|8,0:0|0:0,0:0:0:0:
294,110,57382,6,0,P|286:161|256:192,1,96,2|8,0:0|0:0,0:0:0:0:
294,110,57623,1,0,0:0:0:0:
294,110,57704,2,0,P|302:59|332:28,1,96,0|8,0:0|0:0,0:0:0:0:
307,266,58025,6,0,P|236:328|205:266,1,192,10|8,0:0|0:0,0:0:0:0:
465,195,58507,1,0,0:0:0:0:
468,218,58587,1,0,0:0:0:0:
471,241,58667,5,6,0:0:0:0:
396,301,58828,2,0,L|410:396,2,48,8|0|0,0:0|0:0|0:0,0:0:0:0:
307,266,59149,1,8,0:0:0:0:
368,111,59310,5,2,0:0:0:0:
368,111,59471,1,8,0:0:0:0:
382,206,59631,1,2,0:0:0:0:
457,146,59792,1,8,0:0:0:0:
307,266,59953,5,2,0:0:0:0:
396,301,60113,2,0,L|410:396,2,48,8|0|0,0:0|0:0|0:0,0:0:0:0:
471,241,60434,1,8,0:0:0:0:
307,266,60595,6,0,P|236:328|205:266,1,192,10|8,0:0|0:0,0:0:0:0:
47,195,61077,1,0,0:0:0:0:
44,218,61157,1,0,0:0:0:0:
41,241,61238,5,2,0:0:0:0:
116,301,61398,2,0,L|102:396,2,48,8|0|0,0:0|0:0|0:0,0:0:0:0:
205,266,61720,1,8,0:0:0:0:
144,111,61880,5,2,0:0:0:0:
144,111,62041,1,8,0:0:0:0:
130,206,62202,1,2,0:0:0:0:
55,146,62362,1,8,0:0:0:0:
205,266,62523,5,2,0:0:0:0:
116,301,62683,2,0,L|102:396,2,48,8|0|0,0:0|0:0|0:0,0:0:0:0:
41,241,63005,1,8,0:0:0:0:
205,266,63165,6,0,P|276:328|307:266,1,192,10|8,0:0|0:0,0:0:0:0:
179,98,63647,1,0,0:0:0:0:
176,121,63728,1,0,0:0:0:0:
173,144,63808,5,2,0:0:0:0:
118,223,63969,2,0,L|23:237,2,48,8|0|0,0:0|0:0|0:0,0:0:0:0:
205,266,64290,1,8,0:0:0:0:
339,144,64451,5,2,0:0:0:0:
394,223,64611,2,0,L|489:237,2,48,8|0|0,0:0|0:0|0:0,0:0:0:0:
307,266,64932,1,8,0:0:0:0:
173,144,65093,5,2,0:0:0:0:
256,96,65254,2,0,L|256:32,2,48,8|0|0,0:0|0:0|0:0,0:0:0:0:
339,144,65575,1,8,0:0:0:0:
256,288,65736,5,2,0:0:0:0:
256,288,65896,1,8,0:0:0:0:
256,192,66057,1,2,0:0:0:0:
256,96,66218,1,8,0:0:0:0:
173,240,66378,5,6,0:0:0:0:
256,192,66539,1,8,0:0:0:0:
173,144,66700,1,0,0:0:0:0:
339,240,66860,5,6,0:0:0:0:
256,192,67021,1,8,0:0:0:0:
339,144,67181,1,0,0:0:0:0:
256,288,67342,5,6,0:0:0:0:
256,192,67503,1,8,0:0:0:0:
173,336,67663,5,6,0:0:0:0:
339,336,67824,1,8,0:0:0:0:
256,192,67985,1,0,0:0:0:0:
173,48,68145,1,10,0:0:0:0:
339,48,68306,1,10,0:0:0:0:
