osu file format v14

[General]
AudioFilename: audio.mp3
AudioLeadIn: 0
PreviewTime: 4557
Countdown: 0
SampleSet: Soft
StackLeniency: 0.7
Mode: 0
LetterboxInBreaks: 0
WidescreenStoryboard: 1

[Editor]
Bookmarks: 15104,18959,29722,48196,58477
DistanceSpacing: 0.9
BeatDivisor: 2
GridSize: 16
TimelineZoom: 1

[Metadata]
Title:Gourmet Race
TitleUnicode:プププランドステージ
Artist:Ando Hirokazu
ArtistUnicode:安藤浩和
Creator:gary00737
Version:Normal
Source:ニンテンドウオールスター!大乱闘スマッシュブラザーズ
Tags:Ultimate Stickfab kanor Kirby Super Star GodKei Yugu Pata-Mon walaowey Cris- Video Game Instrumental 激突!グルメレース Super Smash Bros. 64 石川淳 Ishikawa Jun nintendo 任天堂
BeatmapID:3287542
BeatmapSetID:1608572

[Difficulty]
HPDrainRate:3
CircleSize:2.5
OverallDifficulty:5
ApproachRate:5
SliderMultiplier:1.27
SliderTickRate:1

[Events]
//Background and Video events
Video,0,"01.mp4"
0,0,"bg.jpg",0,0
//Break Periods
//Storyboard Layer 0 (Background)
//Storyboard Layer 1 (Fail)
//Storyboard Layer 2 (Pass)
//Storyboard Layer 3 (Foreground)
//Storyboard Layer 4 (Overlay)
//Storyboard Sound Samples
Sample,354,0,"soundeffect.wav",100

[TimingPoints]
4692,321.285140562249,4,2,1,60,1,0

[Colours]
Combo1 : 255,89,89
Combo2 : 0,204,102
Combo3 : 55,155,255

[HitObjects]
465,181,4692,6,0,P|503:255|475:315,1,127,4|8,0:3|0:0,0:0:0:0:
444,324,5173,1,0,0:0:0:0:
444,324,5334,2,0,P|375:316|296:308,1,127,0|8,0:0|0:0,0:0:0:0:
208,277,5977,2,0,P|215:233|225:196,2,63.5,6|0|6,0:0|0:3|0:0,0:0:0:0:
214,333,6459,1,0,3:3:0:0:
214,333,6619,2,0,P|172:289|76:288,1,127,6|2,0:0|0:3,0:0:0:0:
21,352,7262,6,0,P|10:246|-1:190,1,127,0|8,0:0|0:0,0:0:0:0:
32,114,7904,2,0,P|75:158|137:169,1,127,0|8,0:0|0:0,0:0:0:0:
208,78,8547,2,0,P|243:93|274:95,1,63.5,0|0,0:0|0:0,0:0:0:0:
294,145,8868,2,0,P|329:130|360:128,1,63.5,8|0,0:0|0:0,0:0:0:0:
405,153,9189,1,0,0:0:0:0:
496,362,9832,6,0,P|401:346|333:337,1,127,0|8,0:0|0:0,0:0:0:0:
258,319,10475,1,0,0:0:0:0:
146,295,10796,1,8,0:0:0:0:
49,234,11117,2,0,P|32:300|51:360,2,127,0|8|0,0:0|0:0|0:0,0:0:0:0:
121,145,12081,1,8,0:3:0:0:
50,55,12402,6,0,B|75:44|75:44|202:49,1,127,0|8,0:0|0:0,0:0:0:0:
287,29,13045,2,0,P|352:68|427:61,1,127,0|8,0:0|0:0,0:0:0:0:
497,7,13687,1,0,0:0:0:0:
497,121,14009,1,8,0:0:0:0:
497,235,14330,1,0,0:0:0:0:
497,349,14651,2,0,P|465:335|426:328,1,63.5,10|0,0:0|0:0,0:0:0:0:
396,288,14973,6,0,P|332:334|266:323,1,127,0|8,0:0|0:0,0:0:0:0:
197,260,15615,2,0,P|189:181|231:129,1,127,0|8,0:0|0:0,0:0:0:0:
320,101,16258,2,0,P|391:133|415:196,2,127,0|8|0,0:0|0:0|0:0,0:0:0:0:
94,62,17543,6,0,B|61:67|31:59|31:59|19:102|-21:129,1,127,0|8,0:0|0:0,0:0:0:0:
28,223,18185,2,0,B|38:243|81:255|81:255|73:285|78:318,1,127,0|8,0:0|0:0,0:0:0:0:
189,289,18828,2,0,P|230:277|274:279,1,63.5,0|0,0:0|0:0,0:0:0:0:
301,302,19149,2,0,P|342:314|386:312,1,63.5,8|0,0:0|0:0,0:0:0:0:
415,291,19471,1,0,0:0:0:0:
424,62,20113,6,0,P|341:37|290:59,1,127,0|8,0:0|0:0,0:0:0:0:
237,140,20756,1,0,0:0:0:0:
142,76,21077,1,8,0:0:0:0:
45,137,21398,2,0,P|28:71|47:11,2,127,0|8|0,0:0|0:0|0:0,0:0:0:0:
126,219,22362,1,8,0:3:0:0:
78,322,22683,6,0,B|94:313|94:313|189:328|189:328|206:319,1,127,0|8,0:0|0:0,0:0:0:0:
309,361,23326,2,0,P|343:307|415:298,1,127,0|8,0:0|0:0,0:0:0:0:
501,350,23969,1,0,0:0:0:0:
499,235,24289,1,8,0:0:0:0:
497,120,24611,1,0,0:0:0:0:
495,5,24932,1,10,0:0:0:0:
397,65,25254,6,0,P|283:54|226:48,1,127,2|10,0:0|0:0,0:0:0:0:
166,6,25896,2,0,P|155:120|149:177,1,127,2|10,0:0|0:0,0:0:0:0:
69,209,26539,2,0,B|172:142|253:233|253:233|334:321|434:252,1,381,2|8,0:0|0:3,0:0:0:0:
501,197,27824,6,0,L|494:358,2,127,4|8|4,0:0|0:0|0:0,0:0:0:0:
509,86,28788,1,8,0:0:0:0:
402,44,29109,2,0,B|362:27|362:27|295:62|227:42,1,127,4|8,0:0|0:0,0:0:0:0:
173,13,29752,1,4,0:0:0:0:
73,68,30073,1,8,0:0:0:0:
114,175,30394,6,0,P|34:167|-42:161,2,127,4|8|4,0:0|0:0|0:0,0:0:0:0:
227,187,31358,1,8,0:0:0:0:
340,197,31679,2,0,P|327:253|316:329,2,127,4|8|4,0:0|0:0|0:0,0:0:0:0:
482,22,32965,6,0,P|508:90|483:168,1,127,4|8,0:3|0:0,0:0:0:0:
467,189,33447,1,0,0:0:0:0:
467,189,33607,2,0,P|441:257|466:335,1,127,0|8,0:0|0:0,0:0:0:0:
494,345,34089,1,0,0:0:0:0:
494,345,34250,2,0,P|429:339|345:334,1,127,0|8,0:0|0:0,0:0:0:0:
253,326,34892,2,0,P|188:320|104:315,1,127,0|8,0:0|0:0,0:0:0:0:
37,244,35535,6,0,P|93:200|154:208,1,127,0|8,0:0|0:0,0:0:0:0:
200,234,36017,1,0,0:0:0:0:
200,234,36177,2,0,P|204:153|207:102,1,127,0|8,0:0|0:0,0:0:0:0:
187,59,36659,1,0,0:0:0:0:
187,59,36820,2,0,P|252:100|310:82,1,127,0|8,0:0|0:0,0:0:0:0:
381,10,37463,1,0,0:0:0:0:
483,59,37784,1,10,0:3:0:0:
398,136,38105,6,0,P|392:193|385:280,2,127,4|8|4,0:0|0:0|0:0,0:0:0:0:
295,85,39069,1,8,0:0:0:0:
187,47,39390,2,0,B|138:26|138:26|80:36|59:89,1,127,4|8,0:0|0:0,0:0:0:0:
44,171,40033,1,4,0:0:0:0:
98,271,40354,1,8,0:0:0:0:
207,238,40675,6,0,P|201:295|194:382,2,127,4|8|4,0:0|0:0|0:0,0:0:0:0:
311,190,41639,1,8,0:0:0:0:
412,137,41961,2,0,P|426:197|404:256,2,127,4|8|4,0:0|0:0|0:0,0:0:0:0:
190,85,43246,6,0,P|97:70|34:58,1,127,4|8,0:3|0:0,0:0:0:0:
12,61,43728,1,0,0:0:0:0:
12,61,43888,2,0,P|-8:129|2:188,1,127,0|8,0:0|0:0,0:0:0:0:
31,231,44370,1,0,0:0:0:0:
31,231,44531,2,0,P|93:221|156:210,1,127,0|8,0:0|0:0,0:0:0:0:
267,185,45173,1,0,0:0:0:0:
335,277,45495,1,10,0:0:0:0:
448,268,45816,6,0,P|457:193|471:119,1,127,0|8,0:0|0:0,0:0:0:0:
477,89,46298,1,0,0:0:0:0:
477,89,46459,2,0,P|428:102|394:101,1,63.5,0|0,0:0|0:0,0:0:0:0:
364,128,46780,2,0,P|315:115|281:116,1,63.5,8|0,0:0|0:0,0:0:0:0:
252,142,47101,2,0,P|266:54|274:-2,2,127,0|8|0,0:0|0:0|0:0,0:0:0:0:
233,255,48065,1,10,0:3:0:0:
134,312,48386,5,4,0:0:0:0:
41,243,48708,2,0,P|39:199|33:153,1,63.5,0|8,0:0|0:1,0:0:0:0:
11,128,49029,2,0,P|82:149|130:118,1,127,0|0,0:0|0:0,0:0:0:0:
154,75,49511,1,8,0:1:0:0:
154,75,49671,2,0,P|211:52|267:78,1,127,0|0,0:0|0:0,0:0:0:0:
290,130,50153,1,8,0:1:0:0:
290,130,50314,1,8,0:1:0:0:
383,65,50635,1,2,0:0:0:0:
496,51,50957,5,0,0:0:0:0:
485,164,51278,2,0,L|478:244,1,63.5,0|8,0:0|0:1,0:0:0:0:
485,284,51599,2,0,P|434:248|343:268,1,127,0|0,0:0|0:0,0:0:0:0:
331,291,52081,1,8,0:1:0:0:
331,291,52242,2,0,P|280:326|217:324,1,127,0|0,0:0|0:0,0:0:0:0:
178,282,52724,1,8,0:1:0:0:
178,282,52884,1,8,0:1:0:0:
73,327,53206,1,8,0:3:0:0:
20,225,53527,5,0,0:0:0:0:
38,112,53848,2,0,P|73:104|126:107,1,63.5,0|8,0:0|0:1,0:0:0:0:
136,58,54169,2,0,P|174:114|256:123,1,127,0|0,0:0|0:0,0:0:0:0:
288,117,54651,1,8,0:1:0:0:
288,117,54812,1,0,0:0:0:0:
391,68,55133,2,0,L|386:144,1,63.5,0|8,0:0|0:1,0:0:0:0:
431,167,55455,2,0,P|456:215|428:300,1,127,8|2,0:1|0:0,0:0:0:0:
347,347,56097,6,0,P|270:335|210:331,1,127,0|0,0:0|0:0,0:0:0:0:
178,367,56579,1,8,0:1:0:0:
178,367,56740,2,0,P|150:342|56:327,1,127,0|0,0:0|0:0,0:0:0:0:
25,367,57222,1,8,0:1:0:0:
25,367,57382,2,0,L|18:233,1,127,8|8,0:3|0:3,0:0:0:0:
17,187,57864,1,8,0:1:0:0:
17,187,58025,1,8,0:3:0:0:
5,73,58346,1,8,0:3:0:0:
108,120,58667,6,0,P|169:104|231:89,1,127,4|8,0:3|0:0,0:0:0:0:
288,72,59149,1,8,0:1:0:0:
288,72,59310,2,0,L|275:-18,2,63.5,0|8|8,0:0|0:1|0:0,0:0:0:0:
313,183,59953,1,0,0:0:0:0:
425,201,60274,2,0,L|438:111,2,63.5,8|8|8,0:0|0:1|0:1,0:0:0:0:
474,303,60916,1,10,0:0:0:0:
375,359,61238,6,0,P|321:324|252:332,1,127,0|8,0:0|0:0,0:0:0:0:
221,369,61720,1,8,0:1:0:0:
221,369,61880,2,0,L|208:279,1,63.5,0|8,0:0|0:1,0:0:0:0:
162,277,62202,2,0,L|175:187,1,63.5,8|8,0:0|0:1,0:0:0:0:
183,158,62523,1,0,0:0:0:0:
174,44,62844,2,0,L|236:53,1,63.5,8|8,0:0|0:1,0:0:0:0:
293,62,63165,1,8,0:1:0:0:
406,78,63487,1,8,0:3:0:0:
477,166,63808,6,0,P|419:193|339:169,1,127,0|8,0:0|0:0,0:0:0:0:
311,162,64290,1,8,0:1:0:0:
311,162,64451,2,0,L|317:257,2,63.5,0|8|8,0:0|0:1|0:0,0:0:0:0:
214,222,65093,2,0,B|199:229|199:229|71:208,1,127,0|8,0:0|0:0,0:0:0:0:
34,198,65575,1,8,0:1:0:0:
34,198,65736,2,0,L|44:274,2,63.5,0|8|10,0:0|0:1|0:0,0:0:0:0:
12,85,66378,6,0,L|3:22,2,63.5,14|8|8,0:0|0:1|0:1,0:0:0:0:
68,76,66860,2,0,L|106:25,2,63.5,14|8|8,0:0|0:1|0:1,0:0:0:0:
125,73,67342,2,0,L|187:64,1,63.5,14|8,0:0|0:1,0:0:0:0:
235,97,67663,6,0,L|297:88,1,63.5,14|8,0:0|0:1,0:0:0:0:
350,111,67985,2,0,L|412:102,1,63.5,14|8,0:0|0:1,0:0:0:0:
469,93,68306,1,14,0:0:0:0:
