osu file format v14

[General]
AudioFilename: audio.mp3
AudioLeadIn: 0
PreviewTime: 4557
Countdown: 0
SampleSet: Soft
StackLeniency: 0.7
Mode: 0
LetterboxInBreaks: 0
WidescreenStoryboard: 0

[Editor]
Bookmarks: 15104,18959
DistanceSpacing: 1.1
BeatDivisor: 4
GridSize: 16
TimelineZoom: 1

[Metadata]
Title:Gourmet Race
TitleUnicode:プププランドステージ
Artist:Ando Hirokazu
ArtistUnicode:安藤浩和
Creator:gary00737
Version:Expert
Source:ニンテンドウオールスター!大乱闘スマッシュブラザーズ
Tags:Ultimate Stickfab kanor Kirby Super Star GodKei Yugu Pata-Mon walaowey Cris- Video Game Instrumental 激突!グルメレース Super Smash Bros. 64 石川淳 Ishikawa Jun nintendo 任天堂
BeatmapID:3284630
BeatmapSetID:1608572

[Difficulty]
HPDrainRate:6
CircleSize:3
OverallDifficulty:8
ApproachRate:9.3
SliderMultiplier:1.87
SliderTickRate:1

[Events]
//Background and Video events
Video,0,"01.mp4"
0,0,"bg.jpg",0,0
//Break Periods
//Storyboard Layer 0 (Background)
//Storyboard Layer 1 (Fail)
//Storyboard Layer 2 (Pass)
//Storyboard Layer 3 (Foreground)
//Storyboard Layer 4 (Overlay)
//Storyboard Sound Samples
Sample,354,0,"soundeffect.wav",100

[TimingPoints]
4692,321.285140562249,4,2,1,60,1,0
7021,-100,4,2,1,5,0,0
7101,-100,4,2,1,60,0,0

[Colours]
Combo1 : 255,89,89
Combo2 : 0,204,102
Combo3 : 55,155,255

[HitObjects]
64,43,4692,6,0,P|22:116|57:179,1,140.25,4|0,0:3|0:0,0:0:0:0:
67,188,5013,2,0,P|129:182|167:179,1,93.5,8|0,0:0|0:0,0:0:0:0:
256,175,5334,1,0,0:0:0:0:
256,175,5495,1,0,0:0:0:0:
203,354,5655,2,0,P|209:292|212:254,1,93.5,8|0,0:0|0:0,0:0:0:0:
299,89,5977,5,6,0:0:0:0:
204,94,6138,1,0,0:3:0:0:
307,251,6298,1,6,0:0:0:0:
350,168,6459,1,0,3:3:0:0:
160,179,6619,1,6,0:0:0:0:
206,306,6780,1,0,0:0:0:0:
206,306,6860,1,0,0:0:0:0:
206,306,6940,2,0,P|209:283|211:260,1,46.75,2|0,0:3|0:0,0:0:0:0:
211,260,7262,6,0,P|185:302|84:327,1,140.25,0|0,0:0|0:0,0:0:0:0:
86,320,7583,2,0,P|79:273|73:227,1,93.5,8|0,0:0|0:0,0:0:0:0:
480,276,7904,2,0,P|454:318|353:343,1,140.25,0|0,0:0|0:0,0:0:0:0:
355,336,8225,2,0,P|348:289|342:243,1,93.5,8|0,0:0|0:0,0:0:0:0:
0,86,8547,6,0,P|7:132|13:179,1,93.5,0|0,0:0|0:0,0:0:0:0:
256,15,8868,2,0,L|256:127,1,93.5,8|0,0:0|0:0,0:0:0:0:
511,86,9189,2,0,P|504:132|499:179,1,93.5,0|0,0:0|0:0,0:0:0:0:
480,276,9511,1,10,0:0:0:0:
480,276,9671,1,0,0:0:0:0:
306,329,9832,6,0,P|336:294|380:281,1,93.5,0|0,0:0|0:0,0:0:0:0:
130,281,10153,2,0,P|174:294|204:328,1,93.5,8|0,0:0|0:0,0:0:0:0:
349,133,10475,2,0,P|313:180|298:233,1,93.5,0|0,0:0|0:0,0:0:0:0:
163,133,10796,2,0,P|199:180|214:233,1,93.5,8|0,0:0|0:0,0:0:0:0:
256,0,11117,6,0,L|256:118,1,93.5,0|0,0:0|0:0,0:0:0:0:
402,350,11438,2,0,P|371:317|290:305,1,93.5,8|0,0:0|0:0,0:0:0:0:
110,350,11760,2,0,P|141:317|222:305,1,93.5,0|0,0:0|0:0,0:0:0:0:
256,192,12081,1,8,0:3:0:0:
256,192,12242,1,0,0:0:0:0:
30,242,12402,6,0,P|3:159|29:113,1,140.25,0|0,0:0|0:0,0:0:0:0:
49,101,12724,2,0,P|99:96|152:91,1,93.5,8|0,0:0|0:0,0:0:0:0:
482,242,13045,2,0,P|509:159|483:113,1,140.25,0|0,0:0|0:0,0:0:0:0:
463,101,13367,2,0,P|413:96|360:91,1,93.5,8|0,0:0|0:0,0:0:0:0:
124,342,13687,6,0,P|133:275|143:206,1,93.5,0|0,0:0|0:0,0:0:0:0:
388,342,14009,2,0,P|379:275|369:206,1,93.5,8|0,0:0|0:0,0:0:0:0:
256,0,14330,2,0,L|256:118,1,93.5,0|0,0:0|0:0,0:0:0:0:
256,353,14651,1,10,0:0:0:0:
256,353,14812,1,0,0:0:0:0:
152,163,14973,6,0,P|88:154|30:146,1,93.5,0|0,0:0|0:0,0:0:0:0:
360,163,15294,2,0,P|424:154|482:146,1,93.5,8|0,0:0|0:0,0:0:0:0:
98,245,15615,2,0,P|144:251|191:258,1,93.5
413,245,15936,2,0,P|367:251|321:258,1,93.5,8|0,0:0|0:0,0:0:0:0:
202,125,16258,6,0,P|188:77|208:26,1,93.5,0|0,0:0|0:0,0:0:0:0:
311,36,16579,2,0,P|324:81|310:125,1,93.5,8|0,0:0|0:0,0:0:0:0:
165,222,16900,2,0,P|126:198|103:158,1,93.5,0|0,0:0|0:0,0:0:0:0:
408,158,17222,2,0,P|385:198|346:222,1,93.5,8|0,0:3|0:0,0:0:0:0:
26,364,17543,6,0,B|-13:328|5:258|5:258|43:235,1,140.25,4|0,0:0|0:0,0:0:0:0:
42,251,17864,2,0,L|150:237,1,93.5,8|0,0:0|0:0,0:0:0:0:
486,364,18185,2,0,B|525:328|507:258|507:258|469:235,1,140.25,0|0,0:0|0:0,0:0:0:0:
470,251,18506,2,0,L|362:237,1,93.5,8|0,0:0|0:0,0:0:0:0:
122,147,18828,6,0,P|107:98|130:41,1,93.5,0|0,0:0|0:0,0:0:0:0:
394,58,19149,2,0,P|404:103|390:147,1,93.5,8|0,0:0|0:0,0:0:0:0:
255,368,19471,2,0,L|255:253,1,93.5,0|0,0:0|0:0,0:0:0:0:
256,24,19792,1,10,0:0:0:0:
256,24,19953,1,0,0:0:0:0:
130,235,20113,6,0,P|98:184|105:115,1,93.5,0|0,0:0|0:0,0:0:0:0:
416,151,20434,2,0,P|409:197|382:235,1,93.5,8|0,0:0|0:0,0:0:0:0:
38,331,20756,2,0,P|23:278|30:234,1,93.5,0|0,0:0|0:0,0:0:0:0:
484,240,21077,2,0,P|488:286|474:331,1,93.5,8|0,0:0|0:0,0:0:0:0:
155,44,21398,6,0,P|194:19|240:17,1,93.5,0|0,0:0|0:0,0:0:0:0:
356,339,21720,2,0,P|317:364|271:366,1,93.5,8|0,0:0|0:0,0:0:0:0:
220,198,22041,2,0,P|220:184|222:204,1,187,0|8,0:0|0:3,0:0:0:0:
468,101,22523,1,0,0:0:0:0:
220,198,22683,6,0,B|146:187|160:243|69:221,1,140.25,4|0,0:0|0:0,0:0:0:0:
67,212,23005,2,0,P|71:284|73:331,1,93.5,8|0,0:0|0:0,0:0:0:0:
468,101,23326,2,0,B|394:90|408:146|317:124,1,140.25,0|0,0:0|0:0,0:0:0:0:
315,115,23648,2,0,P|319:187|321:234,1,93.5,8|0,0:0|0:0,0:0:0:0:
44,58,23969,6,0,P|79:28|124:21,1,93.5,0|0,0:0|0:0,0:0:0:0:
169,108,24290,2,0,P|133:137|88:144,1,93.5,8|0,0:0|0:0,0:0:0:0:
44,326,24611,6,0,P|79:355|124:362,1,93.5,0|0,0:0|0:0,0:0:0:0:
169,276,24932,2,0,P|133:246|88:239,1,93.5,10|0,0:0|0:0,0:0:0:0:
386,361,25254,6,0,P|432:354|468:325,1,93.5,2|0,0:0|0:0,0:0:0:0:
423,239,25575,2,0,P|378:245|342:276,1,93.5,10|0,0:0|0:0,0:0:0:0:
468,58,25896,6,0,P|432:28|386:21,1,93.5,2|0,0:0|0:0,0:0:0:0:
342,107,26217,2,0,P|378:137|424:143,1,93.5,10|0,0:0|0:0,0:0:0:0:
256,24,26539,5,2,0:0:0:0:
256,24,26700,1,0,0:0:0:0:
115,232,26860,2,0,P|102:188|88:143,1,93.5,10|0,0:0|0:0,0:0:0:0:
256,360,27181,5,2,0:0:0:0:
256,360,27342,1,0,0:0:0:0:
423,143,27503,2,0,P|409:188|397:232,1,93.5,8|0,0:3|0:0,0:0:0:0:
115,232,27824,6,0,P|167:178|246:183,1,140.25,4|0,0:0|0:0,0:0:0:0:
228,175,28145,2,0,P|213:219|201:264,1,93.5,8|0,0:0|0:0,0:0:0:0:
17,303,28467,2,0,P|-5:228|20:157,1,140.25,4|0,0:0|0:0,0:0:0:0:
11,170,28788,2,0,P|31:111|6:50,1,93.5,8|0,0:0|0:0,0:0:0:0:
228,175,29109,6,0,P|315:174|358:96,1,140.25,4|0,0:0|0:0,0:0:0:0:
348,138,29430,2,0,P|356:79|361:20,1,93.5,8|0,0:0|0:0,0:0:0:0:
507,163,29752,2,0,P|496:246|489:330,1,140.25,4|0,0:0|0:0,0:0:0:0:
479,312,30073,2,0,P|495:345|506:310,1,93.5,8|0,0:0|0:0,0:0:0:0:
272,368,30394,6,0,P|187:360|109:355,1,140.25,4|0,0:0|0:0,0:0:0:0:
132,356,30716,1,8,0:0:0:0:
45,357,30876,1,0,0:0:0:0:
16,164,31037,6,0,P|101:172|179:177,1,140.25,4|0,0:0|0:0,0:0:0:0:
155,176,31359,1,8,0:0:0:0:
103,267,31519,1,0,0:0:0:0:
66,60,31679,6,0,P|124:65|177:68,1,93.5,4|0,0:0|0:0,0:0:0:0:
446,60,32001,2,0,P|387:65|334:68,1,93.5,8|0,0:0|0:0,0:0:0:0:
256,336,32322,2,0,B|320:192|192:192|268:51,1,280.5,4|0,0:0|0:0,0:0:0:0:
487,257,32965,6,0,P|402:254|374:150,1,187,4|8,0:3|0:0,0:0:0:0:
446,60,33447,1,0,0:0:0:0:
367,168,33607,2,0,P|308:162|255:159,1,93.5,0|0,0:0|0:0,0:0:0:0:
131,144,33928,1,8,0:0:0:0:
131,144,34089,1,0,0:0:0:0:
284,373,34250,6,0,P|316:316|296:254,1,93.5,0|0,0:0|0:0,0:0:0:0:
167,233,34571,2,0,P|135:290|155:352,1,93.5,8|0,0:0|0:0,0:0:0:0:
233,115,34892,2,0,P|229:208|225:302,1,187,0|10,0:0|0:0,0:0:0:0:
233,115,35535,6,0,P|276:140|325:137,1,93.5,0|0,0:0|0:0,0:0:0:0:
340,127,35776,1,0,0:0:0:0:
340,127,35856,2,0,P|386:127|425:151,1,93.5,8|0,0:0|0:0,0:0:0:0:
487,257,36177,2,0,P|484:312|481:367,1,93.5,0|0,0:0|0:0,0:0:0:0:
136,316,36499,1,8,0:0:0:0:
355,221,36659,1,0,0:0:0:0:
243,334,36820,6,0,P|187:331|132:328,1,93.5,0|0,0:0|0:0,0:0:0:0:
3,174,37141,2,0,P|49:176|96:178,1,93.5,8|0,0:0|0:0,0:0:0:0:
43,373,37463,2,0,P|45:327|47:280,1,93.5,0|0,0:0|0:0,0:0:0:0:
203,134,37784,2,0,P|200:189|197:244,1,93.5,10|0,0:3|0:0,0:0:0:0:
482,315,38105,6,0,P|404:253|357:267,1,140.25,4|0,0:0|0:0,0:0:0:0:
355,270,38426,2,0,P|352:325|349:380,1,93.5,8|0,0:0|0:0,0:0:0:0:
140,310,38748,2,0,P|218:248|265:262,1,140.25,4|0,0:0|0:0,0:0:0:0:
267,265,39069,2,0,P|264:320|261:375,1,93.5,8|0,0:0|0:0,0:0:0:0:
492,29,39390,6,0,P|425:20|369:66,1,140.25,4|0,0:0|0:0,0:0:0:0:
361,81,39712,2,0,P|358:136|355:191,1,93.5,8|0,0:0|0:0,0:0:0:0:
143,23,40033,2,0,P|210:14|266:60,1,140.25,4|0,0:0|0:0,0:0:0:0:
274,75,40354,2,0,P|271:130|268:185,1,93.5,8|0,0:0|0:0,0:0:0:0:
120,360,40675,6,0,P|123:281|127:203,1,140.25,4|0,0:0|0:0,0:0:0:0:
126,219,40997,1,8,0:0:0:0:
135,116,41157,1,0,0:0:0:0:
392,360,41318,2,0,P|388:281|384:203,1,140.25,4|0,0:0|0:0,0:0:0:0:
385,219,41640,1,8,0:0:0:0:
377,116,41800,1,0,0:0:0:0:
127,110,41961,6,0,P|53:90|2:84,1,93.5,4|0,0:0|0:0,0:0:0:0:
385,110,42282,2,0,P|459:90|510:84,1,93.5,8|0,0:0|0:0,0:0:0:0:
256,336,42603,2,0,B|192:192|320:192|247:49,1,280.5,4|0,0:0|0:0,0:0:0:0:
94,110,43246,6,0,P|99:44|73:105,1,187,4|8,0:3|0:0,0:0:0:0:
139,188,43728,1,0,0:0:0:0:
59,268,43888,2,0,P|53:314|47:360,1,93.5,0|0,0:0|0:0,0:0:0:0:
212,259,44210,1,8,0:0:0:0:
20,177,44370,1,0,0:0:0:0:
297,11,44531,6,0,P|290:89|286:137,1,93.5,0|0,0:0|0:0,0:0:0:0:
474,174,44852,2,0,P|396:167|348:163,1,93.5,8|0,0:0|0:0,0:0:0:0:
311,351,45173,2,0,P|318:273|322:225,1,93.5,0|0,0:0|0:0,0:0:0:0:
124,127,45495,2,0,P|120:166|118:190,3,46.75,10|0|0|0,0:0|0:0|0:0|0:0,0:0:0:0:
134,188,45816,6,0,P|211:195|259:199,1,93.5,0|0,0:0|0:0,0:0:0:0:
227,196,46057,1,0,0:0:0:0:
227,196,46137,2,0,P|222:242|218:289,1,93.5,8|0,0:0|0:0,0:0:0:0:
210,381,46459,1,0,0:0:0:0:
110,327,46619,1,0,0:0:0:0:
326,359,46780,1,8,0:0:0:0:
203,384,46940,1,0,0:0:0:0:
442,337,47101,6,0,P|430:276|440:337,2,187,0|8|0,0:0|0:0|0:0,0:0:0:0:
441,306,48065,1,10,0:3:0:0:
441,306,48386,5,4,0:0:0:0:
366,211,48547,1,8,0:1:0:0:
366,211,48627,1,0,0:0:0:0:
366,211,48708,2,0,P|372:146|377:108,1,93.5,0|8,0:0|0:1,0:0:0:0:
400,10,49029,1,0,0:0:0:0:
256,82,49189,1,8,0:1:0:0:
256,82,49270,1,0,0:0:0:0:
256,82,49350,1,0,0:0:0:0:
112,10,49511,1,8,0:1:0:0:
136,118,49672,6,0,P|142:164|146:211,1,93.5,0|8,0:0|0:1,0:0:0:0:
146,211,49913,1,0,0:0:0:0:
146,211,49993,1,0,0:0:0:0:
71,306,50154,1,8,0:1:0:0:
338,338,50314,2,0,P|255:375|172:338,1,187,8|2,0:1|0:0,0:0:0:0:
256,142,50796,1,8,0:1:0:0:
256,142,50876,1,8,0:1:0:0:
256,142,50957,6,0,L|256:274,1,93.5,0|8,0:0|0:1,0:0:0:0:
256,235,51198,1,0,0:0:0:0:
256,235,51278,1,0,0:0:0:0:
360,183,51438,1,8,0:1:0:0:
152,183,51599,1,0,0:0:0:0:
152,183,51760,1,8,0:1:0:0:
256,37,51920,1,0,0:0:0:0:
360,183,52081,1,8,0:1:0:0:
256,347,52242,5,0,0:0:0:0:
256,347,52402,1,8,0:1:0:0:
256,347,52483,1,0,0:0:0:0:
256,347,52563,2,0,P|310:338|358:333,1,93.5,0|8,0:0|0:1,0:0:0:0:
468,363,52884,2,0,P|514:296|466:197,1,187,8|8,0:1|0:3,0:0:0:0:
356,161,53366,1,8,0:1:0:0:
360,183,53446,1,8,0:1:0:0:
364,206,53526,5,0,0:0:0:0:
148,206,53687,1,8,0:1:0:0:
152,183,53767,1,8,0:1:0:0:
156,161,53848,2,0,L|292:161,1,93.5,0|8,0:0|0:1,0:0:0:0:
452,161,54169,1,0,0:0:0:0:
255,298,54330,1,8,0:1:0:0:
255,274,54410,1,8,0:1:0:0:
255,251,54490,1,0,0:0:0:0:
256,67,54651,1,8,0:1:0:0:
156,161,54812,6,0,P|83:150|45:144,1,93.5,0|8,0:0|0:1,0:0:0:0:
40,144,55053,1,8,0:1:0:0:
40,144,55133,1,0,0:0:0:0:
129,35,55294,1,8,0:1:0:0:
365,237,55455,2,0,P|385:109|395:43,1,187,8|2,0:1|0:0,0:0:0:0:
383,35,56097,5,0,0:0:0:0:
256,122,56258,1,8,0:1:0:0:
256,122,56338,1,8,0:1:0:0:
256,122,56418,2,0,L|256:21,1,93.5,0|8,0:0|0:1,0:0:0:0:
345,249,56740,1,0,0:0:0:0:
167,249,56900,1,8,0:1:0:0:
167,249,56981,1,8,0:1:0:0:
167,249,57061,2,0,P|149:306|163:342,1,93.5,0|8,0:0|0:1,0:0:0:0:
352,336,57382,6,0,P|363:291|345:249,1,93.5,8|8,0:3|0:1,0:0:0:0:
345,249,57623,1,8,0:1:0:0:
345,249,57704,1,8,0:3:0:0:
256,89,57864,1,8,0:1:0:0:
256,295,58025,2,0,L|256:74,1,187,8|8,0:3|0:3,0:0:0:0:
76,89,58507,1,8,0:1:0:0:
76,89,58587,1,8,0:1:0:0:
76,89,58667,6,0,P|124:136|169:133,1,93.5,4|8,0:3|0:1,0:0:0:0:
147,138,58908,1,8,0:1:0:0:
147,138,58989,1,8,0:0:0:0:
256,47,59149,1,8,0:1:0:0:
436,89,59310,1,0,0:0:0:0:
256,235,59471,1,8,0:1:0:0:
369,325,59631,2,0,P|379:256|389:203,1,93.5,8|8,0:0|0:1,0:0:0:0:
143,325,59953,6,0,P|133:256|123:203,1,93.5,0|8,0:0|0:1,0:0:0:0:
128,232,60194,1,8,0:1:0:0:
128,232,60274,1,8,0:0:0:0:
76,89,60434,1,8,0:1:0:0:
337,100,60595,2,0,P|302:196|208:202,1,187,8|10,0:1|0:0,0:0:0:0:
228,20,61077,1,8,0:1:0:0:
228,20,61157,1,8,0:1:0:0:
228,20,61238,6,0,P|235:66|242:112,1,93.5,0|8,0:0|0:1,0:0:0:0:
242,112,61479,1,8,0:1:0:0:
242,112,61559,1,8,0:0:0:0:
301,298,61720,1,8,0:1:0:0:
128,232,61880,1,0,0:0:0:0:
128,232,62041,1,8,0:1:0:0:
352,165,62202,1,8,0:0:0:0:
93,97,62362,1,8,0:1:0:0:
155,357,62523,5,0,0:0:0:0:
155,357,62683,1,8,0:1:0:0:
155,357,62764,1,8,0:1:0:0:
155,357,62844,2,0,P|209:347|254:341,1,93.5,8|8,0:0|0:1,0:0:0:0:
486,330,63165,2,0,P|396:345|338:269,1,187,8|8,0:1|0:3,0:0:0:0:
369,111,63647,1,8,0:1:0:0:
366,134,63727,1,8,0:1:0:0:
363,157,63807,5,0,0:0:0:0:
143,111,63969,1,8,0:1:0:0:
146,134,64049,1,8,0:1:0:0:
149,157,64129,1,8,0:0:0:0:
165,259,64290,1,8,0:1:0:0:
256,52,64451,1,0,0:0:0:0:
302,262,64611,1,8,0:1:0:0:
279,262,64691,1,8,0:1:0:0:
256,262,64772,2,0,L|256:168,1,93.5,8|8,0:0|0:1,0:0:0:0:
474,99,65093,6,0,P|460:154|446:212,1,93.5,0|8,0:0|0:1,0:0:0:0:
451,189,65334,1,8,0:1:0:0:
451,189,65414,1,8,0:0:0:0:
256,52,65575,1,8,0:1:0:0:
60,189,65736,1,0,0:0:0:0:
60,189,65896,1,8,0:1:0:0:
60,189,65977,1,8,0:1:0:0:
60,189,66057,2,0,P|49:144|38:99,1,93.5,10|8,0:0|0:1,0:0:0:0:
95,310,66378,5,14,0:0:0:0:
256,234,66539,1,8,0:1:0:0:
417,310,66700,1,8,0:1:0:0:
464,34,66860,5,14,0:0:0:0:
256,234,67021,1,8,0:1:0:0:
48,34,67181,1,8,0:1:0:0:
360,139,67342,5,14,0:0:0:0:
152,139,67503,1,8,0:1:0:0:
499,253,67663,5,14,0:0:0:0:
256,44,67824,1,8,0:1:0:0:
13,253,67985,1,14,0:0:0:0:
464,34,68145,5,8,0:1:0:0:
48,34,68306,1,14,0:0:0:0:
