osu file format v14

[General]
AudioFilename: audio.mp3
AudioLeadIn: 0
PreviewTime: 4557
Countdown: 0
SampleSet: Soft
StackLeniency: 0.5
Mode: 0
LetterboxInBreaks: 0
WidescreenStoryboard: 1

[Editor]
DistanceSpacing: 0.41
BeatDivisor: 4
GridSize: 32
TimelineZoom: 1.7

[Metadata]
Title:Gourmet Race
TitleUnicode:プププランドステージ
Artist:Ando Hirokazu
ArtistUnicode:安藤浩和
Creator:gary00737
Version:Cris' Grand Prix
Source:ニンテンドウオールスター!大乱闘スマッシュブラザーズ
Tags:Ultimate Stickfab kanor Kirby Super Star GodKei Yugu Pata-Mon walaowey Cris- Video Game Instrumental 激突!グルメレース Super Smash Bros. 64 石川淳 Ishikawa Jun nintendo 任天堂
BeatmapID:3334672
BeatmapSetID:1608572

[Difficulty]
HPDrainRate:6
CircleSize:4.5
OverallDifficulty:8.8
ApproachRate:9.5
SliderMultiplier:2.6
SliderTickRate:1

[Events]
//Background and Video events
0,0,"iZK3K4G.jpeg",0,0
Video,0,"01.mp4"
//Break Periods
//Storyboard Layer 0 (Background)
//Storyboard Layer 1 (Fail)
//Storyboard Layer 2 (Pass)
//Storyboard Layer 3 (Foreground)
//Storyboard Layer 4 (Overlay)
//Storyboard Sound Samples
Sample,354,0,"soundeffect.wav",100

[TimingPoints]
4692,321.285140562249,4,2,1,60,1,0
4692,-66.6666666666667,4,2,1,60,0,0
4932,-66.6666666666667,4,2,1,60,0,0
5013,-66.6666666666667,4,2,1,60,0,0
6940,-1000,4,2,1,60,0,0
7181,-200,4,2,1,60,0,0
7262,-100,4,2,1,60,0,0
14571,-100,4,2,1,60,0,0
14651,-100,4,2,1,60,0,0
17141,-100,4,2,1,60,0,0
17222,-200,4,2,1,60,0,0
17543,-71.4285714285714,4,2,1,60,0,0
26539,-62.5,4,2,1,60,0,0
27824,-100,4,2,1,60,0,0
32965,-71.4285714285714,4,2,1,60,0,0
35133,-71.4285714285714,4,2,1,60,0,0
35214,-250,4,2,1,60,0,0
35535,-71.4285714285714,4,2,1,60,0,0
37704,-71.4285714285714,4,2,1,60,0,0
37784,-250,4,2,1,60,0,0
38105,-100,4,2,1,60,0,0
43246,-71.4285714285714,4,2,1,60,0,0
48306,-71.4285714285714,4,2,1,60,0,0
48386,-62.5,4,2,1,60,0,1
58346,-62.5,4,2,1,60,0,0
58667,-55.5555555555556,4,2,1,60,0,1
66057,-55.5555555555556,4,2,1,60,0,0
66378,-50,4,2,1,60,0,1
68306,-40,4,2,1,60,0,0

[Colours]
Combo1 : 255,89,89
Combo2 : 0,204,102
Combo3 : 55,155,255

[HitObjects]
137,116,4692,6,0,B|174:85|151:20|91:8|37:44|20:132|79:187,1,292.50001115799,4|0,0:3|0:0,0:0:0:0:
145,130,5013,5,8,0:0:0:0:
213,313,5173,1,0,0:0:0:0:
320,64,5334,5,0,0:0:0:0:
231,302,5494,1,0,0:0:0:0:
368,211,5655,6,0,P|288:239|285:156,1,195.00000743866,8|0,0:0|0:0,0:0:0:0:
399,371,5977,5,6,0:0:0:0:
98,230,6137,1,0,0:3:0:0:
144,314,6298,5,6,0:0:0:0:
444,173,6458,1,0,3:3:0:0:
126,323,6619,5,6,0:0:0:0:
204,384,6780,1,0,0:0:0:0:
213,380,6860,1,0,0:0:0:0:
222,376,6940,6,0,L|241:385,1,19.5,2|0,0:3|0:0,0:0:0:0:
325,336,7262,6,0,P|266:308|207:280,1,130,0|0,0:0|0:0,0:0:0:0:
444,173,7583,1,8,0:0:0:0:
432,182,7744,1,0,0:0:0:0:
203,50,7904,6,0,P|263:62|281:7,1,130,0|0,0:0|0:0,0:0:0:0:
340,257,8226,1,8,0:0:0:0:
352,248,8387,1,0,0:0:0:0:
86,125,8547,6,0,B|53:148|64:185|75:181|85:215|56:241,1,130,0|0,0:0|0:0,0:0:0:0:
270,114,8868,6,0,B|230:107|212:141|222:147|205:177|166:175,1,130,8|0,0:0|0:0,0:0:0:0:
506,278,9189,6,0,B|480:196|395:218|404:249|322:278|290:209,1,260,0|10,0:0|0:0,0:0:0:0:
289,208,9671,1,0,0:0:0:0:
33,384,9832,6,0,P|21:320|0:258,1,130,0|0,0:0|0:0,0:0:0:0:
41,105,10153,2,0,P|53:168|75:230,1,130,8|0,0:0|0:0,0:0:0:0:
231,384,10475,6,0,P|218:320|196:258,1,130,0|0,0:0|0:0,0:0:0:0:
237,53,10796,2,0,P|249:116|270:177,1,130,8|0,0:0|0:0,0:0:0:0:
427,384,11117,6,0,P|414:320|392:258,1,130,0|0,0:0|0:0,0:0:0:0:
436,0,11438,2,0,P|448:63|470:125,1,130,8|0,0:0|0:0,0:0:0:0:
231,384,11760,6,0,B|218:320|196:259|196:259|178:276|178:276|202:324|208:376,1,260,0|8,0:0|0:3,0:0:0:0:
208,376,12242,1,0,0:0:0:0:
351,126,12402,6,0,B|330:91|290:103|290:103|320:110|336:138,1,130,0|0,0:0|0:0,0:0:0:0:
100,246,12724,1,8,0:0:0:0:
117,238,12884,1,0,0:0:0:0:
205,43,13045,6,0,B|225:8|265:20|265:20|235:27|219:55,1,130
456,163,13367,1,8,0:0:0:0:
440,157,13527,1,0,0:0:0:0:
281,384,13687,6,0,P|290:324|345:335,1,130,0|0,0:0|0:0,0:0:0:0:
117,238,14009,6,0,P|163:275|126:317,1,130,8|0,0:0|0:0,0:0:0:0:
334,137,14330,6,0,P|272:188|268:111,1,195,0|0,0:0|0:0,0:0:0:0:
268,110,14651,1,10,0:0:0:0:
345,335,14812,1,0,0:0:0:0:
48,143,14973,6,0,B|82:134|82:134|109:80|109:80|141:72,1,130,0|0,0:0|0:0,0:0:0:0:
117,238,15294,2,0,B|84:224|84:224|64:167|64:167|33:155,1,130,8|0,0:0|0:0,0:0:0:0:
224,291,15615,6,0,B|258:299|258:299|285:353|285:353|317:361,1,130,0|0,0:0|0:0,0:0:0:0:
276,145,15936,2,0,B|243:158|243:158|223:215|223:215|192:227,1,130,8|0,0:0|0:0,0:0:0:0:
418,70,16258,6,0,B|452:61|452:61|479:7|479:7|511:0,1,130,0|0,0:0|0:0,0:0:0:0:
459,250,16579,2,0,B|426:237|426:237|406:179|406:179|376:168,1,130,8|0,0:0|0:0,0:0:0:0:
62,384,16900,6,0,P|69:300|146:332,1,195,0|0,0:0|0:0,0:0:0:0:
138,346,17222,6,0,P|108:330|113:304,1,65,8|0,0:3|0:0,0:0:0:0:
421,384,17543,6,0,B|429:341|390:329|390:329|347:349|347:349|344:355|344:355|291:379,1,181.999994445801,0|0,0:0|0:0,0:0:0:0:
474,285,17864,1,8,0:0:0:0:
280,384,18025,1,0,0:0:0:0:
421,90,18185,6,0,B|429:132|390:144|390:144|347:124|347:124|344:118|344:118|291:94,1,181.999994445801,0|0,0:0|0:0,0:0:0:0:
474,189,18506,1,8,0:0:0:0:
280,90,18667,1,0,0:0:0:0:
120,384,18828,6,0,B|110:343|140:316|140:316|88:276|47:329,1,181.999994445801,0|0,0:0|0:0,0:0:0:0:
316,226,19149,6,0,B|285:254|247:242|247:242|238:306|305:315,1,181.999994445801,8|0,0:0|0:0,0:0:0:0:
24,122,19471,6,0,B|70:116|117:163|103:222|103:222|178:208|206:112|129:61,1,363.999988891602,0|10,0:0|0:0,0:0:0:0:
19,130,19953,1,0,0:0:0:0:
401,251,20113,6,0,P|319:236|304:315,1,181.999994445801,0|0,0:0|0:0,0:0:0:0:
416,239,20434,2,0,P|498:254|513:175,1,181.999994445801,8|0,0:0|0:0,0:0:0:0:
282,64,20756,6,0,P|200:79|187:0,1,181.999994445801,0|0,0:0|0:0,0:0:0:0:
347,111,21077,2,0,P|429:96|442:175,1,181.999994445801,8|0,0:0|0:0,0:0:0:0:
162,319,21398,6,0,P|80:304|65:383,1,181.999994445801,0|0,0:0|0:0,0:0:0:0:
273,246,21719,2,0,P|355:261|370:182,1,181.999994445801,8|0,0:0|0:0,0:0:0:0:
5,60,22041,6,0,B|44:47|53:3|53:3|131:68|76:160|29:100|-16:184|31:246,1,363.999988891602,0|8,0:0|0:3,0:0:0:0:
0,51,22523,1,0,0:0:0:0:
293,168,22683,6,0,B|239:167|218:122|218:122|236:167|203:205,1,181.999994445801,0|0,0:0|0:0,0:0:0:0:
314,44,23005,1,8,0:0:0:0:
197,214,23165,1,0,0:0:0:0:
491,338,23326,6,0,B|437:337|416:292|416:292|434:337|401:375,1,181.999994445801,0|0,0:0|0:0,0:0:0:0:
512,214,23648,1,8,0:0:0:0:
396,384,23808,1,0,0:0:0:0:
195,111,23969,6,0,B|133:135|133:135|116:181|116:181|55:207,1,181.999994445801,0|0,0:0|0:0,0:0:0:0:
335,121,24290,6,0,B|274:95|274:95|257:49|257:49|196:25,1,181.999994445801,8|0,0:0|0:0,0:0:0:0:
336,288,24611,6,0,B|397:312|397:312|414:358|414:358|475:384,1,181.999994445801,0|0,0:0|0:0,0:0:0:0:
196,298,24932,6,0,B|257:272|257:272|274:226|274:226|335:201,1,181.999994445801,10|0,0:0|0:0,0:0:0:0:
46,384,25254,6,0,P|31:294|0:210,1,181.999994445801,2|0,0:0|0:0,0:0:0:0:
127,366,25575,2,0,P|112:276|81:192,1,181.999994445801,10|0,0:0|0:0,0:0:0:0:
466,0,25896,6,0,P|481:90|512:174,1,181.999994445801,2|0,0:0|0:0,0:0:0:0:
385,18,26217,2,0,P|400:108|431:192,1,181.999994445801,10|0,0:0|0:0,0:0:0:0:
117,105,26539,6,0,P|120:14|210:31,2,208,2|0|10,0:0|0:0|0:0,0:0:0:0:
202,40,27021,1,0,0:0:0:0:
395,279,27181,6,0,P|392:370|302:353,2,208,2|0|8,0:0|0:0|0:3,0:0:0:0:
310,344,27663,1,0,0:0:0:0:
21,183,27824,6,0,B|38:174|47:154|47:154|95:185|69:230,1,130,4|0,0:0|0:0,0:0:0:0:
120,313,28145,1,8,0:0:0:0:
120,313,28306,1,0,0:0:0:0:
187,64,28467,6,0,B|205:69|225:61|225:61|237:117|187:131,1,130,4|0,0:0|0:0,0:0:0:0:
165,225,28788,1,8,0:0:0:0:
165,225,28949,1,0,0:0:0:0:
388,97,29109,6,0,B|397:114|417:123|417:123|386:171|341:145,1,130,4|0,0:0|0:0,0:0:0:0:
259,195,29430,1,8,0:0:0:0:
259,195,29591,1,0,0:0:0:0:
507,262,29752,6,0,B|501:280|509:300|509:300|453:312|439:262,1,130,4|0,0:0|0:0,0:0:0:0:
347,241,30073,1,8,0:0:0:0:
347,241,30234,1,0,0:0:0:0:
50,356,30394,6,0,P|62:299|113:321,1,130,4|0,0:0|0:0,0:0:0:0:
187,384,30716,1,8,0:0:0:0:
187,384,30876,1,0,0:0:0:0:
410,276,31037,6,0,P|398:219|347:241,1,130,4|0,0:0|0:0,0:0:0:0:
273,304,31359,1,8,0:0:0:0:
273,304,31519,1,0,0:0:0:0:
50,196,31679,6,0,P|62:139|113:161,1,130,4|0,0:0|0:0,0:0:0:0:
187,224,32001,1,8,0:0:0:0:
187,224,32161,1,0,0:0:0:0:
410,116,32322,6,0,P|398:59|347:81,3,130,4|0|0|0,0:0|0:0|0:0|0:0,0:0:0:0:
255,383,32965,6,0,B|329:293|229:202|190:269|90:183|163:92,1,363.999988891602,4|8,0:3|0:0,0:0:0:0:
200,324,33447,1,0,0:0:0:0:
377,178,33607,6,0,B|253:121|253:121|220:151,1,181.999994445801,0|0,0:0|0:0,0:0:0:0:
59,321,33928,1,8,0:0:0:0:
219,152,34089,1,0,0:0:0:0:
48,334,34250,6,0,P|11:264|86:252,1,181.999994445801,0|0,0:0|0:0,0:0:0:0:
334,330,34571,6,0,P|243:337|168:384,1,181.999994445801,8|0,0:0|0:0,0:0:0:0:
318,76,34892,6,0,B|345:127|395:52|435:101|450:155|407:194|344:208|348:118|294:139,1,272.999991668701,0|0,0:0|0:0,0:0:0:0:
283,148,35214,2,0,P|278:172|297:189,1,52,10|0,0:0|0:0,0:0:0:0:
0,0,35535,6,0,P|44:78|64:167,1,181.999994445801,0|0,0:0|0:0,0:0:0:0:
22,245,35776,1,0,0:0:0:0:
51,277,35856,1,8,0:0:0:0:
162,146,36017,1,0,0:0:0:0:
284,375,36177,6,0,P|280:297|212:330,1,181.999994445801,0|0,0:0|0:0,0:0:0:0:
384,168,36499,1,8,0:0:0:0:
211,330,36659,1,0,0:0:0:0:
398,158,36820,6,0,B|416:142|416:142|415:107|381:94|381:94|383:86|383:86|344:74|343:38|343:38|358:26,1,181.999994445801,0|0,0:0|0:0,0:0:0:0:
199,219,37141,6,0,B|155:166|155:166|162:146|162:146|182:149|182:149|205:217,1,181.999994445801,8|0,0:0|0:0,0:0:0:0:
503,340,37463,6,0,B|462:323|427:349|452:386|400:424|329:399|319:328|350:301|377:286|406:296,1,272.999991668701
416,287,37784,2,0,P|424:260|410:244,1,52,10|0,0:3|0:0,0:0:0:0:
162,41,38105,6,0,P|99:61|38:80,1,130,4|0,0:0|0:0,0:0:0:0:
125,137,38426,1,8,0:0:0:0:
125,137,38587,1,0,0:0:0:0:
350,41,38748,6,0,P|412:61|473:80,1,130,4|0,0:0|0:0,0:0:0:0:
387,137,39069,1,8,0:0:0:0:
387,137,39230,1,0,0:0:0:0:
162,343,39390,6,0,P|99:322|38:303,1,130,4|0,0:0|0:0,0:0:0:0:
125,247,39711,1,8,0:0:0:0:
125,247,39872,1,0,0:0:0:0:
350,343,40033,6,0,P|412:322|473:303,1,130,4|0,0:0|0:0,0:0:0:0:
387,247,40354,1,8,0:0:0:0:
387,247,40515,1,0,0:0:0:0:
0,141,40675,6,0,P|55:129|58:186,1,130,4|0,0:0|0:0,0:0:0:0:
118,263,40996,1,8,0:0:0:0:
118,263,41157,1,0,0:0:0:0:
151,0,41318,6,0,P|198:30|160:73,1,130,4|0,0:0|0:0,0:0:0:0:
152,171,41639,1,8,0:0:0:0:
152,171,41800,1,0,0:0:0:0:
361,10,41961,6,0,P|372:65|315:68,1,130,4|0,0:0|0:0,0:0:0:0:
241,130,42281,1,8,0:0:0:0:
241,130,42442,1,0,0:0:0:0:
500,163,42603,6,0,P|469:210|426:172,3,130,4|0|0|0,0:0|0:0|0:0|0:0,0:0:0:0:
122,363,43246,6,0,B|74:356|69:306|69:306|126:254|214:287|174:348|236:406|304:366,1,363.999988891602,4|8,0:3|0:0,0:0:0:0:
94,165,43728,1,0,0:0:0:0:
341,250,43888,6,0,P|271:218|269:295,1,181.999994445801,0|0,0:0|0:0,0:0:0:0:
362,212,44129,1,0,0:0:0:0:
333,179,44209,1,8,0:0:0:0:
122,363,44370,1,0,0:0:0:0:
348,167,44531,6,0,B|241:123|241:123|227:87|260:67,1,181.999994445801,0|0,0:0|0:0,0:0:0:0:
401,340,44852,6,0,B|464:314|464:314|473:282|473:282|399:311,1,181.999994445801,8|0,0:0|0:0,0:0:0:0:
120,147,45173,6,0,B|113:184|132:196|140:234|81:256|52:204|78:178|103:181|120:147,1,181.999994445801,0|0,0:0|0:0,0:0:0:0:
456,43,45495,5,10,0:0:0:0:
379,18,45575,1,0,0:0:0:0:
333,83,45655,1,0,0:0:0:0:
380,148,45736,1,0,0:0:0:0:
456,123,45816,6,0,P|376:137|401:212,1,181.999994445801
474,310,46057,1,0,0:0:0:0:
474,310,46137,2,0,P|498:233|419:219,1,181.999994445801,8|0,0:0|0:0,0:0:0:0:
178,384,46459,5,0,0:0:0:0:
104,139,46619,1,0,0:0:0:0:
334,384,46780,1,8,0:0:0:0:
408,139,46940,1,0,0:0:0:0:
202,310,47101,6,0,B|246:288|256:241|256:241|265:288|309:310,2,181.999994445801,0|0|8,0:0|0:0|0:0,0:0:0:0:
256,384,47583,1,0,0:0:0:0:
256,0,47744,5,0,0:0:0:0:
256,0,48065,6,0,B|203:59|258:115|258:115|253:123|253:123|309:183|256:241,1,272.999991668701,10|0,0:3|0:0,0:0:0:0:
97,364,48386,5,4,0:0:0:0:
21,170,48547,1,8,0:1:0:0:
21,170,48627,1,0,0:0:0:0:
21,170,48708,1,0,0:0:0:0:
102,383,48868,1,8,0:1:0:0:
108,95,49029,5,0,0:0:0:0:
184,289,49190,1,8,0:1:0:0:
184,289,49270,1,0,0:0:0:0:
184,289,49351,1,0,0:0:0:0:
101,76,49511,1,8,0:1:0:0:
415,364,49671,5,0,0:0:0:0:
491,170,49832,1,8,0:1:0:0:
491,170,49912,1,0,0:0:0:0:
491,170,49993,1,0,0:0:0:0:
408,380,50153,1,8,0:1:0:0:
404,95,50314,6,0,P|366:191|328:288,2,208,8|0|2,0:1|0:0|0:0,0:0:0:0:
184,289,50795,5,8,0:1:0:0:
137,272,50876,1,8,0:1:0:0:
105,310,50956,1,0,0:0:0:0:
328,289,51117,1,8,0:1:0:0:
375,272,51198,1,0,0:0:0:0:
407,310,51278,1,0,0:0:0:0:
256,132,51438,1,8,0:1:0:0:
156,384,51599,5,0,0:0:0:0:
105,310,51760,1,8,0:1:0:0:
356,384,51920,1,0,0:0:0:0:
407,310,52081,1,8,0:1:0:0:
256,56,52242,5,0,0:0:0:0:
297,289,52402,1,8,0:1:0:0:
256,317,52482,1,0,0:0:0:0:
216,289,52563,1,0,0:0:0:0:
405,176,52724,1,8,0:1:0:0:
106,175,52884,6,0,P|41:107|107:39,2,208,8|0|8,0:1|0:0|0:3,0:0:0:0:
405,39,53366,5,8,0:1:0:0:
448,63,53447,1,8,0:1:0:0:
441,112,53527,1,0,0:0:0:0:
239,213,53687,1,8,0:1:0:0:
232,164,53767,1,8,0:1:0:0:
275,140,53848,1,0,0:0:0:0:
357,313,54009,1,8,0:1:0:0:
234,52,54169,5,0,0:0:0:0:
136,256,54330,1,8,0:1:0:0:
136,256,54410,1,8,0:1:0:0:
136,256,54491,1,0,0:0:0:0:
69,148,54651,1,8,0:1:0:0:
383,234,54812,5,0,0:0:0:0:
157,384,54973,1,8,0:1:0:0:
148,334,55053,1,8,0:1:0:0:
193,311,55134,1,0,0:0:0:0:
450,127,55294,1,8,0:1:0:0:
193,311,55455,6,0,P|96:272|-1:234,1,208,8|0,0:1|0:0,0:0:0:0:
205,304,55776,2,0,P|108:266|11:227,1,208,2|0,0:0|0:0,0:0:0:0:
493,308,56097,5,0,0:0:0:0:
299,384,56258,1,8,0:1:0:0:
299,384,56338,1,8,0:1:0:0:
299,384,56419,1,0,0:0:0:0:
512,303,56579,1,8,0:1:0:0:
224,297,56740,5,0,0:0:0:0:
418,221,56901,1,8,0:1:0:0:
418,221,56981,1,8,0:1:0:0:
418,221,57062,1,0,0:0:0:0:
205,304,57222,1,8,0:1:0:0:
19,76,57382,5,8,0:3:0:0:
213,0,57543,1,8,0:1:0:0:
213,0,57623,1,8,0:1:0:0:
213,0,57704,1,8,0:3:0:0:
0,81,57864,1,8,0:1:0:0:
288,87,58025,6,0,P|192:125|95:163,2,208,8|0|8,0:3|0:0|0:3,0:0:0:0:
36,384,58507,5,8,0:1:0:0:
18,337,58587,1,8,0:1:0:0:
67,344,58667,1,4,0:3:0:0:
278,228,58828,1,8,0:1:0:0:
260,275,58908,1,8,0:1:0:0:
229,235,58988,1,8,0:0:0:0:
18,119,59149,1,8,0:1:0:0:
256,246,59310,5,0,0:0:0:0:
191,339,59471,1,8,0:1:0:0:
92,106,59631,1,8,0:0:0:0:
180,15,59792,1,8,0:1:0:0:
321,344,59953,5,0,0:0:0:0:
420,106,60113,1,8,0:1:0:0:
370,110,60193,1,8,0:1:0:0:
399,151,60273,1,8,0:0:0:0:
328,328,60434,1,8,0:1:0:0:
181,104,60595,6,0,B|222:78|271:121|268:190|184:217|131:174,2,233.999992858887,8|0|10,0:1|0:0|0:0,0:0:0:0:
392,384,61077,5,8,0:1:0:0:
410,338,61157,1,8,0:1:0:0:
428,292,61238,1,0,0:0:0:0:
120,384,61398,1,8,0:1:0:0:
102,338,61478,1,8,0:1:0:0:
84,292,61559,1,8,0:0:0:0:
256,384,61720,1,8,0:1:0:0:
181,104,61880,5,0,0:0:0:0:
104,208,62041,1,8,0:1:0:0:
331,104,62202,1,8,0:0:0:0:
408,208,62363,1,8,0:1:0:0:
256,0,62523,5,0,0:0:0:0:
256,295,62683,1,8,0:1:0:0:
256,295,62764,1,8,0:1:0:0:
256,295,62844,1,8,0:0:0:0:
256,148,63005,1,8,0:1:0:0:
48,384,63165,2,0,B|-7:314|-7:314|2:288|2:288|27:292|27:292|57:379,2,233.999992858887,8|0|8,0:1|0:0|0:3,0:0:0:0:
328,289,63647,5,8,0:1:0:0:
375,272,63728,1,8,0:1:0:0:
407,310,63808,1,0,0:0:0:0:
184,289,63969,1,8,0:1:0:0:
137,272,64049,1,8,0:1:0:0:
105,310,64129,1,8,0:0:0:0:
398,320,64290,1,8,0:1:0:0:
256,69,64451,5,0,0:0:0:0:
256,383,64611,1,8,0:1:0:0:
256,334,64692,1,8,0:1:0:0:
256,286,64772,1,8,0:0:0:0:
256,84,64932,1,8,0:1:0:0:
389,330,65093,5,0,0:0:0:0:
214,164,65254,1,8,0:1:0:0:
295,164,65335,1,8,0:1:0:0:
254,192,65415,1,8,0:0:0:0:
386,102,65575,1,8,0:1:0:0:
123,282,65736,5,0,0:0:0:0:
60,136,65896,1,8,0:1:0:0:
319,237,66057,1,10,0:0:0:0:
256,383,66217,1,8,0:1:0:0:
51,120,66378,5,14,0:0:0:0:
323,24,66539,1,8,0:1:0:0:
313,41,66700,1,8,0:1:0:0:
41,137,66861,1,14,0:0:0:0:
432,276,67021,5,8,0:1:0:0:
132,170,67182,1,8,0:1:0:0:
143,189,67342,1,14,0:0:0:0:
443,294,67504,1,8,0:1:0:0:
43,345,67663,5,14,0:0:0:0:
373,228,67824,1,8,0:1:0:0:
30,364,67985,2,0,L|91:342,2,65,14|0|0,0:0|0:0|0:0,0:0:0:0:
17,383,68145,1,8,0:1:0:0:
496,210,68306,5,14,0:0:0:0:
