osu file format v14

[General]
AudioFilename: audio.mp3
AudioLeadIn: 0
PreviewTime: -1
Countdown: 0
SampleSet: None
StackLeniency: 0.7
Mode: 0
LetterboxInBreaks: 0
WidescreenStoryboard: 0

[Editor]
Bookmarks: 3322,4912,6185,7457,8730,10003,11275,12548,13820,14456,26545,26705,26864,27023,27182,37362,39271,39907,50087,60268,95899,107033,110692,164615,174796,184976,201519,202155,202473
DistanceSpacing: 0.3
BeatDivisor: 4
GridSize: 4
TimelineZoom: 1.3

[Metadata]
Title:Feel Good Drag
TitleUnicode:Feel Good Drag
Artist:Anberlin
ArtistUnicode:Anberlin
Creator:-NeBu-
Version:Failure Is Your Disease
Source:Never Take Friendship Personal
Tags:anberlin Never Take Friendship Personal rock 2005 extra training jumps
BeatmapID:2132996
BeatmapSetID:1019333

[Difficulty]
HPDrainRate:6
CircleSize:4
OverallDifficulty:8.8
ApproachRate:9.4
SliderMultiplier:2.4
SliderTickRate:1

[Events]
//Background and Video events
0,0,"SPC94gD.jpg",0,0
//Break Periods
//Storyboard Layer 0 (Background)
//Storyboard Layer 1 (Fail)
//Storyboard Layer 2 (Pass)
//Storyboard Layer 3 (Foreground)
//Storyboard Layer 4 (Overlay)
//Storyboard Sound Samples

[TimingPoints]
459,318.13361611877,4,2,0,50,1,0
459,-285.714285714286,4,2,0,50,0,0
4276,-100,4,2,0,50,0,0
14456,-66.6666666666667,4,2,0,50,0,0
17001,-222.222222222221,4,2,0,50,0,0
27182,-142.857142857143,4,2,0,50,0,0
37362,-200,4,2,0,50,0,0
39907,-80,4,2,0,50,0,1
60268,-100,4,2,0,50,0,0
62813,-200,4,2,0,50,0,0
72993,-133.333333333333,4,2,0,50,0,0
83173,-200,4,2,0,50,0,0
85718,-80,4,2,0,50,0,1
106079,-100,4,2,0,50,0,0
120077,-166.666666666667,4,2,0,50,0,0
120554,-83.3333333333333,4,2,0,50,0,0
121031,-55.5555555555556,4,2,0,50,0,0
121349,-100,4,2,0,50,0,0
144255,-200,4,2,0,50,0,0
149345,-80,4,2,0,50,0,1
184976,-181.818181818182,4,2,0,50,0,0
190066,-80,4,2,0,50,0,0
200246,-222.222222222222,4,2,0,50,0,0
201519,-400,4,2,0,50,0,0
202155,-1000,4,2,0,50,0,0

[HitObjects]
288,380,459,6,0,B|282:311|310:251|386:204|483:229|483:229|330:197|378:57|478:75|290:-49|220:-38|165:90|225:160|307:102,1,797.999975646973,8|8,0:0|0:0,0:0:0:0:
296,108,3560,1,8,0:0:0:0:
296,109,3640,2,0,L|288:161,1,41.9999987182618,8|8,0:0|0:0,0:0:0:0:
306,102,4117,1,8,0:0:0:0:
223,75,4276,6,0,L|87:87,1,120,8|0,0:0|0:0,0:0:0:0:
238,284,4594,1,0,0:0:0:0:
328,76,4753,1,0,0:0:0:0:
55,19,4912,2,0,P|23:67|36:132,1,120,8|8,0:0|0:0,0:0:0:0:
236,260,5231,1,0,0:0:0:0:
273,10,5390,1,0,0:0:0:0:
103,85,5549,5,8,0:0:0:0:
196,332,5708,1,0,0:0:0:0:
328,144,5867,1,0,0:0:0:0:
120,284,6026,1,0,0:0:0:0:
388,333,6185,2,0,L|376:205,1,120,8|8,0:0|0:0,0:0:0:0:
273,383,6503,1,0,0:0:0:0:
500,280,6662,1,0,0:0:0:0:
240,208,6821,5,8,0:0:0:0:
416,140,6980,1,0,0:0:0:0:
348,352,7139,1,0,0:0:0:0:
200,132,7298,1,0,0:0:0:0:
426,60,7457,2,0,P|474:84|493:151,1,120,8|8,0:0|0:0,0:0:0:0:
328,332,7776,1,0,0:0:0:0:
256,68,7935,1,0,0:0:0:0:
451,209,8094,5,8,0:0:0:0:
240,320,8253,1,0,0:0:0:0:
324,120,8412,1,0,0:0:0:0:
432,384,8571,1,0,0:0:0:0:
170,375,8730,2,0,B|146:321|146:321|169:261,1,120,8|8,0:0|0:0,0:0:0:0:
370,195,9048,1,0,0:0:0:0:
304,377,9207,1,0,0:0:0:0:
104,216,9366,5,8,0:0:0:0:
283,44,9525,1,0,0:0:0:0:
360,316,9684,1,0,0:0:0:0:
234,118,9843,1,0,0:0:0:0:
467,41,10003,2,0,L|451:161,1,120,8|8,0:0|0:0,0:0:0:0:
208,96,10321,1,0,0:0:0:0:
392,0,10480,1,0,0:0:0:0:
304,232,10639,5,8,0:0:0:0:
392,0,10798,1,0,0:0:0:0:
124,112,10957,1,0,0:0:0:0:
352,300,11116,1,0,0:0:0:0:
266,26,11275,2,0,P|210:-6|151:7,1,120,8|8,0:0|0:0,0:0:0:0:
273,340,11593,1,0,0:0:0:0:
437,139,11752,1,0,0:0:0:0:
174,177,11911,5,8,0:0:0:0:
433,310,12070,1,0,0:0:0:0:
373,45,12229,1,0,0:0:0:0:
196,257,12389,1,0,0:0:0:0:
488,366,12548,2,0,P|512:306|476:246,1,120,8|8,0:0|0:0,0:0:0:0:
302,92,12866,1,0,0:0:0:0:
433,310,13025,1,0,0:0:0:0:
472,36,13184,5,8,0:0:0:0:
183,99,13343,1,0,0:0:0:0:
330,100,13502,1,0,0:0:0:0:
40,36,13661,1,0,0:0:0:0:
212,304,13820,5,8,0:0:0:0:
256,32,13979,1,8,0:0:0:0:
212,304,14297,1,8,0:0:0:0:
348,0,14456,6,0,B|365:59|328:101|328:101|354:124|354:124|302:255|390:223|342:342,1,360.000013732911,8|0,0:0|0:0,0:0:0:0:
98,319,15093,2,0,B|41:338|-4:290|8:217|84:191|198:196|123:268|183:318|280:281,1,360.000013732911,8|0,0:0|0:0,0:0:0:0:
373,99,15729,2,0,B|412:79|453:96|453:96|411:57|298:12|325:127|180:82,1,360.000013732911,8|0,0:0|0:0,0:0:0:0:
43,0,16365,2,0,B|52:68|52:68|86:98|86:98|99:172,1,180.000006866455,8|0,0:0|0:0,0:0:0:0:
52,320,16683,1,8,0:0:0:0:
52,320,16842,1,8,0:0:0:0:
112,268,17001,6,0,P|138:257|175:262,3,53.9999983520508,8|0|0|0,0:0|0:0|0:0|0:0,0:0:0:0:
228,304,17638,2,0,P|252:314|279:314,3,53.9999983520508,8|0|0|0,0:0|0:0|0:0|0:0,0:0:0:0:
336,256,18274,1,8,0:0:0:0:
412,284,18433,1,0,0:0:0:0:
480,240,18592,1,0,0:0:0:0:
476,160,18751,1,0,0:0:0:0:
408,116,18910,2,0,L|396:56,1,53.9999983520508,8|0,0:0|0:0,0:0:0:0:
253,14,19228,1,0,0:0:0:0:
321,58,19387,1,0,0:0:0:0:
235,144,19547,6,0,L|245:208,3,53.9999983520508,8|0|0|0,0:0|0:0|0:0|0:0,0:0:0:0:
172,236,20183,2,0,L|162:300,3,53.9999983520508,8|0|0|0,0:0|0:0|0:0|0:0,0:0:0:0:
221,346,20819,5,8,0:0:0:0:
300,360,20978,1,0,0:0:0:0:
373,325,21137,1,0,0:0:0:0:
452,339,21296,1,0,0:0:0:0:
486,233,21455,2,0,P|462:225|427:231,1,53.9999983520508,8|0,0:0|0:0,0:0:0:0:
364,188,21773,1,0,0:0:0:0:
336,112,21933,1,0,0:0:0:0:
204,112,22092,6,0,L|144:122,3,53.9999983520508,8|0|0|0,0:0|0:0|0:0|0:0,0:0:0:0:
92,64,22728,2,0,L|38:55,3,53.9999983520508,8|0|0|0,0:0|0:0|0:0|0:0,0:0:0:0:
150,120,23364,1,8,0:0:0:0:
182,197,23523,1,0,0:0:0:0:
105,230,23682,1,0,0:0:0:0:
72,153,23841,1,0,0:0:0:0:
139,40,24000,2,0,P|193:51|206:63,1,53.9999983520508,8|0,0:0|0:0,0:0:0:0:
256,100,24319,1,0,0:0:0:0:
332,68,24478,1,0,0:0:0:0:
201,162,24637,6,0,P|190:192|192:226,3,53.9999983520508,8|0|0|0,0:0|0:0|0:0|0:0,0:0:0:0:
311,162,25273,2,0,P|322:192|320:226,3,53.9999983520508,8|0|0|0,0:0|0:0|0:0|0:0,0:0:0:0:
284,284,25909,1,8,0:0:0:0:
204,264,26068,1,0,0:0:0:0:
144,320,26227,1,0,0:0:0:0:
220,344,26386,1,0,0:0:0:0:
270,199,26545,5,8,0:0:0:0:
234,41,26705,1,8,0:0:0:0:
75,78,26864,1,8,0:0:0:0:
113,237,27023,1,8,0:0:0:0:
338,250,27182,6,0,P|353:194|204:143,1,251.999992309571,8|0,0:0|0:0,0:0:0:0:
283,310,27818,2,0,P|321:330|376:324,1,83.9999974365235,8|0,0:0|0:0,0:0:0:0:
393,192,28136,2,0,P|355:172|300:178,1,83.9999974365235,0|0,0:0|0:0,0:0:0:0:
167,133,28454,2,0,L|179:37,1,83.9999974365235,8|0,0:0|0:0,0:0:0:0:
69,176,28772,2,0,L|79:259,1,83.9999974365235,0|0,0:0|0:0,0:0:0:0:
245,105,29091,2,0,P|220:68|176:50,1,83.9999974365235,8|0,0:0|0:0,0:0:0:0:
91,94,29409,1,0,0:0:0:0:
167,133,29568,1,0,0:0:0:0:
102,14,29727,6,0,P|56:20|24:50,1,83.9999974365235,8|0,0:0|0:0,0:0:0:0:
158,213,30045,2,0,P|204:207|236:177,1,83.9999974365235,0|0,0:0|0:0,0:0:0:0:
293,102,30363,1,8,0:0:0:0:
352,214,30522,1,0,0:0:0:0:
364,64,30681,2,0,P|332:33|283:22,1,83.9999974365235,0|0,0:0|0:0,0:0:0:0:
345,297,30999,6,0,L|353:197,1,83.9999974365235,8|0,0:0|0:0,0:0:0:0:
158,213,31317,1,0,0:0:0:0:
280,365,31477,1,0,0:0:0:0:
296,149,31636,2,0,B|257:130|257:130|213:140,1,83.9999974365235,8|0,0:0|0:0,0:0:0:0:
236,272,31954,1,0,0:0:0:0:
140,364,32113,1,0,0:0:0:0:
79,202,32272,6,0,P|118:195|164:220,1,83.9999974365235,8|0,0:0|0:0,0:0:0:0:
236,272,32590,1,0,0:0:0:0:
333,252,32749,1,0,0:0:0:0:
420,300,32908,2,0,L|432:204,1,83.9999974365235,8|0,0:0|0:0,0:0:0:0:
322,168,33226,2,0,L|332:251,1,83.9999974365235,0|0,0:0|0:0,0:0:0:0:
359,85,33544,6,0,B|254:64|298:136|169:99,1,167.999994873047,8|0,0:0|0:0,0:0:0:0:
76,40,34022,1,0,0:0:0:0:
197,106,34181,2,0,P|212:144|207:194,1,83.9999974365235,8|0,0:0|0:0,0:0:0:0:
47,306,34499,1,0,0:0:0:0:
130,162,34658,1,0,0:0:0:0:
280,316,34817,6,0,P|245:338|202:338,1,83.9999974365235,8|0,0:0|0:0,0:0:0:0:
130,162,35135,1,0,0:0:0:0:
333,251,35294,1,0,0:0:0:0:
129,292,35453,2,0,L|33:308,1,83.9999974365235,8|0,0:0|0:0,0:0:0:0:
333,251,35771,2,0,L|429:267,1,83.9999974365235,0|0,0:0|0:0,0:0:0:0:
284,344,36089,5,8,0:0:0:0:
208,184,36249,1,0,0:0:0:0:
360,264,36408,1,0,0:0:0:0:
208,376,36567,1,0,0:0:0:0:
172,111,36726,2,0,P|209:102|262:122,1,83.9999974365235,8|0,0:0|0:0,0:0:0:0:
144,309,37044,1,0,0:0:0:0:
86,101,37203,1,0,0:0:0:0:
299,147,37362,6,0,B|345:164|345:164|364:295,1,180,8|0,0:0|0:0,0:0:0:0:
86,194,37998,2,0,B|102:121|102:121|125:104|125:104|140:28,1,180,8|0,0:0|0:0,0:0:0:0:
460,178,38635,2,0,B|423:171|423:171|406:147|406:147|356:139|356:139|334:153|334:153|296:146,1,180,8|0,0:0|0:0,0:0:0:0:
100,132,39271,5,8,0:0:0:0:
411,251,39429,1,0,0:0:0:0:
315,36,39589,1,8,0:0:0:0:
196,347,39748,1,8,0:0:0:0:
411,251,39907,6,0,P|416:229|411:210,1,37.5,12|0,0:0|0:0,0:0:0:0:
276,312,40066,1,0,0:0:0:0:
460,360,40225,1,8,0:0:0:0:
394,92,40384,1,0,0:0:0:0:
210,258,40543,1,8,0:0:0:0:
512,296,40702,1,0,0:0:0:0:
265,194,40861,2,0,P|205:174|132:224,1,150,0|0,0:0|0:0,0:0:0:0:
350,340,41180,5,8,0:0:0:0:
394,92,41339,1,0,0:0:0:0:
254,377,41498,1,0,0:0:0:0:
210,129,41657,1,0,0:0:0:0:
364,328,41816,5,8,0:0:0:0:
472,132,41975,1,0,0:0:0:0:
268,68,42134,1,8,0:0:0:0:
440,300,42293,1,0,0:0:0:0:
409,24,42452,6,0,B|221:-17|319:109|105:47,1,300,12|0,0:0|0:0,0:0:0:0:
40,228,42929,1,0,0:0:0:0:
273,153,43088,2,0,B|319:179|319:179|326:290,1,150,8|0,0:0|0:0,0:0:0:0:
92,350,43407,2,0,B|46:324|46:324|39:213,1,150,8|0,0:0|0:0,0:0:0:0:
248,72,43725,5,8,0:0:0:0:
164,384,43884,1,0,0:0:0:0:
123,114,44043,1,0,0:0:0:0:
435,198,44202,1,0,0:0:0:0:
235,333,44361,2,0,B|160:337|160:337|153:340|153:340|78:344,1,150,8|0,0:0|0:0,0:0:0:0:
248,72,44679,1,8,0:0:0:0:
310,372,44838,1,0,0:0:0:0:
364,128,44997,5,12,0:0:0:0:
419,350,45156,1,0,0:0:0:0:
232,48,45315,1,8,0:0:0:0:
177,270,45474,1,0,0:0:0:0:
443,82,45633,2,0,B|459:50|445:16|445:16|479:59|501:161|410:110|456:240,1,300,8|0,0:0|0:0,0:0:0:0:
177,270,46111,1,0,0:0:0:0:
177,270,46270,6,0,L|196:120,1,150,8|0,0:0|0:0,0:0:0:0:
312,240,46588,1,8,0:0:0:0:
112,316,46747,1,0,0:0:0:0:
364,376,46906,1,0,0:0:0:0:
96,288,47065,1,0,0:0:0:0:
300,156,47224,2,0,P|356:168|393:253,1,150,8|0,0:0|0:0,0:0:0:0:
40,223,47542,6,8,B|32:105|108:72|151:63|212:134|150:184,1,300,12|0,0:0|0:0,0:0:0:0:
20,44,48019,1,0,0:0:0:0:
20,44,48179,2,0,P|80:10|166:10,1,150,8|0,0:0|0:0,0:0:0:0:
492,44,48497,2,0,P|432:10|346:10,1,150,8|0,0:0|0:0,0:0:0:0:
166,288,48815,5,8,0:0:0:0:
430,248,48974,1,8,0:0:0:0:
290,60,49133,1,0,0:0:0:0:
210,360,49292,5,8,0:0:0:0:
445,167,49451,1,8,0:0:0:0:
92,252,49610,1,8,0:0:0:0:
92,252,49928,1,8,0:0:0:0:
290,60,50087,6,0,B|377:13|436:95|419:220|253:220|246:142|202:78|90:127,1,450,12|0,0:0|0:0,0:0:0:0:
136,320,50724,1,8,0:0:0:0:
420,232,50883,1,0,0:0:0:0:
290,60,51042,1,8,0:0:0:0:
378,344,51201,1,0,0:0:0:0:
431,56,51360,2,0,B|353:34|353:34|289:60,1,150,8|0,0:0|0:0,0:0:0:0:
236,347,51678,2,0,B|314:369|314:369|378:343,1,150,0|0,0:0|0:0,0:0:0:0:
253,149,51996,2,0,B|194:123|189:49|189:49|155:106|99:124|33:101,1,300,8|8,0:0|0:0,0:0:0:0:
89,12,52473,1,0,0:0:0:0:
211,340,52632,5,12,0:0:0:0:
283,59,52791,1,0,0:0:0:0:
466,294,52951,1,0,0:0:0:0:
383,3,53110,1,0,0:0:0:0:
196,329,53269,2,0,L|175:170,1,150,8|0,0:0|0:0,0:0:0:0:
400,0,53587,2,0,L|380:148,1,150,0|0,0:0|0:0,0:0:0:0:
240,28,53905,5,8,0:0:0:0:
484,100,54064,1,0,0:0:0:0:
312,336,54223,1,8,0:0:0:0:
184,88,54382,1,0,0:0:0:0:
484,100,54541,2,0,P|500:176|329:248,1,300,8|0,0:0|0:0,0:0:0:0:
184,88,55018,1,0,0:0:0:0:
296,5,55177,6,0,P|332:81|309:146,1,150,12|0,0:0|0:0,0:0:0:0:
87,172,55496,2,0,P|51:96|74:31,1,150,8|0,0:0|0:0,0:0:0:0:
432,120,55814,2,0,B|483:153|481:206|481:206|372:232|306:129,1,300,8|0,0:0|0:0,0:0:0:0:
464,36,56291,1,0,0:0:0:0:
381,296,56450,2,0,L|213:324,1,150,8|0,0:0|0:0,0:0:0:0:
131,145,56768,2,0,P|196:158|240:237,1,150,8|0,0:0|0:0,0:0:0:0:
28,384,57086,2,0,L|0:80,1,300,0|8,0:0|0:0,0:0:0:0:
271,115,57563,1,0,0:0:0:0:
139,333,57723,6,0,B|136:297|109:276|109:276|147:257|167:223|167:223|200:247|245:251|245:251|221:288|235:332,1,300,12|0,0:0|0:0,0:0:0:0:
196,63,58200,1,0,0:0:0:0:
196,63,58359,2,0,P|244:31|336:54,1,150,8|0,0:0|0:0,0:0:0:0:
366,305,58677,2,0,P|318:337|226:314,1,150,8|0,0:0|0:0,0:0:0:0:
420,96,58995,5,8,0:0:0:0:
456,356,59154,1,0,0:0:0:0:
200,224,59313,1,0,0:0:0:0:
488,36,59472,5,8,0:0:0:0:
400,292,59631,1,12,0:0:0:0:
296,54,59790,1,12,0:0:0:0:
296,54,60109,1,8,0:0:0:0:
480,180,60268,6,0,L|515:188,1,30,8|0,0:0|0:0,0:0:0:0:
328,257,60904,2,0,L|293:265,1,30,8|0,0:0|0:0,0:0:0:0:
74,207,61540,2,0,B|171:218|171:218|207:254|207:254|303:264,1,240,8|0,0:0|0:0,0:0:0:0:
447,167,62176,2,0,P|402:191|388:262,1,120,8|0,0:0|0:0,0:0:0:0:
450,334,62495,1,8,0:0:0:0:
504,105,62654,1,8,0:0:0:0:
447,167,62813,6,0,P|407:171|386:165,3,60,8|0|0|0,0:0|0:0|0:0|0:0,0:0:0:0:
275,99,63449,2,0,B|295:125|295:125|295:163,1,60,8|0,0:0|0:0,0:0:0:0:
237,285,63767,2,0,B|217:259|217:259|217:221,1,60,0|0,0:0|0:0,0:0:0:0:
180,164,64085,1,8,0:0:0:0:
104,172,64244,1,0,0:0:0:0:
80,244,64403,1,0,0:0:0:0:
136,300,64562,1,0,0:0:0:0:
208,272,64721,2,0,L|272:264,1,60,8|0,0:0|0:0,0:0:0:0:
239,171,65040,2,0,L|175:163,1,60,0|0,0:0|0:0,0:0:0:0:
318,50,65358,6,0,P|334:78|340:113,3,60,8|0|0|0,0:0|0:0|0:0|0:0,0:0:0:0:
239,171,65994,2,0,P|223:199|217:234,3,60,8|0|0|0,0:0|0:0|0:0|0:0,0:0:0:0:
260,292,66630,1,8,0:0:0:0:
336,272,66789,1,0,0:0:0:0:
376,204,66948,1,0,0:0:0:0:
452,188,67107,1,0,0:0:0:0:
504,248,67267,2,0,P|508:292|501:318,1,60,8|0,0:0|0:0,0:0:0:0:
376,204,67585,1,0,0:0:0:0:
376,204,67744,1,0,0:0:0:0:
408,132,67903,6,0,P|412:96|406:63,3,60,8|0|0|0,0:0|0:0|0:0|0:0,0:0:0:0:
348,20,68539,2,0,P|312:16|279:22,3,60,8|0|0|0,0:0|0:0|0:0|0:0,0:0:0:0:
232,72,69175,1,8,0:0:0:0:
208,144,69334,1,0,0:0:0:0:
244,212,69493,1,0,0:0:0:0:
216,284,69653,1,0,0:0:0:0:
144,312,69812,2,0,L|126:377,1,60,8|0,0:0|0:0,0:0:0:0:
78,268,70130,1,0,0:0:0:0:
216,284,70289,1,0,0:0:0:0:
95,189,70448,6,0,P|70:188|28:205,3,60,8|0|0|0,0:0|0:0|0:0|0:0,0:0:0:0:
201,207,71084,2,0,P|226:206|268:223,3,60,8|0|0|0,0:0|0:0|0:0|0:0,0:0:0:0:
308,280,71720,1,8,0:0:0:0:
384,296,71879,1,0,0:0:0:0:
452,256,72039,1,0,0:0:0:0:
456,180,72198,1,0,0:0:0:0:
328,31,72357,5,8,0:0:0:0:
279,207,72515,1,0,0:0:0:0:
452,256,72675,1,8,0:0:0:0:
500,82,72833,1,0,0:0:0:0:
209,155,72993,6,0,P|194:211|357:253,1,270.000010299683,8|0,0:0|0:0,0:0:0:0:
209,155,73629,2,0,L|117:148,1,90.0000034332277,8|0,0:0|0:0,0:0:0:0:
52,324,73947,2,0,L|145:310,1,90.0000034332277,0|0,0:0|0:0,0:0:0:0:
209,155,74265,2,0,L|195:51,1,90.0000034332277,8|0,0:0|0:0,0:0:0:0:
62,234,74583,2,0,L|51:326,1,90.0000034332277
268,212,74902,2,0,P|243:171|199:153,1,90.0000034332277,8|0,0:0|0:0,0:0:0:0:
130,173,75220,1,0,0:0:0:0:
188,232,75379,1,0,0:0:0:0:
140,93,75538,6,0,P|94:99|60:132,1,90.0000034332277,8|0,0:0|0:0,0:0:0:0:
177,311,75856,2,0,P|223:305|258:271,1,90.0000034332277
293,102,76174,1,8,0:0:0:0:
188,232,76333,1,0,0:0:0:0:
414,255,76492,2,0,P|382:224|328:214,1,90.0000034332277
336,384,76811,6,0,L|345:278,1,90.0000034332277,8|0,0:0|0:0,0:0:0:0:
218,149,77128,1,0,0:0:0:0:
253,303,77288,1,0,0:0:0:0:
361,102,77447,2,0,B|321:80|321:80|277:90,1,90.0000034332277,8|0,0:0|0:0,0:0:0:0:
253,303,77765,1,0,0:0:0:0:
218,149,77924,1,0,0:0:0:0:
101,354,78083,6,0,P|140:361|189:334,1,90.0000034332277,8|0,0:0|0:0,0:0:0:0:
218,149,78401,1,0,0:0:0:0:
133,275,78560,1,0,0:0:0:0:
328,344,78719,2,0,L|342:242,1,90.0000034332277,8|0,0:0|0:0,0:0:0:0:
218,149,79037,2,0,L|230:242,1,90.0000034332277
298,95,79356,2,0,B|224:103|224:103|187:132|187:132|111:139,1,180.000006866455,8|0,0:0|0:0,0:0:0:0:
336,224,79833,1,0,0:0:0:0:
226,46,79992,2,0,P|211:84|216:134,1,90.0000034332277,8|0,0:0|0:0,0:0:0:0:
367,304,80310,1,0,0:0:0:0:
427,144,80469,1,0,0:0:0:0:
291,275,80628,6,0,P|285:316|307:361,1,90.0000034332277,8|0,0:0|0:0,0:0:0:0:
456,220,80946,1,0,0:0:0:0:
229,168,81105,1,0,0:0:0:0:
512,343,81264,2,0,L|411:361,1,90.0000034332277,8|0,0:0|0:0,0:0:0:0:
202,259,81582,2,0,L|303:277,1,90.0000034332277
392,164,81900,5,8,0:0:0:0:
143,189,82060,1,0,0:0:0:0:
343,299,82219,1,0,0:0:0:0:
372,84,82378,1,0,0:0:0:0:
101,256,82537,2,0,P|141:268|191:255,1,90.0000034332277,8|0,0:0|0:0,0:0:0:0:
233,84,82855,1,0,0:0:0:0:
43,197,83014,1,0,0:0:0:0:
360,172,83173,6,0,B|381:67|312:91|332:-16,1,180,8|0,0:0|0:0,0:0:0:0:
176,156,83810,2,0,B|164:191|183:215|183:215|246:202|268:142,1,180,8|0,0:0|0:0,0:0:0:0:
81,239,84446,2,0,P|70:269|77:304,1,60,8|0,0:0|0:0,0:0:0:0:
176,156,84764,2,0,L|164:88,1,60,0|0,0:0|0:0,0:0:0:0:
118,4,85082,5,8,0:0:0:0:
246,308,85241,1,0,0:0:0:0:
304,32,85400,1,8,0:0:0:0:
0,160,85559,1,8,0:0:0:0:
324,308,85718,6,0,P|322:282|309:265,1,37.5,12|0,0:0|0:0,0:0:0:0:
160,172,85877,1,0,0:0:0:0:
376,100,86036,1,8,0:0:0:0:
128,184,86196,1,0,0:0:0:0:
401,313,86355,1,8,0:0:0:0:
328,24,86514,1,0,0:0:0:0:
48,112,86673,2,0,P|21:183|47:257,1,150,0|0,0:0|0:0,0:0:0:0:
284,336,86991,5,8,0:0:0:0:
228,48,87150,1,0,0:0:0:0:
72,328,87309,1,0,0:0:0:0:
128,40,87468,1,0,0:0:0:0:
304,344,87627,1,8,0:0:0:0:
248,56,87786,1,0,0:0:0:0:
55,317,87945,2,0,B|77:285|77:285|195:277,1,150,8|0,0:0|0:0,0:0:0:0:
478,181,88263,6,0,B|377:188|377:188|381:185|381:185|254:192|254:192|216:135,1,300,12|0,0:0|0:0,0:0:0:0:
367,0,88741,1,0,0:0:0:0:
367,0,88900,2,0,L|355:160,1,150,8|0,0:0|0:0,0:0:0:0:
144,384,89218,2,0,L|132:224,1,150,8|0,0:0|0:0,0:0:0:0:
280,76,89536,5,8,0:0:0:0:
392,320,89695,1,0,0:0:0:0:
100,268,89854,1,0,0:0:0:0:
368,44,90013,1,0,0:0:0:0:
392,320,90172,2,0,B|333:322|333:322|304:343|304:343|241:343,1,150,8|0,0:0|0:0,0:0:0:0:
191,82,90490,1,8,0:0:0:0:
133,384,90649,1,0,0:0:0:0:
366,184,90808,6,0,P|426:180|493:236,1,150,12|0,0:0|0:0,0:0:0:0:
133,384,91127,2,0,P|73:388|6:332,1,150,8|0,0:0|0:0,0:0:0:0:
210,55,91445,2,0,B|243:25|332:45|342:139|243:205|143:189,1,300,8|0,0:0|0:0,0:0:0:0:
48,264,91922,1,0,0:0:0:0:
48,264,92081,2,0,B|126:240|106:298|215:268,1,150,8|0,0:0|0:0,0:0:0:0:
397,174,92399,1,8,0:0:0:0:
205,138,92558,1,0,0:0:0:0:
361,258,92717,5,0,0:0:0:0:
289,26,92876,1,0,0:0:0:0:
260,336,93035,1,8,0:0:0:0:
508,202,93194,1,0,0:0:0:0:
192,0,93354,6,0,B|133:50|143:127|143:127|219:168|208:258,1,300,12|0,0:0|0:0,0:0:0:0:
35,348,93831,1,0,0:0:0:0:
35,348,93990,2,0,P|39:280|112:227,1,150,8|0,0:0|0:0,0:0:0:0:
477,348,94308,2,0,P|473:280|400:227,1,150,8|0,0:0|0:0,0:0:0:0:
152,156,94626,5,8,0:0:0:0:
260,360,94785,1,8,0:0:0:0:
360,84,94944,1,0,0:0:0:0:
100,220,95103,5,8,0:0:0:0:
477,348,95262,1,8,0:0:0:0:
384,0,95421,1,8,0:0:0:0:
384,0,95740,1,8,0:0:0:0:
40,296,95899,6,0,B|72:292|103:318|103:318|123:299|158:292|158:292|188:347|230:352|288:355|324:303|322:235|291:193|221:189|199:208,1,450,12|0,0:0|0:0,0:0:0:0:
85,85,96535,1,8,0:0:0:0:
141,384,96694,1,0,0:0:0:0:
291,37,96853,1,8,0:0:0:0:
233,327,97012,1,0,0:0:0:0:
100,107,97171,5,8,0:0:0:0:
418,74,97330,1,0,0:0:0:0:
144,259,97489,1,0,0:0:0:0:
476,307,97648,1,0,0:0:0:0:
116,24,97807,6,0,P|41:41|18:119,1,150,8|0,0:0|0:0,0:0:0:0:
164,277,98126,1,8,0:0:0:0:
240,73,98285,1,0,0:0:0:0:
98,366,98444,6,0,B|294:398|193:263|387:288,1,300,12|0,0:0|0:0,0:0:0:0:
389,62,98921,1,0,0:0:0:0:
389,62,99080,2,0,L|221:74,1,150,8|0,0:0|0:0,0:0:0:0:
14,148,99398,2,0,P|76:159|115:246,1,150,0|0,0:0|0:0,0:0:0:0:
112,376,99716,5,8,0:0:0:0:
176,48,99875,1,0,0:0:0:0:
400,376,100034,1,8,0:0:0:0:
336,48,100193,2,0,L|323:130,1,75,0|0,0:0|0:0,0:0:0:0:
354,268,100352,2,0,L|318:96,1,150,8|0,0:0|0:0,0:0:0:0:
0,301,100671,2,0,B|88:309|88:309|124:285|124:285|240:293,1,225,0|0,0:0|0:0,0:0:0:0:
276,255,100989,6,0,L|120:246,1,150,12|0,0:0|0:0,0:0:0:0:
327,78,101307,2,0,B|403:99|403:99|431:170,1,150,8|0,0:0|0:0,0:0:0:0:
97,384,101625,2,0,B|88:303|88:303|98:284|98:284|83:265|83:265|69:136|69:136|121:108,1,300,8|0,0:0|0:0,0:0:0:0:
396,272,102102,1,0,0:0:0:0:
176,328,102261,5,8,0:0:0:0:
396,272,102420,1,0,0:0:0:0:
179,70,102579,2,0,P|106:36|37:76,1,150,8|0,0:0|0:0,0:0:0:0:
306,254,102898,2,8,P|401:144|384:0,1,300,0|0,0:0|0:0,0:0:0:0:
0,324,103375,1,0,0:0:0:0:
0,324,103534,6,0,B|60:304|60:304|96:332|96:332|156:286|232:304|271:374,1,300,12|0,0:0|0:0,0:0:0:0:
328,160,104011,1,0,0:0:0:0:
328,160,104170,2,0,P|364:104|452:104,1,150,8|0,0:0|0:0,0:0:0:0:
423,323,104488,2,0,L|407:155,1,150,8|0,0:0|0:0,0:0:0:0:
276,272,104806,1,8,0:0:0:0:
168,184,104965,1,0,0:0:0:0:
80,244,105124,1,0,0:0:0:0:
44,220,105284,1,8,0:0:0:0:
184,384,105443,5,12,0:0:0:0:
136,0,105602,1,12,0:0:0:0:
184,384,105920,1,8,0:0:0:0:
512,138,106079,6,0,B|456:101|390:114|352:162|352:162|304:118|228:80|144:94|64:130|32:206|32:206|128:171|201:244,1,720,8|0,0:0|0:0,0:0:0:0:
188,232,107192,1,0,0:0:0:0:
80,352,107351,6,0,P|81:320|100:286,1,60,8|0,0:0|0:0,0:0:0:0:
28,248,107510,2,0,P|51:226|88:215,1,60,8|0,0:0|0:0,0:0:0:0:
156,228,107670,2,0,P|155:196|136:162,1,60,8|0,0:0|0:0,0:0:0:0:
208,124,107829,2,0,P|184:102|147:91,1,60,8|0,0:0|0:0,0:0:0:0:
366,84,107988,6,0,L|354:147,1,60,8|0,0:0|0:0,0:0:0:0:
454,137,108147,2,0,L|436:198,1,60,8|0,0:0|0:0,0:0:0:0:
365,304,108306,2,0,L|348:246,1,60,8|0,0:0|0:0,0:0:0:0:
448,252,108465,2,0,L|436:193,1,60,8|0,0:0|0:0,0:0:0:0:
131,116,108624,6,0,P|98:113|68:92,1,60,8|0,0:0|0:0,0:0:0:0:
131,268,108783,2,0,P|98:271|68:292,1,60,8|0,0:0|0:0,0:0:0:0:
292,52,108942,2,0,L|230:47,1,60,8|0,0:0|0:0,0:0:0:0:
292,332,109101,2,0,L|230:337,1,60,8|0,0:0|0:0,0:0:0:0:
128,116,109260,6,0,B|145:143|145:143|144:184,1,60,8|0,0:0|0:0,0:0:0:0:
64,316,109419,2,0,B|47:289|47:289|48:248,1,60,8|0,0:0|0:0,0:0:0:0:
111,60,109578,2,0,B|103:52|100:49|96:45|113:72|113:72|112:113,1,60,8|0,0:0|0:0,0:0:0:0:
80,371,109737,2,0,B|63:344|63:344|64:303,1,60,8|0,0:0|0:0,0:0:0:0:
111,60,109896,6,0,P|139:42|171:42,1,60,8|0,0:0|0:0,0:0:0:0:
248,0,110056,2,0,P|280:7|303:29,1,60,8|0,0:0|0:0,0:0:0:0:
386,50,110215,2,0,P|404:78|404:110,1,60,8|0,0:0|0:0,0:0:0:0:
448,183,110374,2,0,P|440:216|418:239,1,60,8|0,0:0|0:0,0:0:0:0:
64,183,110533,2,0,P|71:216|93:239,1,60,8|0,0:0|0:0,0:0:0:0:
156,355,110692,2,0,P|219:253|81:246,1,300,8|0,0:0|0:0,0:0:0:0:
40,68,111169,6,0,L|98:82,1,60,8|0,0:0|0:0,0:0:0:0:
400,0,111328,2,0,B|267:-12|321:79|166:43,1,240,8|0,0:0|0:0,0:0:0:0:
348,336,111805,1,8,0:0:0:0:
348,336,111964,2,0,L|364:92,1,240,8|0,0:0|0:0,0:0:0:0:
512,288,112442,5,8,0:0:0:0:
0,332,112760,1,0,0:0:0:0:
512,288,113078,2,0,P|441:299|500:214,1,240,0|8,0:0|0:0,0:0:0:0:
208,384,113714,5,8,0:0:0:0:
304,0,113873,1,8,0:0:0:0:
433,160,114032,2,0,L|305:180,1,120,8|0,0:0|0:0,0:0:0:0:
208,132,114350,1,0,0:0:0:0:
300,304,114509,2,0,B|195:287|195:287|151:315|151:315|71:303,1,240,8|0,0:0|0:0,0:0:0:0:
170,55,114987,6,0,P|254:59|250:207,1,240,8|0,0:0|0:0,0:0:0:0:
56,260,115464,2,0,B|48:196|48:196|211:131,1,240,8|0,0:0|0:0,0:0:0:0:
320,227,115941,2,0,P|237:213|210:131,1,180,8|0,0:0|0:0,0:0:0:0:
232,112,116259,5,8,0:0:0:0:
312,384,116418,1,8,0:0:0:0:
439,238,116577,2,0,L|317:226,1,120,0|0,0:0|0:0,0:0:0:0:
184,296,116895,1,8,0:0:0:0:
68,196,117054,2,0,B|32:246|32:246|33:314,2,120,0|0|0,0:0|0:0|0:0,0:0:0:0:
141,119,117532,6,0,P|121:175|65:195,1,120,8|0,0:0|0:0,0:0:0:0:
0,0,117850,2,0,L|132:16,1,120,0|0,0:0|0:0,0:0:0:0:
371,119,118168,2,0,P|391:175|447:195,1,120,8|0,0:0|0:0,0:0:0:0:
512,0,118486,2,0,L|380:16,1,120,8|0,0:0|0:0,0:0:0:0:
256,384,118804,5,8,0:0:0:0:
141,119,118963,1,0,0:0:0:0:
417,348,119122,2,0,B|275:341|275:341|258:327|258:327|241:338|241:338|173:336,1,240,0|8,0:0|0:0,0:0:0:0:
43,247,119600,2,0,P|92:219|153:239,2,120,0|0|0,0:0|0:0|0:0,0:0:0:0:
436,344,120077,6,0,L|424:224,1,107.999996704102,8|0,0:0|0:0,0:0:0:0:
402,220,120395,1,8,0:0:0:0:
290,323,120554,2,0,B|304:243|304:243|278:197|278:197|294:114,1,215.999993408203,8|0,0:0|0:0,0:0:0:0:
328,100,120872,1,8,0:0:0:0:
156,376,121031,2,0,B|110:306|139:231|139:231|179:146|125:59,1,323.999990112305,8|0,0:0|0:0,0:0:0:0:
97,42,121349,6,0,L|360:20,1,240,8|0,0:0|0:0,0:0:0:0:
4,188,121826,1,8,0:0:0:0:
4,188,121986,2,0,L|125:202,1,120,0|0,0:0|0:0,0:0:0:0:
209,119,122304,2,0,B|199:60|139:38|90:89|81:165|130:207,1,240,8|0,0:0|0:0,0:0:0:0:
480,200,122781,2,0,B|346:188|395:282|248:252,1,240,8|0,0:0|0:0,0:0:0:0:
108,392,123258,2,0,B|150:333|150:333|126:283|126:283|148:252|148:252|97:210|89:122|166:80,1,360,8|0,0:0|0:0,0:0:0:0:
321,182,123894,6,0,L|193:170,2,120,8|0|0,0:0|0:0|0:0,0:0:0:0:
363,303,124372,1,0,0:0:0:0:
300,172,124531,1,8,0:0:0:0:
385,48,124690,1,0,0:0:0:0:
460,180,124849,2,0,L|279:193,1,180,0|0,0:0|0:0,0:0:0:0:
116,170,125167,2,0,B|257:157|257:157|294:183|294:183|480:168,1,360,8|0,0:0|0:0,0:0:0:0:
164,72,125803,2,0,P|87:65|110:281,1,360,8|0,0:0|0:0,0:0:0:0:
160,334,126439,5,8,0:0:0:0:
148,299,126598,1,8,0:0:0:0:
117,279,126758,1,8,0:0:0:0:
81,275,126917,1,8,0:0:0:0:
314,297,127076,5,8,0:0:0:0:
336,229,127235,1,8,0:0:0:0:
396,190,127395,1,8,0:0:0:0:
463,183,127554,1,8,0:0:0:0:
212,0,127712,5,8,0:0:0:0:
65,115,127871,1,8,0:0:0:0:
180,262,128030,1,8,0:0:0:0:
326,147,128190,1,8,0:0:0:0:
436,308,128348,2,0,B|211:246|315:424|79:346,1,360,8|0,0:0|0:0,0:0:0:0:
162,143,128984,6,0,L|181:270,1,120,8|0,0:0|0:0,0:0:0:0:
2,120,129303,1,0,0:0:0:0:
188,148,129462,1,0,0:0:0:0:
8,16,129621,2,0,L|28:148,1,120,8|0,0:0|0:0,0:0:0:0:
228,76,129939,1,0,0:0:0:0:
80,232,130098,1,0,0:0:0:0:
312,116,130257,6,0,B|328:64|306:18|306:18|399:138|279:145|344:272,1,360,8|0,0:0|0:0,0:0:0:0:
188,384,130893,2,0,P|156:267|343:272,1,360,8|0,0:0|0:0,0:0:0:0:
251,308,131530,1,8,0:0:0:0:
158,251,131689,1,0,0:0:0:0:
208,124,131848,1,0,0:0:0:0:
301,67,132007,1,0,0:0:0:0:
20,128,132166,2,0,B|67:143|67:143|99:123|99:123|123:143|123:143|159:135|159:135|195:159|195:159|235:143|235:143|263:175|263:175|331:167|331:167|355:191,1,360,8|0,0:0|0:0,0:0:0:0:
137,299,132802,5,8,0:0:0:0:
360,360,132961,1,0,0:0:0:0:
308,56,133120,2,0,B|249:85|249:85|244:123|244:123|210:130|210:130|226:173|226:173|209:200|209:200|231:220|231:220|233:255|233:255|271:262|271:262|271:303,1,360,0|0,0:0|0:0,0:0:0:0:
455,186,133756,2,0,L|324:170,1,120,0|0,0:0|0:0,0:0:0:0:
108,20,134075,5,8,0:0:0:0:
195,94,134234,1,0,0:0:0:0:
61,154,134393,1,0,0:0:0:0:
148,231,134552,1,0,0:0:0:0:
124,60,134711,5,8,0:0:0:0:
239,157,134870,1,0,0:0:0:0:
61,237,135029,1,0,0:0:0:0:
176,339,135188,1,0,0:0:0:0:
64,144,135347,5,8,0:0:0:0:
303,163,135506,2,0,L|61:143,1,240,0|0,0:0|0:0,0:0:0:0:
408,0,135983,2,0,B|420:84|420:84|390:126|390:126|406:241,1,240,8|0,0:0|0:0,0:0:0:0:
404,228,136461,1,0,0:0:0:0:
74,37,136620,5,8,0:0:0:0:
326,61,136779,1,8,0:0:0:0:
74,37,136938,1,8,0:0:0:0:
187,129,137097,5,8,0:0:0:0:
439,105,137256,1,8,0:0:0:0:
187,129,137415,1,8,0:0:0:0:
127,225,137574,5,8,0:0:0:0:
379,249,137733,1,8,0:0:0:0:
127,225,137892,1,8,0:0:0:0:
18,338,138051,5,8,0:0:0:0:
270,314,138210,1,8,0:0:0:0:
18,338,138369,1,8,0:0:0:0:
280,231,138528,6,0,P|336:260|351:318,1,120,8|8,0:0|0:0,0:0:0:0:
127,225,138847,2,0,L|135:97,1,120,8|8,0:0|0:0,0:0:0:0:
424,144,139165,6,0,B|461:145|488:125|480:79|391:64|371:99|398:134|346:147|288:124,1,240,8|0,0:0|0:0,0:0:0:0:
117,136,139642,2,0,P|135:45|196:129,1,240,8|0,0:0|0:0,0:0:0:0:
67,270,140119,2,0,B|202:234|146:329|301:292,1,240,8|0,0:0|0:0,0:0:0:0:
469,137,140596,2,0,B|420:88|420:88|397:257,1,240,8|0,0:0|0:0,0:0:0:0:
326,370,141074,2,0,L|298:131,1,240,8|0,0:0|0:0,0:0:0:0:
223,316,141551,1,0,0:0:0:0:
512,384,141710,5,8,0:0:0:0:
0,276,142346,5,8,0:0:0:0:
512,384,142982,5,8,0:0:0:0:
0,276,143141,1,0,0:0:0:0:
59,208,143300,2,0,P|88:267|76:327,1,120,8|8,0:0|0:0,0:0:0:0:
200,232,143619,6,0,L|392:256,2,180,8|8|8,0:0|0:0|0:0,0:0:0:0:
128,120,144255,5,8,0:0:0:0:
136,104,144414,1,0,0:0:0:0:
196,56,144573,1,0,0:0:0:0:
188,40,144732,1,0,0:0:0:0:
296,16,144891,6,0,L|286:80,1,60,0|0,0:0|0:0,0:0:0:0:
382,145,145209,2,0,L|372:85,1,60,0|0,0:0|0:0,0:0:0:0:
293,192,145527,5,0,0:0:0:0:
310,191,145686,1,0,0:0:0:0:
239,125,145846,2,0,P|215:155|210:195,1,60,0|0,0:0|0:0,0:0:0:0:
240,256,146164,1,0,0:0:0:0:
232,272,146323,1,0,0:0:0:0:
216,280,146482,1,0,0:0:0:0:
200,284,146641,1,0,0:0:0:0:
69,280,146800,6,0,L|101:284,2,30,0|0|0,0:0|0:0|0:0,0:0:0:0:
0,191,147118,2,0,P|32:191|59:206,1,60,0|0,0:0|0:0,0:0:0:0:
104,138,147436,2,0,P|90:111|91:81,1,60,0|0,0:0|0:0,0:0:0:0:
171,97,147754,1,0,0:0:0:0:
188,104,147913,1,0,0:0:0:0:
252,48,148072,6,0,L|320:40,1,60,0|0,0:0|0:0,0:0:0:0:
432,104,148391,2,0,L|364:96,2,60,0|0|0,0:0|0:0|0:0,0:0:0:0:
102,45,149345,6,0,B|119:88|97:133|97:133|112:149|112:149|60:250|141:237|102:333,1,300,12|8,0:0|0:0,0:0:0:0:
336,274,149822,1,0,0:0:0:0:
288,177,149981,2,0,P|230:262|367:381,1,300,8|0,0:0|0:0,0:0:0:0:
445,78,150459,1,0,0:0:0:0:
172,127,150618,5,8,0:0:0:0:
411,295,150777,1,0,0:0:0:0:
463,1,150936,1,0,0:0:0:0:
203,212,151095,1,0,0:0:0:0:
481,153,151254,2,0,B|304:123|403:254|190:209,1,300,8|8,0:0|0:0,0:0:0:0:
77,42,151731,1,0,0:0:0:0:
259,71,151890,6,0,L|230:380,1,300,12|0,0:0|0:0,0:0:0:0:
18,106,152367,1,0,0:0:0:0:
342,56,152526,1,8,0:0:0:0:
100,152,152685,1,0,0:0:0:0:
437,202,152845,1,8,0:0:0:0:
169,101,153004,1,0,0:0:0:0:
409,282,153163,6,0,L|394:128,2,150,8|0|0,0:0|0:0|0:0,0:0:0:0:
237,50,153640,1,0,0:0:0:0:
512,0,153799,1,8,0:0:0:0:
164,5,153958,1,0,0:0:0:0:
512,0,154276,1,0,0:0:0:0:
145,84,154435,6,0,B|71:72|26:137|22:249|200:275|331:126,1,450,12|0,0:0|0:0,0:0:0:0:
315,0,155071,2,0,P|291:73|336:133,1,150,8|0,0:0|0:0,0:0:0:0:
512,197,155390,1,0,0:0:0:0:
240,280,155549,1,0,0:0:0:0:
425,362,155708,5,8,0:0:0:0:
382,76,155867,1,0,0:0:0:0:
216,384,156026,1,8,0:0:0:0:
259,98,156185,1,0,0:0:0:0:
446,345,156344,2,0,P|447:269|385:233,1,150,0|0,0:0|0:0,0:0:0:0:
159,321,156662,1,8,0:0:0:0:
369,384,156821,1,0,0:0:0:0:
451,140,156980,6,0,B|329:136|329:136|282:176|282:176|151:169,1,300,12|0,0:0|0:0,0:0:0:0:
0,0,157457,1,0,0:0:0:0:
0,0,157617,2,0,P|64:20|93:101,1,150,8|0,0:0|0:0,0:0:0:0:
130,358,157935,2,0,P|150:293|231:264,1,150,8|0,0:0|0:0,0:0:0:0:
428,232,158253,5,8,0:0:0:0:
144,168,158412,1,8,0:0:0:0:
495,17,158571,1,0,0:0:0:0:
211,81,158730,1,8,0:0:0:0:
415,384,158889,2,0,B|455:341|455:341|448:256|448:256|424:232|424:232|442:198|442:198|432:96,1,300,8|0,0:0|0:0,0:0:0:0:
212,292,159366,1,8,0:0:0:0:
484,52,159525,6,0,P|416:36|360:92,1,150,12|0,0:0|0:0,0:0:0:0:
212,292,159843,2,0,P|280:308|336:252,1,150,0|0,0:0|0:0,0:0:0:0:
268,85,160162,2,0,B|233:25|233:25|125:21|85:108|114:179,1,300,8|8,0:0|0:0,0:0:0:0:
484,264,160639,1,0,0:0:0:0:
484,264,160798,6,0,L|316:256,1,150,8|0,0:0|0:0,0:0:0:0:
116,172,161116,1,0,0:0:0:0:
280,384,161275,1,0,0:0:0:0:
369,123,161434,2,0,B|285:163|223:103|223:103|205:179|114:171,1,300,8|8,0:0|0:0,0:0:0:0:
204,0,161911,1,0,0:0:0:0:
480,82,162070,6,8,B|488:200|412:233|369:242|308:171|370:121,1,300,12|0,0:0|0:0,0:0:0:0:
512,312,162548,1,0,0:0:0:0:
512,312,162707,2,0,L|348:328,1,150,8|0,0:0|0:0,0:0:0:0:
108,196,163025,2,0,P|176:212|196:292,1,150,0|0,0:0|0:0,0:0:0:0:
60,365,163343,5,8,0:0:0:0:
92,105,163502,1,0,0:0:0:0:
272,317,163661,1,8,0:0:0:0:
12,285,163820,1,0,0:0:0:0:
160,0,163979,5,12,0:0:0:0:
228,384,164138,1,12,0:0:0:0:
228,384,164456,1,12,0:0:0:0:
188,68,164615,6,0,B|160:0|160:0|356:100|356:100|220:184,1,450,12|0,0:0|0:0,0:0:0:0:
40,120,165252,1,8,0:0:0:0:
156,384,165411,1,0,0:0:0:0:
400,84,165570,1,0,0:0:0:0:
108,176,165729,1,0,0:0:0:0:
328,348,165888,5,8,0:0:0:0:
352,16,166047,1,0,0:0:0:0:
172,236,166206,1,0,0:0:0:0:
508,168,166365,1,0,0:0:0:0:
111,88,166524,2,0,B|79:272|195:190|151:380,1,300,8|8,0:0|0:0,0:0:0:0:
376,136,167001,1,0,0:0:0:0:
152,20,167161,6,0,P|64:20|32:76,1,150,12|0,0:0|0:0,0:0:0:0:
99,251,167479,1,0,0:0:0:0:
394,322,167638,1,0,0:0:0:0:
69,245,167797,1,8,0:0:0:0:
422,138,167956,1,0,0:0:0:0:
40,239,168115,1,8,0:0:0:0:
469,368,168274,1,0,0:0:0:0:
135,167,168433,6,0,L|155:315,1,150,8|0,0:0|0:0,0:0:0:0:
377,167,168751,2,0,L|357:315,1,150,0|0,0:0|0:0,0:0:0:0:
104,68,169069,2,0,P|256:20|400:76,1,300,8|8,0:0|0:0,0:0:0:0:
256,300,169547,1,0,0:0:0:0:
176,132,169706,5,12,0:0:0:0:
396,204,169865,1,0,0:0:0:0:
192,360,170024,1,8,0:0:0:0:
104,68,170183,1,0,0:0:0:0:
484,232,170342,2,0,B|448:296|448:296|216:272,1,300,8|0,0:0|0:0,0:0:0:0:
104,68,170819,1,0,0:0:0:0:
312,0,170978,6,0,B|348:68|348:68|316:136,1,150,8|0,0:0|0:0,0:0:0:0:
128,48,171296,1,8,0:0:0:0:
222,272,171455,1,0,0:0:0:0:
320,84,171614,2,0,B|149:75|149:75|120:97|120:97|94:73|94:73|9:69,1,300,0|8,0:0|0:0,0:0:0:0:
160,328,172092,1,0,0:0:0:0:
512,116,172251,6,0,B|264:128|264:128|236:184,1,300,12|0,0:0|0:0,0:0:0:0:
360,384,172728,1,0,0:0:0:0:
512,228,172887,2,0,L|344:212,1,150,8|0,0:0|0:0,0:0:0:0:
152,71,173205,2,0,P|208:95|240:175,1,150,8|0,0:0|0:0,0:0:0:0:
108,288,173523,5,8,0:0:0:0:
248,376,173682,1,8,0:0:0:0:
72,264,173841,1,0,0:0:0:0:
348,292,174000,1,8,0:0:0:0:
160,384,174159,5,12,0:0:0:0:
116,0,174319,1,12,0:0:0:0:
116,0,174637,1,12,0:0:0:0:
508,56,174796,6,0,B|437:-22|315:11|297:112|297:112|206:62|124:130,1,450,12|0,0:0|0:0,0:0:0:0:
384,384,175432,1,8,0:0:0:0:
416,124,175591,1,0,0:0:0:0:
240,320,175750,1,8,0:0:0:0:
208,60,175909,1,0,0:0:0:0:
468,200,176068,5,8,0:0:0:0:
120,156,176227,1,0,0:0:0:0:
348,182,176386,1,0,0:0:0:0:
0,138,176545,1,0,0:0:0:0:
222,25,176705,2,0,P|246:185|190:321,1,300,8|0,0:0|0:0,0:0:0:0:
368,384,177182,1,0,0:0:0:0:
368,384,177341,6,0,P|340:292|448:364,1,300,12|0,0:0|0:0,0:0:0:0:
176,372,177818,1,0,0:0:0:0:
71,268,177977,2,0,P|51:192|79:128,1,150,8|0,0:0|0:0,0:0:0:0:
441,116,178295,2,0,P|461:192|433:256,1,150,0|0,0:0|0:0,0:0:0:0:
164,331,178613,5,8,0:0:0:0:
347,52,178772,1,0,0:0:0:0:
332,340,178931,1,8,0:0:0:0:
179,43,179090,1,0,0:0:0:0:
150,352,179250,5,8,0:0:0:0:
361,31,179409,1,0,0:0:0:0:
343,362,179568,1,0,0:0:0:0:
168,21,179727,1,0,0:0:0:0:
429,272,179886,6,0,B|453:312|509:256|453:176|337:184|325:280|345:368,1,300,12|8,0:0|0:0,0:0:0:0:
201,267,180363,1,0,0:0:0:0:
201,267,180522,2,0,P|173:116|30:78,1,300,8|0,0:0|0:0,0:0:0:0:
144,332,180999,1,0,0:0:0:0:
405,170,181158,5,8,0:0:0:0:
73,210,181317,1,0,0:0:0:0:
381,345,181477,1,8,0:0:0:0:
341,13,181636,1,0,0:0:0:0:
165,296,181795,2,0,L|473:320,1,300
341,13,182272,1,0,0:0:0:0:
82,150,182431,6,0,B|65:118|79:85|79:85|47:119|11:210|104:188|68:306,1,300,12|0,0:0|0:0,0:0:0:0:
356,340,182908,1,0,0:0:0:0:
322,94,183067,2,0,P|238:94|196:150,1,150,8|0,0:0|0:0,0:0:0:0:
356,340,183385,2,0,P|440:340|482:284,1,150,8|0,0:0|0:0,0:0:0:0:
256,44,183703,5,8,0:0:0:0:
200,360,183863,1,0,0:0:0:0:
500,248,184022,1,0,0:0:0:0:
141,66,184181,1,8,0:0:0:0:
304,380,184340,1,12,0:0:0:0:
360,0,184499,1,12,0:0:0:0:
508,340,184817,5,12,0:0:0:0:
0,208,184976,6,0,L|203:189,1,198.000006042481,12|0,0:0|0:0,0:0:0:0:
394,138,185612,6,0,P|465:141|519:185,1,132.00000402832,8|0,0:0|0:0,0:0:0:0:
289,123,186249,2,0,P|286:52|242:-2,1,132.00000402832,8|0,0:0|0:0,0:0:0:0:
330,207,186885,2,0,P|281:259|274:328,1,132.00000402832,8|0,0:0|0:0,0:0:0:0:
128,64,187521,6,0,L|112:63,1,11.0000003356934,8|0,0:0|0:0,0:0:0:0:
384,64,188157,6,0,L|400:63,1,11.0000003356934,8|0,0:0|0:0,0:0:0:0:
256,320,188794,6,0,L|256:336,1,11.0000003356934,8|0,0:0|0:0,0:0:0:0:
364,168,189271,1,8,0:0:0:0:
364,168,189350,1,0,0:0:0:0:
364,168,189430,2,0,L|216:180,1,132.00000402832,8|8,0:0|0:0,0:0:0:0:
164,128,189907,1,8,0:0:0:0:
292,335,190066,6,0,L|340:339,1,37.5,8|0,0:0|0:0,0:0:0:0:
100,240,190225,1,0,0:0:0:0:
403,371,190384,1,0,0:0:0:0:
24,212,190543,1,0,0:0:0:0:
272,100,190702,5,8,0:0:0:0:
216,376,190861,1,8,0:0:0:0:
212,28,191021,1,0,0:0:0:0:
268,304,191180,1,0,0:0:0:0:
120,112,191339,5,8,0:0:0:0:
408,76,191498,1,0,0:0:0:0:
23,125,191657,1,0,0:0:0:0:
311,89,191816,1,0,0:0:0:0:
80,192,191975,2,0,L|229:202,2,150,8|8|0,0:0|0:0|0:0,0:0:0:0:
281,273,192452,1,0,0:0:0:0:
176,72,192611,5,8,0:0:0:0:
120,316,192770,1,0,0:0:0:0:
32,104,192929,1,0,0:0:0:0:
304,56,193088,1,0,0:0:0:0:
144,232,193247,5,8,0:0:0:0:
392,267,193407,1,8,0:0:0:0:
116,144,193566,1,0,0:0:0:0:
424,40,193725,1,0,0:0:0:0:
312,328,193884,5,8,0:0:0:0:
200,56,194043,1,0,0:0:0:0:
200,328,194202,1,0,0:0:0:0:
312,56,194361,1,0,0:0:0:0:
184,345,194520,2,0,L|32:361,2,150,8|8|0,0:0|0:0|0:0,0:0:0:0:
104,152,194997,1,0,0:0:0:0:
264,372,195156,5,8,0:0:0:0:
168,96,195315,1,0,0:0:0:0:
308,296,195474,1,0,0:0:0:0:
356,20,195633,1,0,0:0:0:0:
256,228,195793,5,8,0:0:0:0:
160,4,195952,1,8,0:0:0:0:
416,160,196111,1,0,0:0:0:0:
116,236,196270,1,0,0:0:0:0:
344,100,196429,5,8,0:0:0:0:
44,60,196588,1,0,0:0:0:0:
508,208,196747,1,0,0:0:0:0:
208,248,196906,1,0,0:0:0:0:
341,16,197065,2,0,P|403:37|419:125,2,150,8|8|0,0:0|0:0|0:0,0:0:0:0:
119,96,197542,1,0,0:0:0:0:
279,302,197701,5,8,0:0:0:0:
200,36,197860,1,0,0:0:0:0:
45,303,198019,1,0,0:0:0:0:
311,224,198178,1,0,0:0:0:0:
119,96,198338,5,8,0:0:0:0:
200,384,198497,1,8,0:0:0:0:
313,0,198656,1,0,0:0:0:0:
25,81,198815,1,0,0:0:0:0:
288,320,198974,5,8,0:0:0:0:
120,20,199133,1,0,0:0:0:0:
200,320,199292,1,0,0:0:0:0:
368,72,199451,1,0,0:0:0:0:
0,244,199610,5,8,0:0:0:0:
512,140,199769,1,8,0:0:0:0:
512,140,200087,1,8,0:0:0:0:
48,56,200246,6,0,B|161:42|212:137|212:137|309:150|372:76,1,377.999988464356,8|0,0:0|0:0,0:0:0:0:
452,29,201519,6,0,P|463:77|451:123,1,90,0|0,0:0|0:0,0:0:0:0:
469,205,202155,6,0,L|497:209,1,24,8|0,0:0|0:0,0:0:0:0:
