osu file format v14

[General]
AudioFilename: attakaindakaraa.mp3
AudioLeadIn: 2000
PreviewTime: 61661
Countdown: 0
SampleSet: Soft
StackLeniency: 0.7
Mode: 0
LetterboxInBreaks: 0
WidescreenStoryboard: 0

[Editor]
Bookmarks: 43390
DistanceSpacing: 1.2
BeatDivisor: 4
GridSize: 8
TimelineZoom: 2.4

[Metadata]
Title:Attakain Dakara
TitleUnicode:あったかいんだからぁ♪
Artist:Anba
ArtistUnicode:アンバ
Creator:Shiny-
Version:Insane
Source:
Tags:honeyworks kumamushi hatsune miku vocaloid Because It's Warm DavidEd Fizz Smug-
BeatmapID:626245
BeatmapSetID:276201

[Difficulty]
HPDrainRate:7
CircleSize:4
OverallDifficulty:8
ApproachRate:9
SliderMultiplier:1.4
SliderTickRate:2

[Events]
//Background and Video events
0,0,"attakain-bg.jpg",0,0
Video,0,"attakain.flv"
//Break Periods
2,49684,50649
//Storyboard Layer 0 (Background)
//Storyboard Layer 1 (Fail)
//Storyboard Layer 2 (Pass)
//Storyboard Layer 3 (Foreground)
//Storyboard Sound Samples

[TimingPoints]
73,352.941176470588,4,2,0,55,1,0
73,-125,4,2,0,55,0,0
1484,-100,4,2,1,70,0,0
6425,-100,4,2,4,70,0,0
6514,-100,4,2,1,70,0,0
11543,-100,4,1,0,25,0,0
11720,-100,4,1,0,30,0,0
11896,-100,4,1,0,35,0,0
12072,-100,4,1,0,40,0,0
12249,-100,4,1,0,45,0,0
12425,-100,4,1,0,50,0,0
12602,-100,4,1,0,70,0,0
13484,-125,4,2,1,40,0,0
14190,-100,4,2,1,70,0,0
25484,-100,4,2,0,70,0,0
26896,-100,4,2,1,70,0,0
27955,-83.3333333333333,4,2,1,70,0,0
28308,-100,4,2,1,70,0,0
37308,-100,4,2,0,30,0,0
38190,-100,4,2,1,70,0,0
38896,-100,4,2,1,70,0,0
40220,-100,4,2,4,70,0,0
40396,-100,4,2,1,70,0,0
42072,-100,4,2,1,85,0,0
42161,-100,4,2,1,70,0,0
43043,-100,4,2,4,70,0,0
43220,-100,4,2,1,70,0,0
45867,-100,4,2,4,70,0,0
46043,-100,4,2,1,70,0,0
48425,-100,4,2,0,70,0,0
49484,-100,4,2,1,70,0,0
51249,352.941176470588,4,2,4,45,1,0
51249,-125,4,2,4,45,0,0
55131,-125,4,2,1,45,0,0
56896,-100,4,2,1,70,0,0
61307,-100,4,1,1,20,0,0
61484,-100,4,1,1,25,0,0
61660,-100,4,1,1,30,0,0
61837,-100,4,1,1,35,0,0
62013,-100,4,1,1,40,0,0
62190,-100,4,1,1,45,0,0
62366,-100,4,1,1,50,0,0
62543,-100,4,2,1,85,0,1
64572,-100,4,2,4,85,0,1
64747,-100,4,2,1,85,0,1
67395,-100,4,2,4,85,0,1
67571,-100,4,2,1,85,0,1
73837,-100,4,2,1,70,0,0
77719,-100,4,2,1,25,0,0

[Colours]
Combo1 : 191,97,85
Combo2 : 126,109,85
Combo3 : 216,163,117
Combo4 : 109,172,91

[HitObjects]
140,66,602,6,0,P|127:90|122:117,1,56
126,168,955,1,0,0:0:0:0:
149,212,1131,1,0,0:0:0:0:
188,243,1308,1,0,0:0:0:0:
267,215,1484,6,0,L|377:118,1,140,6|2,0:0|0:0,0:0:0:0:
290,35,2014,1,0,0:0:0:0:
195,106,2190,2,0,P|161:96|133:74,1,70,2|0,0:0|0:0,0:0:0:0:
139,195,2543,2,0,P|157:223|186:242,1,70,2|0,0:0|0:0,0:0:0:0:
376,204,2896,6,0,P|353:179|322:164,1,70,2|0,2:0|0:0,0:0:0:0:
195,106,3249,1,2,0:0:0:0:
305,237,3425,1,0,0:0:0:0:
139,195,3602,1,2,0:0:0:0:
213,31,3778,1,0,0:0:0:0:
219,232,3955,1,2,0:0:0:0:
132,92,4131,1,0,0:0:0:0:
341,129,4308,6,0,P|397:174|416:241,1,140,6|2,0:0|0:0,0:0:0:0:
305,237,4837,1,0,0:0:0:0:
165,170,5014,2,0,B|189:144|189:144|223:136,1,70,2|0,0:0|0:0,0:0:0:0:
330,84,5367,2,0,B|305:58|305:58|271:50,1,70,2|0,0:0|0:0,0:0:0:0:
429,117,5720,6,0,B|451:88|451:88|454:53,1,70,2|0,0:0|0:0,0:0:0:0:
312,168,6072,1,2,0:0:0:0:
465,193,6249,2,0,P|456:274|403:297,1,140
252,292,6778,2,0,L|184:272,1,70,2|0,0:0|1:0,0:0:0:0:
151,261,7043,1,0,1:0:0:0:
117,251,7131,5,4,0:1:0:0:
244,192,7308,1,0,0:0:0:0:
136,102,7484,1,2,0:0:0:0:
258,32,7661,1,0,0:0:0:0:
396,48,7837,2,0,L|458:79,1,70,0|8,0:0|0:3,0:0:0:0:
336,147,8190,2,0,L|273:115,1,70,2|8,0:0|0:3,0:0:0:0:
183,223,8543,5,4,0:0:0:0:
183,223,8720,1,0,0:0:0:0:
380,194,8896,1,2,0:0:0:0:
263,82,9072,1,8,0:3:0:0:
233,63,9160,1,8,0:3:0:0:
199,53,9248,1,4,0:3:0:0:
165,52,9336,1,8,0:3:0:0:
130,59,9425,6,0,L|91:105,1,35,8|8,0:0|0:0,0:0:0:0:
59,159,9602,1,10,0:0:0:0:
183,223,9778,1,8,0:0:0:0:
217,215,9867,1,8,0:0:0:0:
248,199,9955,6,0,P|272:174|282:141,1,70,6|0,0:2|0:0,0:0:0:0:
255,314,10308,1,8,0:0:0:0:
380,254,10484,1,2,0:0:0:0:
411,237,10573,1,2,0:0:0:0:
436,212,10661,2,0,P|452:181|452:146,1,70,2|2,0:0|0:0,0:0:0:0:
248,199,11014,1,8,0:0:0:0:
379,93,11190,1,2,0:0:0:0:
398,64,11278,1,2,0:0:0:0:
406,29,11367,5,6,0:0:0:0:
255,84,11543,1,0,0:0:0:0:
432,152,11720,1,4,0:0:0:0:
248,199,11896,1,0,0:0:0:0:
308,25,12072,5,0,0:0:0:0:
175,170,12249,1,0,0:0:0:0:
432,152,12425,1,0,0:0:0:0:
137,39,12602,1,0,0:0:0:0:
353,161,13484,6,0,P|349:216|317:261,1,112
112,152,14190,5,6,0:2:0:0:
232,72,14367,1,0,0:0:0:0:
253,99,14455,1,0,0:0:0:0:
263,132,14543,1,8,0:0:0:0:
260,167,14631,1,0,0:0:0:0:
243,197,14720,1,0,0:0:0:0:
114,251,14896,1,2,0:0:0:0:
247,296,15072,1,2,0:0:0:0:
280,306,15161,1,0,0:0:0:0:
314,303,15249,2,0,P|346:287|367:259,1,70,8|2,0:0|0:0,0:0:0:0:
390,95,15602,6,0,P|358:111|337:139,1,70,2|0,0:0|0:0,0:0:0:0:
247,296,15955,1,8,0:0:0:0:
112,152,16131,1,0,0:0:0:0:
112,152,16220,1,0,0:0:0:0:
112,152,16308,1,2,0:0:0:0:
224,70,16484,1,2,0:0:0:0:
183,240,16661,1,8,0:0:0:0:
106,41,16837,1,0,0:0:0:0:
318,73,17014,5,2,0:0:0:0:
183,240,17190,1,0,0:0:0:0:
208,267,17278,1,0,0:0:0:0:
237,284,17367,1,8,0:0:0:0:
270,294,17455,1,0,0:0:0:0:
305,295,17543,1,0,0:0:0:0:
445,284,17720,1,2,0:0:0:0:
431,145,17896,1,2,0:0:0:0:
410,116,17984,1,0,0:0:0:0:
383,94,18072,2,0,P|351:79|316:74,1,70,8|2,0:0|0:0,0:0:0:0:
182,115,18425,5,2,0:0:0:0:
296,198,18602,1,0,0:0:0:0:
328,208,18690,1,0,0:0:0:0:
360,217,18778,2,0,L|376:248,2,35,8|0|0,0:0|0:0|0:0,0:0:0:0:
129,173,19131,1,8,0:0:0:0:
289,81,19308,1,2,0:0:0:0:
207,243,19484,1,8,0:0:0:0:
172,65,19661,1,2,0:0:0:0:
414,166,19837,6,0,P|422:200|414:234,1,70,6|0,0:2|0:0,0:0:0:0:
396,264,20102,1,0,0:0:0:0:
368,285,20190,2,0,L|302:309,1,70,8|0,0:0|0:0,0:0:0:0:
94,276,20543,2,0,P|77:246|66:212,1,70,2|2,0:0|0:0,0:0:0:0:
69,178,20808,1,0,0:0:0:0:
78,145,20896,2,0,P|97:115|123:92,1,70,8|2,0:0|0:0,0:0:0:0:
332,63,21249,6,0,P|306:40|272:33,1,70,2|0,0:2|0:0,0:0:0:0:
248,60,21514,1,0,0:0:0:0:
234,92,21602,1,8,0:0:0:0:
236,126,21690,1,0,0:0:0:0:
255,156,21778,1,0,0:0:0:0:
172,239,21955,1,8,0:2:0:0:
333,307,22131,1,2,0:0:0:0:
140,327,22308,1,8,0:0:0:0:
366,220,22484,1,2,0:0:0:0:
176,147,22661,6,0,P|160:115|158:79,1,70,2|0,0:0|0:0,0:0:0:0:
173,49,22925,1,0,0:0:0:0:
200,26,23014,1,8,0:0:0:0:
339,36,23190,1,0,0:0:0:0:
287,204,23367,1,2,0:0:0:0:
415,148,23543,1,2,0:0:0:0:
439,172,23631,1,0,0:0:0:0:
452,204,23720,1,8,0:0:0:0:
452,239,23808,1,0,0:0:0:0:
439,271,23896,1,2,0:0:0:0:
304,292,24072,5,2,0:0:0:0:
311,143,24249,1,0,0:0:0:0:
162,218,24425,1,8,0:0:0:0:
380,216,24602,1,0,0:0:0:0:
266,75,24778,5,8,0:0:0:0:
174,311,24955,1,2,0:0:0:0:
439,271,25131,1,8,0:0:0:0:
120,168,25308,1,2,0:0:0:0:
274,225,25484,5,6,3:2:0:0:
274,225,25661,1,2,3:0:0:0:
105,276,25837,1,0,3:0:0:0:
105,276,26014,1,2,3:0:0:0:
192,192,26190,2,0,P|219:169|232:137,2,70,0|2|0,3:0|3:0|3:0,0:0:0:0:
120,168,26720,1,0,3:0:0:0:
212,66,26896,6,0,P|271:29|340:34,1,140,4|8,0:0|0:0,0:0:0:0:
412,77,27425,1,0,0:0:0:0:
299,139,27602,2,0,L|232:160,1,70
43,271,27955,2,0,P|50:303|97:317,1,83.9999974365235,10|0,0:0|0:0,0:0:0:0:
215,262,28308,6,0,P|247:249|282:248,1,70
367,280,28661,1,8,0:0:0:0:
216,179,28837,2,0,P|184:161|150:159,1,70
298,139,29190,2,0,P|333:133|363:115,1,70,0|8,0:0|0:0,0:0:0:0:
441,57,29543,1,0,0:0:0:0:
403,192,29720,6,0,P|381:220|350:235,1,70
317,246,29984,1,0,0:0:0:0:
281,244,30072,1,8,0:0:0:0:
177,222,30249,1,0,0:0:0:0:
282,159,30425,1,0,0:0:0:0:
291,299,30602,1,0,0:0:0:0:
191,178,30778,1,8,0:0:0:0:
336,50,30955,1,0,0:0:0:0:
403,192,31131,6,0,P|417:223|444:245,1,70
469,259,31395,1,0,0:0:0:0:
500,265,31483,1,8,0:0:0:0:
291,299,31661,2,0,P|228:276|213:210,1,140,0|8,0:0|0:0,0:0:0:0:
301,130,32190,1,8,0:0:0:0:
403,192,32367,1,2,0:0:0:0:
291,299,32543,6,0,L|146:354,1,140,4|8,0:1|0:0,0:0:0:0:
63,309,33072,1,0,0:0:0:0:
127,208,33249,2,0,P|135:175|125:141,1,70,2|0,0:0|0:0,0:0:0:0:
165,43,33602,2,0,P|181:75|209:95,1,70,8|0,0:0|0:0,0:0:0:0:
350,101,33955,5,2,0:0:0:0:
281,203,34131,1,0,0:0:0:0:
457,106,34308,1,8,0:0:0:0:
285,73,34485,1,0,0:0:0:0:
308,193,34661,1,2,0:0:0:0:
378,5,34838,1,0,0:0:0:0:
208,94,35014,2,0,P|230:144|259:168,1,70,8|0,0:0|0:0,0:0:0:0:
437,265,35367,6,0,P|422:297|394:317,1,70,2|0,0:0|0:0,0:0:0:0:
362,332,35631,1,0,0:0:0:0:
326,336,35720,1,8,0:0:0:0:
191,326,35896,1,0,0:0:0:0:
269,235,36072,2,0,L|357:231,2,70,2|8|8,0:0|0:0|0:0,0:0:0:0:
128,229,36602,2,0,P|83:179|105:116,1,140,4|0,0:1|0:0,0:0:0:0:
104,116,37043,1,0,0:0:0:0:
104,116,37131,1,0,0:0:0:0:
174,68,37308,5,2,0:0:0:0:
240,45,37484,1,2,0:0:0:0:
305,69,37661,1,2,0:0:0:0:
279,163,37837,1,2,0:0:0:0:
329,211,38014,1,2,0:0:0:0:
398,213,38190,6,0,P|465:197|511:146,1,140,6|8,0:0|0:0,0:0:0:0:
422,64,38720,1,0,0:0:0:0:
299,143,38896,2,0,P|240:177|171:170,1,140,2|8,0:0|0:0,0:0:0:0:
325,312,39602,6,0,P|359:306|388:286,1,70,2|0,0:0|0:0,0:0:0:0:
449,209,39955,1,8,0:0:0:0:
385,93,40131,2,0,P|326:58|258:73,1,140
177,160,40661,2,0,P|153:134|144:101,1,70,8|0,0:0|0:0,0:0:0:0:
311,156,41014,6,0,P|297:222|240:261,1,140,2|8,0:0|0:0,0:0:0:0:
134,252,41543,1,0,0:0:0:0:
162,114,41720,1,2,0:0:0:0:
70,164,41896,1,0,0:0:0:0:
269,164,42072,2,0,P|297:143|314:113,1,70,8|0,2:0|2:0,2:0:0:0:
432,187,42425,6,0,P|406:210|373:221,1,70,2|0,2:0|2:0,2:0:0:0:
242,272,42778,1,8,0:0:0:0:
315,113,42955,2,0,P|288:48|217:24,1,140,0|8,0:0|0:0,0:0:0:0:
42,102,43484,2,0,P|54:135|81:157,1,70,8|0,0:0|0:0,0:0:0:0:
303,212,43837,5,6,0:0:0:0:
140,291,44014,1,0,0:0:0:0:
186,173,44190,1,8,0:0:0:0:
257,329,44366,1,0,0:0:0:0:
268,188,44543,1,2,0:0:0:0:
116,160,44720,1,2,0:0:0:0:
232,265,44896,1,8,0:0:0:0:
324,121,45072,1,0,0:0:0:0:
162,78,45249,5,2,0:0:0:0:
268,188,45425,1,0,0:0:0:0:
288,17,45602,1,8,0:0:0:0:
186,173,45778,2,0,P|202:237|264:267,1,140,0|2,0:0|0:0,0:0:0:0:
356,230,46308,1,8,0:0:0:0:
383,136,46484,1,0,0:0:0:0:
261,66,46661,6,0,P|199:47|114:104,1,140,2|8,0:0|0:0,0:0:0:0:
65,157,47190,1,0,0:0:0:0:
71,262,47367,1,2,0:0:0:0:
142,218,47543,1,2,0:0:0:0:
222,194,47720,1,8,0:0:0:0:
305,194,47896,1,0,0:0:0:0:
406,290,48072,6,0,P|389:320|364:344,1,70,4|0,0:1|0:0,0:0:0:0:
225,369,48425,1,4,0:3:0:0:
114,282,48602,1,8,0:3:0:0:
222,194,48778,6,0,L|274:174,2,46.6666666666667,8|4|8,0:3|0:3|0:3,0:3:0:0:
121,118,49131,2,0,L|69:98,2,46.6666666666667,4|4|4,0:3|0:3|0:3,0:3:0:0:
222,42,49484,5,4,0:0:0:0:
66,61,51249,6,0,P|84:41|108:27,1,56,2|0,0:0|0:0,0:0:0:0:
141,103,51601,2,0,P|166:106|202:126,1,56
230,161,51954,1,0,0:0:0:0:
265,204,52131,1,0,0:0:0:0:
318,221,52307,1,0,0:0:0:0:
367,193,52484,1,0,0:0:0:0:
398,115,52660,6,0,L|353:79,1,56,2|0,0:0|0:0,0:0:0:0:
261,56,53013,1,0,0:0:0:0:
141,103,53190,2,0,P|98:102|73:94,1,56,0|2,0:0|0:0,0:0:0:0:
196,174,53543,2,0,P|239:173|264:165,2,56
70,238,54072,6,0,P|80:274|103:296,1,56,2|0,0:0|0:0,0:0:0:0:
140,316,54425,1,0,0:0:0:0:
193,332,54601,1,0,0:0:0:0:
287,321,54778,2,0,P|315:297|326:267,1,56,2|0,0:0|0:0,0:0:0:0:
461,307,55131,5,8,0:1:0:0:
411,89,55484,6,0,P|367:52|300:57,1,112
275,206,56013,2,0,P|322:179|340:127,1,112
261,128,56543,2,0,L|194:124,1,56
71,81,56896,5,4,0:0:0:0:
160,224,57249,1,0,0:0:0:0:
328,256,57601,1,0,0:0:0:0:
425,119,57954,1,0,0:0:0:0:
200,112,58307,5,4,0:0:0:0:
424,232,58660,1,0,0:0:0:0:
152,304,59013,1,0,0:0:0:0:
336,40,59366,2,0,L|250:53,1,70
127,34,59719,5,4,0:0:0:0:
83,166,60072,1,0,0:0:0:0:
290,135,60425,2,0,L|376:151,1,70,4|0,0:0|0:0,0:0:0:0:
457,247,60778,1,0,0:0:0:0:
252,293,61131,5,0,0:0:0:0:
170,271,61307,1,2,0:2:0:0:
124,176,61484,1,2,0:2:0:0:
251,118,61660,1,2,0:2:0:0:
105,58,61837,1,2,0:2:0:0:
204,201,62013,1,2,0:2:0:0:
281,28,62190,1,2,0:2:0:0:
380,212,62366,1,2,0:2:0:0:
105,58,62543,6,0,P|65:85|49:123,1,70,4|0,0:1|0:0,0:0:0:70:soft-hitwhistle2.wav
45,208,62896,1,8,0:0:0:0:
101,295,63072,1,0,0:0:0:0:
204,201,63248,2,0,P|232:179|266:172,1,70,2|2,0:0|0:0,0:0:0:0:
380,212,63601,2,0,P|351:233|317:241,1,70,8|0,0:0|0:0,0:0:0:0:
392,83,63954,6,0,P|419:61|453:54,1,70,2|0,0:0|0:0,0:0:0:0:
511,141,64307,1,8,0:0:0:0:
323,46,64484,2,0,P|254:44|199:86,1,140,0|2,0:0|0:0,0:0:0:0:
146,215,65013,1,8,0:0:0:0:
381,143,65190,1,8,0:0:0:0:
381,143,65278,1,8,0:0:0:0:
381,143,65366,6,0,P|380:210|371:229,1,70,2|0,0:0|0:0,0:0:0:0:
263,257,65719,1,8,0:0:0:0:
146,126,65895,1,0,0:0:0:0:
146,302,66072,1,2,0:0:0:0:
263,171,66248,1,2,0:0:0:0:
263,346,66425,1,8,0:0:0:0:
146,215,66601,1,0,0:0:0:0:
263,61,66778,6,0,P|299:38|341:33,1,70,2|0,0:0|0:0,0:0:0:0:
429,37,67131,1,8,0:0:0:0:
414,210,67307,2,0,P|349:187|329:123,1,140,0|2,0:0|0:0,0:0:0:0:
184,96,67837,2,0,P|150:101|125:124,1,70,8|8,0:0|0:0,0:0:0:0:
108,155,68101,1,8,0:0:0:0:
125,186,68190,6,0,P|177:204|255:163,1,140,6|8,0:0|0:0,0:0:0:0:
380,102,68719,2,0,P|393:145|381:198,1,70,0|2,0:0|1:2,0:0:0:0:
273,246,69072,1,8,0:0:0:0:
184,96,69248,1,8,0:0:0:0:
391,169,69425,1,0,1:0:0:0:
186,264,69601,6,0,L|97:260,1,70,2|0,0:0|1:0,0:0:0:0:
54,127,69954,1,8,0:0:0:0:
278,121,70131,1,0,0:0:0:0:
301,145,70219,1,0,0:0:0:0:
326,171,70307,1,4,1:2:0:0:
186,264,70484,1,0,0:0:0:0:
371,247,70660,1,4,1:2:0:0:
141,188,70837,1,0,0:0:0:0:
357,330,71013,6,0,P|391:328|428:309,1,70,2|2,0:0|0:0,0:0:0:0:
503,165,71366,2,0,P|468:167|436:182,1,70,8|0,0:0|0:0,0:0:0:0:
186,264,71719,2,0,P|154:278|119:280,1,70,2|2,0:0|0:0,0:0:0:0:
265,115,72072,2,0,P|296:100|331:97,1,70,8|0,0:0|0:0,0:0:0:0:
503,165,72425,1,2,0:0:0:0:
322,214,72601,1,2,0:0:0:0:
445,70,72778,1,8,0:0:0:0:
431,258,72954,1,2,0:0:0:0:
331,97,73131,6,0,L|369:70,2,46.6666666666667,8|4|8,0:3|0:3|0:3,0:0:0:0:
189,179,73484,2,0,L|150:152,2,46.6666666666667,4|4|4,0:3|0:3|0:3,0:0:0:0:
74,152,74543,6,0,P|100:242|142:265,1,140
256,192,75248,1,4,0:1:0:0:
256,192,75337,12,0,77719,0:0:0:0:
