osu file format v14

[General]
AudioFilename: attakaindakaraa.mp3
AudioLeadIn: 2000
PreviewTime: 61661
Countdown: 0
SampleSet: Soft
StackLeniency: 0.7
Mode: 0
LetterboxInBreaks: 0
WidescreenStoryboard: 0

[Editor]
DistanceSpacing: 1
BeatDivisor: 4
GridSize: 4
TimelineZoom: 2.3

[Metadata]
Title:Attakain Dakara
TitleUnicode:あったかいんだからぁ♪
Artist:Anba
ArtistUnicode:アンバ
Creator:Shiny-
Version:Easy
Source:
Tags:honeyworks kumamushi hatsune miku vocaloid Because It's Warm DavidEd Fizz Smug-
BeatmapID:626495
BeatmapSetID:276201

[Difficulty]
HPDrainRate:2
CircleSize:3
OverallDifficulty:2
ApproachRate:3
SliderMultiplier:0.8
SliderTickRate:1

[Events]
//Background and Video events
0,0,"attakain-bg.jpg",0,0
Video,0,"attakain.flv"
//Break Periods
//Storyboard Layer 0 (Background)
//Storyboard Layer 1 (Fail)
//Storyboard Layer 2 (Pass)
//Storyboard Layer 3 (Foreground)
//Storyboard Sound Samples

[TimingPoints]
73,352.941176470588,4,2,0,55,1,0
1484,-100,4,2,1,70,0,0
4661,-100,4,2,4,70,0,0
4749,-100,4,2,1,70,0,0
6072,-100,4,2,4,70,0,0
6514,-100,4,2,1,70,0,0
10308,-100,4,2,4,70,0,0
10396,-100,4,2,1,70,0,0
11720,-100,4,1,0,40,0,0
12072,-100,4,1,0,45,0,0
12249,-100,4,1,0,50,0,0
12425,-100,4,1,0,55,0,0
12602,-100,4,1,0,70,0,0
14190,-100,4,2,1,70,0,0
20190,-100,4,2,3,70,0,0
20367,-100,4,2,1,70,0,0
21602,-100,4,2,3,70,0,0
21778,-100,4,2,1,70,0,0
27249,-100,4,2,3,70,0,0
27337,-100,4,2,1,70,0,0
28661,-100,4,2,3,70,0,0
28749,-100,4,2,1,70,0,0
29014,-100,4,2,4,70,0,0
29102,-100,4,2,1,70,0,0
30778,-100,4,2,3,70,0,0
30955,-100,4,2,1,70,0,0
32896,-100,4,2,3,70,0,0
32984,-100,4,2,1,70,0,0
34308,-100,4,2,3,70,0,0
34396,-100,4,2,1,70,0,0
35720,-100,4,2,3,70,0,0
35808,-100,4,2,1,70,0,0
37308,-100,4,2,1,55,0,0
38543,-100,4,2,3,70,0,0
38720,-100,4,2,1,70,0,0
39955,-100,4,2,3,70,0,0
40131,-100,4,2,1,70,0,0
41367,-100,4,2,3,70,0,0
41543,-100,4,2,1,70,0,0
44190,-100,4,2,3,70,0,0
44367,-100,4,2,1,70,0,0
47014,-100,4,2,3,70,0,0
47102,-100,4,2,1,70,0,0
51249,352.941176470588,4,2,0,55,1,0
56896,-100,4,2,1,70,0,0
60072,-100,4,2,3,70,0,0
60248,-100,4,2,1,70,0,0
61484,-100,4,1,1,25,0,0
61837,-100,4,1,1,40,0,0
62190,-100,4,1,1,50,0,0
62543,-100,4,2,3,85,0,1
63072,-100,4,2,1,85,0,1
65719,-100,4,2,3,85,0,1
65896,-100,4,2,1,85,0,1
67131,-100,4,2,3,85,0,1
67219,-100,4,2,1,85,0,1
71366,-100,4,2,3,85,0,1
71543,-100,4,2,1,85,0,1
73131,-100,4,2,3,85,0,1
73837,-100,4,2,3,70,0,0
77719,-100,4,2,3,25,0,0

[Colours]
Combo1 : 191,97,85
Combo2 : 126,109,85
Combo3 : 216,163,117
Combo4 : 109,172,91

[HitObjects]
272,152,1484,6,0,P|296:192|336:216,2,80,6|2|2,0:0|0:0|0:0,0:0:0:0:
288,72,2543,1,2,0:0:0:0:
208,56,2896,2,0,P|160:48|112:64,1,80,2|2,0:0|0:0,0:0:0:0:
88,128,3602,2,0,P|136:136|184:120,1,80,2|2,0:0|0:0,0:0:0:0:
248,144,4308,6,0,P|237:219|168:254,1,160,6|2,0:0|0:0,0:0:0:0:
99,210,5367,1,2,0:0:0:0:
168,168,5720,2,0,L|80:64,2,120,2|0|2,0:0|0:0|0:0,0:0:0:0:
220,228,7131,5,4,0:0:0:0:
361,153,7837,2,0,P|377:97|368:67,1,80,0|2,0:0|0:0,0:0:0:0:
294,104,8543,2,0,L|199:126,1,80,4|2,0:0|0:0,0:0:0:0:
148,168,9249,2,0,P|134:132|140:92,1,80,0|2,0:0|0:0,0:0:0:0:
187,27,9955,6,0,P|112:16|61:74,1,160,4|0,0:0|0:0,0:0:0:0:
52,155,11014,1,2,0:0:0:0:
104,215,11367,2,0,L|209:188,1,80
216,122,12072,2,0,P|259:78|329:81,1,120
140,99,14190,5,4,0:0:0:0:
212,132,14543,1,8,0:0:0:0:
292,126,14896,2,0,P|348:134|388:174,1,80,0|8,0:0|0:0,0:0:0:0:
383,225,15602,2,0,P|327:217|287:177,1,80,0|8,0:0|0:0,0:0:0:0:
228,212,16308,1,0,0:0:0:0:
148,200,16661,1,8,0:0:0:0:
160,280,17014,6,0,P|190:303|232:314,1,80,0|8,0:0|0:0,0:0:0:0:
300,275,17720,2,0,P|318:240|320:199,1,80,0|8,0:0|0:0,0:0:0:0:
245,174,18425,1,0,0:0:0:0:
178,130,18778,1,8,0:0:0:0:
101,153,19131,2,0,P|64:141|40:109,1,80,0|8,0:0|0:0,0:0:0:0:
113,76,19837,6,0,P|185:45|250:87,1,160,4|0,0:0|0:0,0:0:0:0:
273,165,20896,1,8,0:0:0:0:soft-hitclap.wav
225,229,21249,2,0,B|152:262|152:262|89:213,1,160
68,135,22308,1,8,0:0:0:0:
137,96,22661,6,0,L|201:144,1,80,0|8,0:0|0:0,0:0:0:0:
281,144,23367,2,0,L|345:96,1,80,0|8,0:0|0:0,0:0:0:0:
380,22,24072,2,0,P|341:13|304:26,2,80,0|8|0,0:0|0:0|0:0,0:0:0:0:
451,58,25131,1,8,0:0:0:0:
492,126,25484,5,0,0:0:0:0:
311,322,26896,6,0,P|380:273|384:196,1,160,4|2,0:0|0:0,0:0:0:0:
364,125,27955,1,8,0:0:0:0:
294,85,28308,2,0,L|202:9,2,120,2|0|8,0:0|0:0|0:0,0:0:0:0:
276,163,29720,6,0,P|237:164|197:142,1,80,2|8,0:0|0:0,0:0:0:0:
146,87,30425,2,0,P|64:73|4:133,1,160,2|2,0:0|0:0,0:0:0:0:
0,200,31484,5,8,0:0:0:0:
48,264,31837,2,0,P|77:289|116:296,1,80,2|8,0:0|0:0,0:0:0:0:
186,255,32543,6,0,B|266:228|265:280|345:253,1,160,6|2,0:0|0:0,0:0:0:0:
406,205,33602,1,8,0:0:0:0:soft-hitclap.wav
412,125,33955,2,0,P|357:72|273:95,1,160,2|2,0:0|0:0,0:0:0:0:
228,148,35014,1,8,0:0:0:0:
176,208,35367,6,0,P|100:223|45:170,1,160,2|2,0:0|0:0,0:0:0:0:
52,92,36425,2,0,L|72:40,1,40,8|8,0:0|0:0,0:0:0:0:
285,77,38190,6,0,B|333:141|333:141|333:237,1,160,6|0,0:0|0:0,0:0:0:0:
279,280,39249,1,8,0:0:0:0:soft-hitclap.wav
222,336,39602,2,0,B|174:272|174:272|174:176,1,160
229,134,40661,1,8,0:0:0:0:soft-hitclap.wav
284,76,41014,6,0,P|207:57|154:108,1,160
143,188,42072,1,8,0:0:0:0:
205,237,42425,2,0,L|291:209,2,80,0|8|0,0:0|0:0|0:0,0:0:0:0:
130,265,43484,1,8,0:0:0:0:
68,213,43837,6,0,P|82:138|154:110,1,160
230,135,44896,1,8,0:0:0:0:
302,169,45249,2,0,L|398:185,1,80,0|8,0:0|0:0,0:0:0:0:
384,262,45955,2,0,L|305:248,1,80,0|8,0:0|0:0,0:0:0:0:
232,214,46661,6,0,P|227:274|305:330,1,160,0|2,0:0|0:0,0:0:0:0:
379,341,47720,1,8,0:0:0:0:
256,192,48072,12,4,49484,0:0:0:0:
136,294,51249,6,2,B|103:220|103:220|129:145,1,160
281,91,52660,2,2,B|344:86|371:136|371:136|404:137|427:169,1,160
439,237,53719,1,0,0:0:0:0:
361,217,54072,6,2,B|324:216|298:174|298:174|252:184|210:142,1,160
156,108,55131,1,0,0:0:0:70:normal-hitclap.wav
115,177,55484,2,2,P|59:195|0:189,2,120,0|0|0,0:0|0:0|0:0,0:0:0:0:
156,108,56896,5,4,0:0:0:0:
312,64,57601,2,0,L|312:160,1,80
260,206,58307,2,0,P|222:216|184:205,1,80,4|0,0:0|0:0,0:0:0:0:
172,125,59013,2,0,P|196:94|232:79,1,80,0|8,0:0|0:0,0:0:0:0:
312,64,59719,6,0,P|376:128|368:208,1,160,4|0,0:0|0:0,0:0:0:0:
318,249,60778,1,8,0:0:0:0:soft-hitclap.wav
240,272,61131,2,0,L|160:208,1,80,0|0,0:0|0:0,0:0:0:0:
130,156,61837,1,0,0:0:0:0:
209,146,62190,1,0,0:0:0:0:
288,155,62543,6,0,P|318:106|266:15,1,160,4|0,0:0|0:0,0:0:0:0:
198,32,63601,1,8,0:0:0:0:
129,73,63954,2,0,L|41:73,2,80,0|8|0,0:0|0:0|0:0,0:0:0:0:
199,111,65013,1,8,0:0:0:0:
258,164,65366,6,0,P|242:228|146:252,1,160,0|0,0:0|0:0,0:0:0:0:
102,199,66425,1,8,0:0:0:0:
87,120,66778,6,0,P|144:129|179:177,2,120,0|0|8,0:0|0:0|0:0,0:0:0:0:
6,116,68190,5,4,0:0:0:0:
150,47,68896,2,0,P|214:85|256:164,1,160,0|4,0:0|0:0,0:0:0:0:
130,260,70307,1,4,0:0:0:0:
184,318,70660,1,0,0:0:0:0:
260,346,71013,6,0,P|333:348|399:263,1,160
367,214,72072,1,8,0:0:0:0:
415,150,72425,1,0,0:0:0:0:
363,88,72778,2,2,P|256:40|149:87,1,240,8|6,0:0|0:0,0:0:0:0:
256,205,74543,6,0,L|256:301,1,80
256,192,75248,12,0,77719,0:0:0:0:
