osu file format v14

[General]
AudioFilename: Anba - Attakain Dakara.mp3
AudioLeadIn: 0
PreviewTime: 61656
Countdown: 0
SampleSet: Soft
StackLeniency: 0.5
Mode: 0
LetterboxInBreaks: 0
WidescreenStoryboard: 0

[Editor]
DistanceSpacing: 0.5
BeatDivisor: 4
GridSize: 32
TimelineZoom: 8

[Metadata]
Title:Attakain Dakara
TitleUnicode:Attakain Dakara
Artist:Anba
ArtistUnicode:Anba
Creator:Ongaku
Version:Insane
Source:
Tags:honeyworks kumamushi hatsune miku vocaloid Because It's Warm Gero
BeatmapID:877852
BeatmapSetID:403741

[Difficulty]
HPDrainRate:5.5
CircleSize:3.7
OverallDifficulty:7.5
ApproachRate:8.7
SliderMultiplier:1.7
SliderTickRate:1

[Events]
//Background and Video events
0,0,"attakain-bg.jpg",0,0
//Break Periods
2,49679,55819
//Storyboard Layer 0 (Background)
//Storyboard Layer 1 (Fail)
//Storyboard Layer 2 (Pass)
//Storyboard Layer 3 (Foreground)
//Storyboard Sound Samples

[TimingPoints]
1480,352.941176470588,4,2,1,50,1,0
11362,-100,4,2,1,60,0,0
11715,-100,4,2,1,70,0,0
12068,-100,4,2,1,80,0,0
12421,-100,4,2,1,90,0,0
13479,-200,4,2,1,30,0,0
14185,-100,4,2,1,90,0,0
26891,-100,4,2,1,50,0,0
36950,-100,4,2,1,30,0,0
38185,-100,4,2,1,90,0,0
49479,-100,4,2,1,90,0,0
56494,-200,4,2,1,30,0,0
56924,-100,4,2,1,50,0,0
61127,-100,4,2,1,60,0,0
61479,-100,4,2,1,70,0,0
61832,-100,4,2,1,80,0,0
62538,-100,4,2,1,90,0,1
68185,-100,4,2,1,90,0,0
71009,-100,4,2,1,90,0,1
73832,-100,4,2,1,90,0,0
75332,-100,4,2,1,50,0,0

[HitObjects]
480,136,1480,6,0,P|403:159|303:122,1,170,8|8,0:3|0:3,0:0:0:0:
252,25,2009,1,0,0:0:0:0:
252,25,2097,1,0,0:0:0:0:
252,25,2185,2,0,L|282:210,1,170,8|8,0:3|0:3,0:0:0:0:
362,290,2715,1,0,0:0:0:0:
341,283,2803,1,0,0:0:0:0:
320,278,2891,6,0,P|234:275|140:294,1,170,8|8,0:3|0:3,0:0:0:0:
44,360,3421,2,0,P|55:317|43:265,1,85,0|8,0:0|0:3,0:0:0:0:
156,207,3774,2,0,P|145:250|157:302,1,85,0|8,0:0|0:3,0:0:0:0:
237,194,4127,1,0,0:0:0:0:
237,194,4215,1,0,0:0:0:0:
237,194,4303,6,0,P|183:131|91:155,1,170,8|8,0:3|0:3,0:0:0:0:
173,250,4832,1,0,0:0:0:0:
300,255,5009,2,0,L|475:240,1,170,8|8,0:3|0:3,0:0:0:0:
349,197,5538,1,0,0:0:0:0:
349,197,5627,1,0,0:0:0:0:
349,197,5715,6,0,P|339:149|355:109,1,85,8|0,0:3|0:0,0:0:0:0:
456,44,6068,1,8,0:3:0:0:
350,115,6244,2,0,L|255:107,1,85,0|8,0:0|0:3,0:0:0:0:
154,43,6597,2,0,L|249:35,1,85,0|8,0:0|0:3,0:0:0:0:
150,128,6950,2,0,L|70:136,1,42.5,8|0,0:1|0:0,0:0:0:0:
50,196,7127,5,4,0:1:0:0:
57,210,7479,1,8,0:3:0:0:
65,224,7832,1,8,0:3:0:0:
173,291,8009,1,8,0:3:0:0:
90,309,8185,1,8,0:0:0:0:
256,273,8362,1,8,0:1:0:0:
173,291,8538,6,0,L|256:273,1,85,4|0,0:0|0:0,0:0:0:0:
280,359,8891,1,8,0:3:0:0:
385,287,9068,1,0,0:0:0:0:
396,269,9156,1,0,0:0:0:0:
402,248,9244,1,0,0:0:0:0:
400,226,9332,1,0,0:0:0:0:
391,206,9421,2,0,P|388:180|399:156,2,42.5
434,88,9774,1,8,0:0:0:0:
434,88,9862,1,8,0:0:0:0:
434,88,9950,6,0,L|345:97,1,85,4|0,0:1|0:0,0:0:0:0:
229,139,10303,1,8,0:1:0:0:
133,72,10479,1,8,0:3:0:0:
133,72,10568,1,8,0:3:0:0:
133,72,10656,2,0,P|145:112|129:163,1,85,8|0,0:3|0:0,0:0:0:0:
77,267,11009,1,8,0:1:0:0:
201,239,11185,1,8,0:3:0:0:
222,235,11274,1,8,0:3:0:0:
242,231,11362,5,8,0:0:0:0:
324,249,11538,1,8,0:0:0:0:
267,312,11715,1,8,0:0:0:0:
297,171,11891,1,8,0:0:0:0:
353,331,12068,1,8,0:0:0:0:
213,149,12244,1,8,0:0:0:0:
408,271,12421,1,8,0:0:0:0:
160,211,12597,1,8,0:0:0:0:
213,149,13479,6,0,P|275:95|357:117,1,170,2|4,0:0|0:1,0:0:0:0:
376,114,14274,1,8,0:0:0:0:
405,110,14362,1,8,0:0:0:0:
434,107,14450,1,8,0:0:0:0:
456,126,14538,2,0,L|499:120,3,42.5,8|8|8|8,0:3|0:0|0:0|0:0,0:0:0:0:
482,146,14891,5,8,0:3:0:0:
471,173,14979,1,8,0:0:0:0:
470,202,15068,1,8,0:0:0:0:
478,230,15156,1,8,0:0:0:0:
495,253,15244,5,8,0:3:0:0:
465,250,15332,1,8,0:0:0:0:
435,248,15421,1,8,0:0:0:0:
405,246,15509,1,8,0:0:0:0:
375,243,15597,6,0,P|333:242|282:248,1,85,8|8,0:3|0:0,0:0:0:0:
290,246,15862,1,8,0:0:0:0:
290,246,15950,1,8,0:3:0:0:
186,321,16127,1,8,0:0:0:0:
186,321,16215,1,8,0:0:0:0:
186,321,16303,2,0,L|127:312,3,42.5,8|8|8|8,0:3|0:0|0:0|0:0,0:0:0:0:
122,293,16656,5,8,0:3:0:0:
114,264,16744,1,8,0:0:0:0:
116,234,16832,1,8,0:0:0:0:
131,208,16921,1,8,0:0:0:0:
156,192,17009,6,0,L|199:198,3,42.5,8|8|8|8,0:3|0:0|0:0|0:0,0:0:0:0:
228,196,17362,2,0,P|243:155|235:105,1,85,8|8,0:3|0:0,0:0:0:0:
218,92,17627,1,8,0:0:0:0:
247,96,17715,5,8,0:3:0:0:
276,97,17803,1,8,0:0:0:0:
305,93,17891,1,8,0:0:0:0:
333,83,17979,1,8,0:0:0:0:
357,66,18068,6,0,L|386:30,3,42.5,8|8|8|8,0:3|0:0|0:0|0:0,0:0:0:0:
411,22,18421,2,0,P|453:15|506:30,1,85,8|8,0:3|0:0,0:0:0:0:
493,24,18685,1,8,0:0:0:0:
493,24,18774,1,8,0:3:0:0:
446,142,18950,1,8,0:0:0:0:
446,142,19038,1,8,0:0:0:0:
446,142,19127,2,0,L|395:148,3,42.5,8|8|8|8,0:3|0:0|0:0|0:0,0:0:0:0:
361,147,19479,5,8,0:1:0:0:
318,140,19568,1,8,0:1:0:0:
276,133,19656,1,8,0:1:0:0:
234,126,19744,1,8,0:1:0:0:
192,118,19832,5,4,0:1:0:0:
103,210,20009,1,8,0:1:0:0:
103,210,20097,1,8,0:0:0:0:
103,210,20185,2,0,P|137:230|182:239,1,85,8|8,0:3|0:0,0:0:0:0:
202,235,20450,1,8,0:0:0:0:
223,232,20538,1,8,0:3:0:0:
244,232,20627,1,8,0:0:0:0:
264,235,20715,1,8,0:0:0:0:
284,241,20803,1,8,0:0:0:0:
302,251,20891,6,0,L|348:236,3,42.5,8|8|8|8,0:3|0:0|0:0|0:0,0:0:0:0:
363,232,21244,2,0,P|405:225|458:234,1,85,8|8,0:3|0:0,0:0:0:0:
446,230,21509,1,8,0:0:0:0:
446,230,21597,1,8,0:3:0:0:
421,349,21774,1,0,0:0:0:0:
421,349,21862,1,8,0:0:0:0:
421,349,21950,2,0,L|364:352,3,42.5,8|8|8|8,0:3|0:0|0:0|0:0,0:0:0:0:
335,347,22303,5,8,0:1:0:0:
293,339,22391,1,8,0:1:0:0:
250,340,22479,1,8,0:1:0:0:
207,347,22568,1,8,0:1:0:0:
168,364,22656,6,0,L|78:356,1,85,8|8,0:3|0:0,0:0:0:0:
83,356,22921,1,8,0:0:0:0:
83,356,23009,1,8,0:3:0:0:
141,243,23185,1,8,0:0:0:0:
141,243,23274,1,8,0:0:0:0:
141,243,23362,2,0,P|142:196|128:153,1,85,8|8,0:3|0:0,0:0:0:0:
111,137,23627,1,8,0:0:0:0:
140,139,23715,5,8,0:3:0:0:
169,137,23803,1,8,0:0:0:0:
198,131,23891,1,8,0:0:0:0:
225,120,23979,1,8,0:0:0:0:
251,105,24068,6,0,P|293:89|362:82,1,85,8|8,0:3|0:0,0:0:0:0:
332,82,24332,1,8,0:0:0:0:
332,82,24421,1,8,0:3:0:0:
330,209,24597,1,8,0:0:0:0:
330,209,24685,1,8,0:0:0:0:
330,209,24774,2,0,L|391:214,3,42.5,8|8|8|8,0:3|0:0|0:0|0:0,0:0:0:0:
410,231,25127,5,8,0:1:0:0:
429,268,25215,1,8,0:1:0:0:
426,310,25303,1,8,0:1:0:0:
396,340,25391,1,8,0:1:0:0:
396,301,26891,6,0,L|303:295,1,85,8|2,0:3|0:3,0:0:0:0:
209,218,27244,2,0,L|302:212,1,85,8|2,0:3|0:3,0:0:0:0:
314,209,27509,1,2,0:3:0:0:
332,199,27597,2,0,P|344:158|329:108,1,85,10|2,0:3|0:3,0:0:0:0:
225,51,27950,5,10,0:3:0:0:
263,67,28038,1,2,0:3:0:0:
305,69,28127,1,2,0:3:0:0:
346,59,28215,1,2,0:3:0:0:
382,36,28303,6,0,L|388:141,1,85,8|2,0:3|0:3,0:0:0:0:
397,139,28568,1,2,0:3:0:0:
412,153,28656,2,0,P|367:159|313:186,1,85,10|2,0:3|0:3,0:0:0:0:
330,174,28921,1,2,0:3:0:0:
330,174,29009,1,10,0:3:0:0:
412,271,29185,1,8,0:0:0:0:
285,287,29362,5,10,0:3:0:0:
243,280,29450,1,2,0:3:0:0:
200,282,29538,1,2,0:3:0:0:
159,295,29627,1,2,0:3:0:0:
128,324,29715,6,0,P|122:275|97:234,1,85,8|2,0:3|0:3,0:0:0:0:
153,125,30068,2,0,P|159:174|184:215,1,85,10|2,0:3|0:3,0:0:0:0:
193,216,30332,1,2,0:3:0:0:
212,223,30421,2,0,L|309:214,1,85,10|0,0:3|0:0,0:0:0:0:
388,126,30774,1,8,0:3:0:0:
371,252,30950,1,2,0:3:0:0:
310,139,31127,6,0,P|266:136|222:147,1,85,8|2,0:3|0:3,0:0:0:0:
213,162,31391,1,2,0:3:0:0:
202,180,31479,2,0,L|109:174,1,85,10|2,0:3|0:3,0:0:0:0:
27,266,31832,1,8,0:3:0:0:
47,139,32009,1,2,0:3:0:0:
106,251,32185,5,10,0:3:0:0:
141,274,32274,1,2,0:3:0:0:
181,284,32362,1,2,0:3:0:0:
223,282,32450,1,2,0:3:0:0:
264,273,32538,6,0,P|307:252|353:245,1,85,4|0,0:1|0:0,0:0:0:0:
431,337,32891,2,0,L|327:344,1,85,8|2,0:1|0:3,0:0:0:0:
346,342,33156,1,2,0:3:0:0:
346,342,33244,1,10,0:3:0:0:
235,278,33421,1,2,0:3:0:0:
231,257,33509,1,2,0:3:0:0:
232,235,33597,2,0,L|252:129,1,85,8|0,0:1|0:0,0:0:0:0:
341,64,33950,5,10,0:3:0:0:
298,69,34038,1,2,0:3:0:0:
255,66,34127,1,2,0:3:0:0:
213,55,34215,1,2,0:3:0:0:
175,34,34303,2,0,P|139:29|74:31,1,85,8|0,0:1|0:0,0:0:0:0:
29,141,34656,5,10,0:3:0:0:
38,169,34744,1,2,0:3:0:0:
47,197,34832,1,2,0:3:0:0:
56,225,34921,1,2,0:3:0:0:
67,252,35009,2,0,L|172:244,1,85,8|0,0:1|0:0,0:0:0:0:
279,254,35362,5,10,0:3:0:0:
299,260,35450,1,2,0:3:0:0:
316,272,35538,1,2,0:3:0:0:
327,290,35627,1,2,0:3:0:0:
334,309,35715,6,0,L|429:299,1,85,8|2,0:1|0:3,0:0:0:0:
439,305,35979,1,2,0:3:0:0:
456,317,36068,2,0,P|456:268|478:224,1,85,10|0,0:3|0:0,0:0:0:0:
507,113,36421,1,8,0:1:0:0:
346,57,36597,1,8,0:1:0:0:
346,57,36950,5,2,0:0:0:0:
294,125,37127,1,0,0:0:0:0:
210,112,37303,1,2,0:0:0:0:
262,44,37480,1,0,0:0:0:0:
346,57,37656,1,2,0:0:0:0:
375,136,37832,1,0,0:0:0:0:
323,204,38009,1,2,0:0:0:0:
238,195,38185,6,0,P|194:188|129:198,1,85,4|2,0:0|0:3,0:0:0:0:
30,225,38538,2,0,P|58:190|81:129,1,85,8|2,0:1|0:3,0:0:0:0:
73,132,38803,1,2,0:3:0:0:
64,112,38891,1,8,0:3:0:0:
159,196,39068,1,2,0:3:0:0:
259,118,39244,2,0,L|270:33,1,85,8|2,0:1|0:3,0:0:0:0:
339,141,39597,6,0,P|383:153|432:147,1,85,8|2,0:3|0:3,0:0:0:0:
491,257,39950,2,0,P|447:245|398:251,1,85,8|2,0:1|0:3,0:0:0:0:
392,262,40215,1,2,0:3:0:0:
379,278,40303,1,8,0:3:0:0:
294,183,40479,1,2,0:3:0:0:
174,229,40656,2,0,L|150:142,1,85,8|2,0:1|0:3,0:0:0:0:
214,35,41009,6,0,P|251:25|312:32,1,85,8|2,0:3|0:3,0:0:0:0:
387,118,41362,2,0,P|350:128|289:121,1,85,8|2,0:1|0:3,0:0:0:0:
282,127,41627,1,2,0:3:0:0:
263,137,41715,1,10,0:3:0:0:
357,222,41891,1,2,0:3:0:0:
461,147,42068,2,0,P|465:105|442:60,1,85,8|2,0:1|0:3,0:0:0:0:
342,138,42421,6,0,L|358:232,1,85,8|2,0:3|0:3,0:0:0:0:
267,314,42774,2,0,L|251:220,1,85,8|2,0:1|0:3,0:0:0:0:
239,213,43038,1,2,0:3:0:0:
219,204,43127,1,10,0:3:0:0:
122,287,43303,1,2,0:3:0:0:
43,187,43479,2,0,P|36:148|44:98,1,85,8|2,0:1|0:3,0:0:0:0:
148,31,43832,6,0,L|254:37,1,85,8|2,0:3|0:3,0:0:0:0:
325,124,44185,2,0,L|219:130,1,85,8|2,0:1|0:3,0:0:0:0:
224,143,44450,1,2,0:3:0:0:
213,161,44538,1,10,0:3:0:0:
293,260,44715,1,2,0:3:0:0:
394,183,44891,2,0,L|500:189,1,85,8|2,0:1|0:3,0:0:0:0:
377,264,45244,6,0,L|292:259,1,85,8|2,0:3|0:3,0:0:0:0:
185,187,45597,2,0,L|269:182,1,85,8|2,0:1|0:3,0:0:0:0:
289,172,45862,1,2,0:3:0:0:
302,155,45950,1,10,0:3:0:0:
219,57,46127,1,2,0:3:0:0:
120,137,46303,2,0,P|105:183|114:228,1,85,8|2,0:1|0:3,0:0:0:0:
217,287,46656,6,0,L|312:280,1,85,8|2,0:3|0:3,0:0:0:0:
400,199,47009,2,0,P|392:238|406:297,1,85,8|2,0:1|0:3,0:0:0:0:
415,296,47274,1,2,0:3:0:0:
434,304,47362,1,10,0:3:0:0:
479,185,47538,1,2,0:3:0:0:
376,108,47715,2,0,L|291:114,1,85,8|2,0:1|0:3,0:0:0:0:
180,49,48068,5,4,0:1:0:0:
180,49,48421,1,8,0:3:0:0:
138,155,48597,1,8,0:0:0:0:
138,155,48685,1,8,0:0:0:0:
138,155,48774,2,0,L|118:233,2,56.6666666666667,8|8|8,0:3|0:3|0:3,0:0:0:0:
209,243,49127,2,0,L|229:321,2,56.6666666666667,8|8|8,0:3|0:3|0:3,0:0:0:0:
318,271,49479,1,2,0:0:0:0:
431,154,56494,6,0,P|397:147|358:157,1,74.375
352,165,56891,5,4,0:1:0:0:
320,244,57244,1,8,0:3:0:0:
397,277,57597,1,8,0:3:0:0:
429,198,57950,1,8,0:3:0:0:
83,198,58303,5,4,0:0:0:0:
115,277,58656,1,8,0:3:0:0:
192,244,59009,1,8,0:3:0:0:
160,165,59362,1,8,0:3:0:0:
256,64,59715,5,4,0:1:0:0:
320,128,60068,1,8,0:3:0:0:
256,192,60421,1,8,0:3:0:0:
192,128,60774,1,8,0:3:0:0:
298,260,61127,5,8,0:0:0:0:
213,260,61303,1,8,0:0:0:0:
316,184,61479,1,8,0:0:0:0:
196,186,61656,1,8,0:0:0:0:
295,107,61832,1,8,0:0:0:0:
217,107,62009,1,8,0:0:0:0:
319,32,62185,1,8,0:0:0:0:
193,32,62362,1,8,0:0:0:0:
256,222,62538,6,0,P|304:229|351:218,1,85,4|2,0:1|0:3,0:0:0:0:
430,132,62891,2,0,P|382:125|335:136,1,85,8|2,0:1|0:3,0:0:0:0:
325,136,63156,1,2,0:3:0:0:
303,134,63244,1,10,0:3:0:0:
210,46,63421,1,2,0:3:0:0:
110,125,63597,2,0,L|100:221,1,85,8|2,0:1|0:3,0:0:0:0:
155,325,63950,6,0,P|193:336|257:331,1,85,8|2,0:3|0:3,0:0:0:0:
363,308,64303,2,0,P|405:307|446:318,1,85,8|2,0:1|0:3,0:0:0:0:
461,333,64568,1,2,0:3:0:0:
470,351,64656,2,0,L|503:270,1,85,10|2,0:3|0:3,0:0:0:0:
459,151,65009,1,8,0:1:0:0:
349,215,65185,1,8,0:0:0:0:
349,215,65274,1,8,0:0:0:0:
349,215,65362,6,0,P|309:220|245:207,1,85,8|2,0:3|0:3,0:0:0:0:
168,130,65715,2,0,P|208:125|272:138,1,85,8|2,0:1|0:3,0:0:0:0:
272,136,65979,1,2,0:3:0:0:
293,134,66068,1,10,0:3:0:0:
215,33,66244,1,2,0:3:0:0:
99,88,66421,2,0,P|89:127|104:178,1,85,8|2,0:1|0:3,0:0:0:0:
215,221,66774,6,0,L|313:214,1,85,8|2,0:3|0:3,0:0:0:0:
381,312,67127,2,0,L|283:305,1,85,8|2,0:1|0:3,0:0:0:0:
276,312,67391,1,2,0:3:0:0:
259,325,67479,1,10,0:3:0:0:
144,268,67656,1,2,0:3:0:0:
44,347,67832,1,8,0:1:0:0:
59,220,68009,1,8,0:0:0:0:
59,220,68097,1,8,0:0:0:0:
59,220,68185,6,0,P|64:176|54:132,1,85,4|2,0:1|0:3,0:0:0:0:
141,42,68538,2,0,P|136:86|146:130,1,85,8|0,0:3|0:0,0:0:0:0:
262,174,68891,2,0,L|452:163,1,170,8|8,0:1|0:3,0:0:0:0:
510,62,69421,1,8,0:1:0:0:
431,164,69597,1,8,0:3:0:0:
387,43,69774,1,8,0:1:0:0:
431,164,69950,1,8,0:3:0:0:
307,198,70127,1,8,0:0:0:0:
294,214,70215,1,8,0:0:0:0:
290,234,70303,6,0,L|184:230,1,85,2|8,0:3|0:3,0:0:0:0:
100,156,70656,1,8,0:1:0:0:
227,150,70832,1,8,0:3:0:0:
128,231,71009,1,4,0:0:0:0:
128,231,71185,1,8,0:3:0:0:
160,107,71362,6,0,P|192:80|239:72,1,85,8|0,0:1|0:0,0:0:0:0:
355,111,71715,1,8,0:3:0:0:
355,111,71891,1,8,0:3:0:0:
246,177,72068,2,0,L|255:277,1,85,8|0,0:1|0:0,0:0:0:0:
368,318,72421,1,8,0:3:0:0:
368,318,72597,1,8,0:3:0:0:
243,348,72774,2,0,P|206:347|152:356,1,85,8|0,0:1|0:0,0:0:0:0:
72,259,73127,6,0,L|56:189,2,56.6666666666667,8|8|8,0:1|0:1|0:1,0:0:0:0:
132,163,73479,2,0,L|148:93,2,56.6666666666667,8|8|8,0:1|0:1|0:1,0:0:0:0:
144,107,75244,5,4,0:1:0:0:
256,192,75332,12,0,79479,0:0:0:0:
