osu file format v14

[General]
AudioFilename: Anba - Attakain Dakara.mp3
AudioLeadIn: 0
PreviewTime: 61656
Countdown: 0
SampleSet: Soft
StackLeniency: 0.5
Mode: 0
LetterboxInBreaks: 0
WidescreenStoryboard: 1

[Editor]
DistanceSpacing: 1.5
BeatDivisor: 2
GridSize: 8
TimelineZoom: 8

[Metadata]
Title:Attakain Dakara
TitleUnicode:Attakain Dakara
Artist:Anba
ArtistUnicode:Anba
Creator:Ongaku
Version:Easy
Source:
Tags:honeyworks kumamushi hatsune miku vocaloid Because It's Warm Gero
BeatmapID:880440
BeatmapSetID:403741

[Difficulty]
HPDrainRate:2
CircleSize:2.5
OverallDifficulty:2
ApproachRate:1
SliderMultiplier:0.8
SliderTickRate:1

[Events]
//Background and Video events
0,0,"attakain-bg.jpg",0,0
//Break Periods
2,49679,55211
//Storyboard Layer 0 (Background)
//Storyboard Layer 1 (Fail)
//Storyboard Layer 2 (Pass)
//Storyboard Layer 3 (Foreground)
//Storyboard Sound Samples

[TimingPoints]
1480,352.941176470588,4,2,1,50,1,0
11362,-100,4,2,1,60,0,0
11715,-100,4,2,1,70,0,0
12068,-100,4,2,1,80,0,0
12421,-100,4,2,1,90,0,0
13479,-200,4,2,1,30,0,0
14185,-100,4,2,1,90,0,1
25391,-100,4,2,1,90,0,0
26891,-100,4,2,1,50,0,0
36950,-100,4,2,1,30,0,0
38185,-100,4,2,1,90,0,0
49479,-100,4,2,1,90,0,0
56494,-200,4,2,1,30,0,0
56891,-100,4,2,1,50,0,0
61127,-100,4,2,1,60,0,0
61479,-100,4,2,1,70,0,0
61832,-100,4,2,1,80,0,0
62538,-100,4,2,1,90,0,1
68185,-100,4,2,1,90,0,0
71009,-100,4,2,1,90,0,1
73832,-100,4,2,1,90,0,0
75332,-100,4,2,1,50,0,0

[HitObjects]
208,96,1480,6,0,B|144:192|144:192|208:320,1,240,8|8,0:3|0:3,0:0:0:0:
312,303,2891,2,0,B|368:192|368:192|304:96,1,240,8|8,0:3|0:3,0:0:0:0:
176,96,4303,2,0,L|416:96,1,240,8|8,0:3|0:3,0:0:0:0:
336,192,5715,2,0,L|96:192,1,240,8|8,0:3|0:3,0:0:0:0:
45,283,7127,5,4,0:1:0:0:
128,330,8538,1,4,0:0:0:0:
181,250,9950,2,0,L|421:250,1,240,4|8,0:1|0:1,0:0:0:0:
256,192,11362,12,8,12597,0:1:0:0:
368,144,14185,6,0,P|256:112|128:112,1,240,4|8,0:1|0:3,0:0:0:0:
64,208,15597,2,0,B|96:224|96:224|160:224,1,80,8|8,0:3|0:1,0:0:0:0:
192,336,16303,2,0,B|160:320|160:320|96:320,1,80,8|8,0:3|0:1,0:0:0:0:
42,224,17009,6,0,L|282:224,1,240,8|8,0:3|0:1,0:0:0:0:
384,192,18421,2,0,P|392:152|368:96,1,80,8|8,0:3|0:1,0:0:0:0:
264,80,19127,2,0,P|256:120|280:176,1,80,8|8,0:3|0:1,0:0:0:0:
192,256,19832,6,0,P|152:112|184:0,1,240,4|8,0:1|0:1,0:0:0:0:
341,26,21244,2,0,P|359:143|320:255,1,240,8|8,0:3|0:1,0:0:0:0:
256,360,22656,2,0,L|256:120,1,240,8|8,0:3|0:1,0:0:0:0:
152,176,24068,2,0,P|256:232|360:176,1,240,8|8,0:3|0:1,0:0:0:0:
416,72,25479,1,8,0:1:0:0:
416,72,26891,6,0,L|416:240,1,160,4|8,0:0|0:3,0:0:0:0:
328,144,27950,1,8,0:3:0:0:
240,224,28303,2,0,L|240:64,1,160,8|8,0:3|0:3,0:0:0:0:
312,296,29715,2,0,P|240:320|160:288,1,160,8|8,0:3|0:3,0:0:0:0:
240,200,30774,1,8,0:3:0:0:
312,104,31127,2,0,P|240:80|160:112,1,160,8|8,0:3|0:3,0:0:0:0:
336,280,32538,6,0,L|336:104,1,160,4|8,0:1|0:3,0:0:0:0:
176,120,33950,2,0,L|176:296,1,160,8|8,0:3|0:3,0:0:0:0:
336,280,35362,2,0,P|256:276|165:281,1,160,8|8,0:3|0:3,0:0:0:0:
256,192,36597,1,8,0:1:0:0:
304,272,38185,6,0,P|320:192|296:104,1,160,4|8,0:1|0:3,0:0:0:0:
256,24,39244,1,8,0:1:0:0:
209,116,39597,2,0,P|191:194|208:272,1,160,8|8,0:3|0:3,0:0:0:0:
312,272,40656,1,8,0:1:0:0:
256,184,41009,2,0,P|176:176|112:248,1,160,8|8,0:3|0:3,0:0:0:0:
208,272,42068,1,8,0:1:0:0:
312,256,42421,6,0,L|312:96,1,160,8|8,0:3|0:3,0:0:0:0:
256,8,43479,1,8,0:1:0:0:
200,96,43832,2,0,L|200:256,1,160,8|8,0:3|0:3,0:0:0:0:
256,344,44891,1,8,0:1:0:0:
312,256,45244,2,0,P|392:232|472:256,1,160,8|8,0:3|0:3,0:0:0:0:
200,256,46656,6,0,P|120:232|40:256,1,160,8|8,0:3|0:3,0:0:0:0:
256,192,48068,12,4,49479,0:0:0:0:
384,152,56891,6,0,L|280:152,1,80,4|8,0:1|0:3,0:0:0:0:
384,240,57597,2,0,L|280:240,1,80,8|8,0:3|0:3,0:0:0:0:
128,240,58303,2,0,L|208:240,1,80,8|8,0:3|0:3,0:0:0:0:
128,152,59009,2,0,L|208:152,1,80,4|8,0:0|0:3,0:0:0:0:
256,72,59715,2,0,L|256:248,1,160,4|8,0:1|0:3,0:0:0:0:
256,192,61127,12,4,62538,0:1:0:0:
256,296,63950,6,0,L|256:112,1,160,8|8,0:3|0:3,0:0:0:0:
256,16,65009,1,8,0:1:0:0:
152,80,65362,2,0,P|136:160|176:224,1,160,8|8,0:3|0:3,0:0:0:0:
256,136,66421,1,8,0:1:0:0:
336,223,66774,2,0,P|376:156|360:80,1,160,8|8,0:3|0:3,0:0:0:0:
256,16,67832,1,8,0:1:0:0:
256,136,68185,5,4,0:1:0:0:
416,136,68891,1,8,0:1:0:0:
256,136,69597,1,8,0:3:0:0:
96,136,70303,1,2,0:3:0:0:
256,136,71009,2,0,P|288:208|256:288,1,160,8|8,0:3|0:3,0:0:0:0:
163,213,72068,1,8,0:1:0:0:
142,94,72421,2,0,P|188:30|273:18,1,160,8|8,0:3|0:3,0:0:0:0:
392,104,73832,1,8,0:1:0:0:
392,104,75244,5,4,0:1:0:0:
256,192,75421,12,0,79479,0:0:0:0:
