osu file format v14

[General]
AudioFilename: audio.mp3
AudioLeadIn: 0
PreviewTime: 49365
Countdown: 0
SampleSet: Soft
StackLeniency: 0.7
Mode: 0
LetterboxInBreaks: 0
WidescreenStoryboard: 0

[Editor]
DistanceSpacing: 1.2
BeatDivisor: 4
GridSize: 16
TimelineZoom: 2.599999

[Metadata]
Title:Paid My Dues
TitleUnicode:Paid My Dues
Artist:Anastacia
ArtistUnicode:Anastacia
Creator:Voli
Version:Unstoppable
Source:
Tags:Freak of Nature Lyn Newkirk pachiru
BeatmapID:1365047
BeatmapSetID:643999

[Difficulty]
HPDrainRate:6
CircleSize:4
OverallDifficulty:7
ApproachRate:8.8
SliderMultiplier:2
SliderTickRate:1

[Events]
//Background and Video events
0,0,"pmd.jpg",0,0
//Break Periods
//Storyboard Layer 0 (Background)
//Storyboard Layer 1 (Fail)
//Storyboard Layer 2 (Pass)
//Storyboard Layer 3 (Foreground)
//Storyboard Sound Samples

[TimingPoints]
220,618.556701030928,4,2,3,30,1,0
1147,-200,4,2,3,30,0,0
2384,-200,4,2,3,5,0,0
2694,-200,4,2,3,30,0,0
4859,-200,4,2,3,5,0,0
5168,-200,4,2,3,30,0,0
5787,-133.333333333333,4,2,3,30,0,0
6096,-133.333333333333,4,2,3,15,0,0
6405,-133.333333333333,4,2,3,30,0,0
7333,-133.333333333333,4,2,3,15,0,0
7642,-200,4,2,3,30,0,0
9807,-200,4,2,3,5,0,0
10086,618.556701030928,4,2,1,30,1,0
10086,-133.333333333333,4,2,1,30,0,0
11014,-133.333333333333,4,2,1,30,0,0
15963,-133.333333333333,4,2,1,15,0,0
16272,-133.333333333333,4,2,1,30,0,0
17200,-133.333333333333,4,2,1,15,0,0
17509,-133.333333333333,4,2,1,30,0,0
19055,-133.333333333333,4,2,1,15,0,0
19364,-133.333333333333,4,2,1,30,0,0
19982,-80,4,2,1,60,0,0
20214,-80,4,2,1,5,0,0
20293,-80,4,2,1,60,0,0
20524,-80,4,2,1,5,0,0
20601,-80,4,2,1,60,0,0
22689,-80,4,2,1,5,0,0
22766,-80,4,2,1,60,0,0
22998,-80,4,2,1,5,0,0
23075,-80,4,2,1,60,0,0
25163,-80,4,2,1,5,0,0
25240,-80,4,2,1,50,0,0
25472,-80,4,2,1,5,0,0
25549,-80,4,2,1,60,0,0
26400,-80,4,2,1,5,0,0
26477,-80,4,2,1,60,0,0
26709,-80,4,2,1,5,0,0
26786,-80,4,2,1,60,0,0
27405,-66.6666666666667,4,2,1,60,0,0
29106,-80,4,2,1,60,0,0
29879,-80,4,2,1,60,0,0
30111,-80,4,2,1,5,0,0
30189,-80,4,2,1,60,0,0
30420,-80,4,2,1,5,0,0
30498,-80,4,2,1,60,0,0
31735,-80,4,2,1,60,0,0
32353,-80,4,2,1,60,0,0
32585,-80,4,2,1,5,0,0
32663,-80,4,2,1,60,0,0
32895,-80,4,2,1,5,0,0
32972,-80,4,2,1,60,0,0
35060,-80,4,2,1,5,0,0
35137,-80,4,2,1,60,0,0
35369,-80,4,2,1,5,0,0
35446,-80,4,2,1,60,0,0
36297,-80,4,2,1,5,0,0
36374,-80,4,2,1,60,0,0
36606,-80,4,2,1,5,0,0
36683,-80,4,2,1,60,0,0
38539,-133.333333333333,4,2,1,60,0,0
39003,-133.333333333333,4,2,1,60,0,0
39158,-100,4,2,1,60,0,0
39776,-80,4,2,1,80,0,0
41941,-100,4,2,1,80,0,0
42173,-80,4,2,1,5,0,0
42250,-80,4,2,1,80,0,0
44957,-80,4,2,1,5,0,0
45034,-80,4,2,1,80,0,0
45962,-74.0740740740741,4,2,1,80,0,0
46194,-74.0740740740741,4,2,1,5,0,0
46271,-74.0740740740741,4,2,1,80,0,0
47199,-66.6666666666667,4,2,1,80,0,0
47431,-66.6666666666667,4,2,1,5,0,0
47508,-66.6666666666667,4,2,1,80,0,0
48513,-66.6666666666667,4,2,1,70,0,0
48591,-66.6666666666667,4,2,1,60,0,0
48668,-66.6666666666667,4,2,1,40,0,0
48745,-66.6666666666667,4,2,1,30,0,0
48900,-66.6666666666667,4,2,1,80,0,0
49054,-80,4,2,1,80,0,0
49673,-62.5,4,2,1,80,0,1
54621,-50,4,2,1,80,0,1
54853,-50,4,2,1,5,0,1
54931,-50,4,2,1,80,0,1
55163,-50,4,2,1,5,0,1
55240,-50,4,2,1,80,0,1
56091,-50,4,2,1,5,0,1
56168,-50,4,2,1,80,0,1
56400,-50,4,2,1,5,0,1
56477,-50,4,2,1,80,0,1
57096,-66.6666666666667,4,2,1,80,0,1
57328,-66.6666666666667,4,2,1,5,0,1
57405,-66.6666666666667,4,2,1,80,0,1
57637,-66.6666666666667,4,2,1,5,0,1
57714,-66.6666666666667,4,2,1,80,0,1
59570,-62.5,4,2,1,80,0,1
64518,-50,4,2,1,80,0,1
64750,-50,4,2,1,5,0,1
64828,-50,4,2,1,80,0,1
65060,-50,4,2,1,5,0,1
65137,-50,4,2,1,80,0,1
65987,-50,4,2,1,5,0,1
66065,-50,4,2,1,80,0,1
66297,-50,4,2,1,5,0,1
66374,-50,4,2,1,80,0,1
66993,-66.6666666666667,4,2,1,80,0,1
69467,-62.5,4,2,1,80,0,0

[Colours]
Combo1 : 247,209,172
Combo2 : 145,136,225
Combo3 : 255,174,94
Combo4 : 249,77,77
Combo5 : 85,91,170

[HitObjects]
96,112,220,5,2,0:0:0:0:
253,256,529,1,0,0:0:0:0:
256,96,838,1,0,0:0:0:0:
183,196,1147,2,0,P|167:289|243:348,1,200
101,129,2694,5,2,0:0:0:0:
256,96,3003,1,0,0:0:0:0:
253,256,3312,1,0,0:0:0:0:
314,172,3622,2,0,B|411:139|411:204|508:172,1,200
365,274,5168,5,2,0:0:0:0:
314,172,5477,1,0,0:0:0:0:
365,274,5787,2,0,L|357:358,1,75,2|0,0:0|0:0,0:0:0:0:
226,233,6405,5,2,0:0:0:0:
165,355,6714,1,0,0:0:0:0:
226,233,7024,2,0,L|231:155,1,75,2|0,0:0|0:0,0:0:0:0:
50,34,7642,5,2,0:0:0:0:
123,180,7951,1,0,0:0:0:0:
43,127,8261,1,0,0:0:0:0:
131,84,8570,5,0,0:0:0:0:
256,192,8647,12,0,9807,0:0:0:0:
69,197,10086,5,2,0:0:0:0:
344,164,10395,1,0,0:0:0:0:
206,180,10704,1,0,0:0:0:0:
361,267,11013,2,0,B|371:106|371:106|341:168,1,225.000008583069
219,291,12560,5,2,0:0:0:0:
192,71,12869,1,0,0:0:0:0:
206,180,13178,1,0,0:0:0:0:
192,71,13488,2,0,P|105:135|116:242,1,225.000008583069
333,262,15034,5,2,0:0:0:0:
206,180,15343,1,0,0:0:0:0:
333,262,15653,2,0,P|366:278|403:279,1,75.0000028610231,2|0,0:0|0:0,0:0:0:0:
212,131,16271,5,2,0:0:0:0:
386,185,16580,1,0,0:0:0:0:
212,131,16890,2,0,P|179:148|142:153,1,75.0000028610231,2|0,0:0|0:0,0:0:0:0:
341,3,17508,5,2,0:0:0:0:
386,184,17817,1,0,0:0:0:0:
418,60,18127,1,0,0:0:0:0:
309,128,18436,2,0,B|291:238|291:238|330:285,1,150.000005722046
315,267,19364,1,0,3:0:0:0:
92,88,19982,6,0,L|193:77,1,93.75,4|0,1:2|0:0,0:0:0:0:
24,143,20292,2,0,P|4:94|26:35,1,93.75,4|0,3:0|0:0,0:0:0:0:
131,169,20601,2,0,L|121:310,1,125,0|0,1:0|0:0,0:0:0:0:
198,369,21065,1,0,0:0:0:0:
259,246,21220,6,0,B|306:252|306:252|327:272|327:272|381:281,1,125,2|2,3:2|0:0,0:0:0:0:
506,195,21683,2,0,B|458:186|458:186|437:166|437:166|390:159,1,125,0|0,3:0|0:0,0:0:0:0:
313,89,22147,1,0,0:0:0:0:
60,7,22457,6,0,L|77:104,1,93.75,0|0,1:0|0:0,0:0:0:0:
22,186,22766,2,0,P|66:200|112:193,1,93.75,4|0,3:0|0:0,0:0:0:0:
207,120,23075,2,0,L|191:36,2,62.5,0|0|0,1:0|0:0|0:0,0:0:0:0:
336,139,23539,6,0,L|347:200,1,62.5,2|0,0:0|3:0,0:0:0:0:
362,309,23848,1,2,0:0:0:0:
362,309,24003,2,0,P|418:284|451:232,1,125,2|2,0:0|1:2,0:0:0:0:
313,57,24622,1,2,3:2:0:0:
248,286,24931,6,0,B|179:293|179:293|156:274,1,93.75,0|0,1:0|0:0,0:0:0:0:
84,187,25240,2,0,B|152:179|152:179|176:199,1,93.75,4|0,3:0|0:0,0:0:0:0:
16,237,25549,2,0,P|0:178|27:124,1,125,0|0,1:0|0:0,0:0:0:0:
110,55,26013,1,0,0:0:0:0:
215,113,26168,6,0,L|337:127,1,93.75,0|0,1:0|0:0,0:0:0:0:
412,204,26477,2,0,L|289:218,1,93.75,4|0,3:0|0:0,0:0:0:0:
415,80,26787,2,0,B|423:154|423:154|406:227,1,125,0|0,1:0|0:0,0:0:0:0:
132,188,27405,6,0,P|77:179|35:142,2,112.500004291535,2|2|2,1:2|0:2|0:0,0:0:0:0:
217,183,28024,1,2,0:0:0:0:
316,36,28178,2,0,B|299:33|294:19|294:19|268:26|252:22|252:22|243:49|225:59|225:59|237:82|232:104|232:104|254:107|271:124|271:124|285:120,2,225.000008583069,2|0|0,0:0|3:0|3:0,0:0:0:0:
217,183,29261,5,2,1:2:0:0:
145,97,29415,2,0,P|137:69|146:27,1,62.5,2|0,0:2|3:0,0:0:0:0:
316,36,29879,6,0,P|351:47|412:38,1,93.75,0|0,1:0|0:0,0:0:0:0:
311,126,30189,2,0,P|302:80|315:35,1,93.75,4|0,3:0|0:0,0:0:0:0:
382,173,30498,2,0,B|332:213|332:213|272:198,1,125,0|0,1:0|0:0,0:0:0:0:
50,60,31116,5,0,3:0:0:0:
50,60,31271,1,0,0:0:0:0:
126,135,31426,2,0,L|122:197,1,62.5,2|0,0:0|3:0,0:0:0:0:
40,311,31735,2,0,B|35:224|35:224|7:180,1,125,2|0,1:2|0:0,0:0:0:0:
228,92,32354,6,0,L|223:186,1,93.75,0|0,1:0|0:0,0:0:0:0:
315,142,32663,2,0,L|409:148,1,93.75,4|0,3:0|0:0,0:0:0:0:
300,239,32972,2,0,P|250:275|188:273,1,125,0|0,1:0|0:0,0:0:0:0:
315,142,33436,1,0,0:0:0:0:
392,245,33591,6,0,L|388:307,1,62.5,2|2,3:2|0:0,0:0:0:0:
479,364,33900,1,2,0:0:0:0:
496,229,34055,2,0,L|489:100,1,125,2|0,0:0|0:0,0:0:0:0:
394,105,34518,2,0,L|316:98,1,62.5,2|2,0:0|0:0,0:0:0:0:
175,165,34828,6,0,P|130:179|86:165,1,93.75,0|0,1:0|0:0,0:0:0:0:
129,78,35137,2,0,P|173:64|217:78,1,93.75,4|0,3:0|0:0,0:0:0:0:
286,167,35446,2,0,B|268:146|268:146|257:242,1,125,0|0,1:0|0:0,0:0:0:0:
339,34,36065,6,0,B|408:27|408:27|431:46,1,93.75,0|0,1:0|0:0,0:0:0:0:
503,133,36374,2,0,B|435:141|435:141|411:121,1,93.75,4|0,3:0|0:0,0:0:0:0:
490,222,36683,2,0,P|479:283|435:327,1,125,0|0,1:0|0:0,0:0:0:0:
110,130,37302,6,0,L|258:149,2,125,0|0|0,1:0|3:0|1:0,0:0:0:0:
354,43,38230,1,0,3:0:0:0:
172,263,38539,6,0,L|288:277,1,112.500004291535,4|4,3:0|3:0,0:0:0:0:
107,318,39158,6,0,P|87:272|98:224,1,100,0|0,1:0|3:0,0:0:0:0:
339,23,39776,6,0,B|363:80|322:84|348:144,1,125,4|0,3:1|0:0,0:0:0:0:
144,169,40240,2,0,P|193:133|254:143,1,125,2|0,0:0|0:0,0:0:0:0:
418,190,40704,2,0,P|368:225|307:215,1,125,2|0,0:0|3:0,0:0:0:0:
223,332,41168,2,0,B|196:271|238:267|213:210,1,125,2|0,0:0|3:0,0:0:0:0:
102,38,41632,1,0,1:0:0:0:
359,127,41941,2,0,L|447:113,1,75,0|0,3:0|0:0,0:0:0:0:
377,34,42250,6,0,L|234:55,1,125,4|0,3:1|0:0,0:0:0:0:
126,128,42714,2,0,L|268:149,1,125,2|0,0:0|0:0,0:0:0:0:
386,256,43178,2,0,L|243:234,1,125,2|0,0:0|3:0,0:0:0:0:
135,350,43642,2,0,L|277:328,1,125,2|0,0:0|3:0,0:0:0:0:
444,128,44106,1,0,1:0:0:0:
461,338,44415,1,0,3:0:0:0:
345,156,44725,6,0,P|343:110|361:68,1,93.75,4|0,3:1|0:0,0:0:0:0:
361,66,45034,5,2,0:0:0:0:
444,128,45189,2,0,B|455:221|455:221|427:268,1,125,2|0,0:0|0:0,0:0:0:0:
358,358,45653,1,2,0:0:0:0:
233,163,45962,6,0,B|248:46,1,101.250000386238,4|0,3:1|0:0,0:0:0:0:
245,62,46271,5,2,0:0:0:0:
118,135,46426,2,0,B|125:191|125:191|150:212|150:212|156:257,1,135.000000514984,2|0,0:0|0:0,0:0:0:0:
30,69,46890,1,2,3:2:0:0:
323,137,47199,6,0,B|284:180|284:180|230:161,1,112.500004291535,4|0,3:1|0:0,0:0:0:0:
270,70,47508,2,0,P|303:53|340:54,1,75.0000028610231,2|2,3:2|0:2,0:0:0:0:
401,247,47817,2,0,B|371:173|430:173|401:100,1,150.000005722046,2|2,1:2|3:2,0:0:0:0:
479,211,48281,1,2,0:0:0:0:
323,137,48436,22,0,L|290:146,8,18.7500007152558,2|2|2|2|2|2|2|2|2,0:0|0:0|0:0|0:0|0:0|0:0|0:0|0:0|0:0,0:0:0:0:
479,211,48900,1,0,3:0:0:0:
286,238,49055,2,0,L|225:221,1,62.5,0|0,1:0|0:0,0:0:0:0:
211,122,49364,1,0,1:0:0:0:
211,122,49518,1,0,1:0:0:0:
416,49,49673,6,0,B|412:165|412:165|373:210,1,160,4|0,3:1|0:0,0:0:0:0:
319,321,50137,2,0,B|290:288|290:288|287:171,1,160,2|0,0:0|0:0,0:0:0:0:
178,58,50601,2,0,P|100:57|42:109,1,160,2|0,0:0|3:0,0:0:0:0:
86,295,51065,2,0,P|138:237|137:159,1,160,2|0,0:0|3:0,0:0:0:0:
234,310,51529,2,0,B|349:327|349:327|387:304,1,160,0|0,1:0|3:0,0:0:0:0:
380,40,52147,6,0,B|388:103|388:103|376:140|376:140|385:209,1,160,4|0,3:0|0:0,0:0:0:0:
244,170,52611,2,0,B|236:107|236:107|248:70|248:70|240:12,1,160,2|0,0:0|0:0,0:0:0:0:
306,239,53075,2,0,P|232:260|163:214,1,160,2|0,0:0|3:0,0:0:0:0:
20,81,53539,2,0,P|94:102|163:55,1,160,2|0,0:0|3:0,0:0:0:0:
11,245,54003,1,0,1:0:0:0:
81,10,54312,1,0,3:0:0:0:
371,138,54622,22,0,P|305:123|238:183,1,150,4|0,1:0|0:0,0:0:0:0:
321,210,54931,2,0,P|387:201|370:137,1,150,4|0,3:0|0:0,0:0:0:0:
288,330,55240,2,0,B|435:299|435:299|476:254,1,200,0|0,1:0|0:0,0:0:0:0:
223,53,55859,6,0,B|76:84,1,150,4|0,1:0|0:0,0:0:0:0:
78,226,56168,2,0,B|53:152|53:152|78:79,1,150,4|0,3:0|0:0,0:0:0:0:
164,235,56477,2,0,P|107:310|15:288,1,200,0|0,1:0|0:0,0:0:0:0:
358,106,57096,6,0,L|359:228,1,112.500004291535,4|0,3:0|0:0,0:0:0:0:
274,242,57405,2,0,L|274:129,1,112.500004291535,0|0,3:0|0:0,0:0:0:0:
295,48,57714,1,0,1:0:0:0:
507,59,58024,1,0,3:0:0:0:
485,294,58333,6,0,B|459:255|459:255|478:152,1,150.000005722046,4|0,3:0|0:0,0:0:0:0:
358,106,58797,1,0,3:0:0:0:
319,257,58951,2,0,P|268:309|195:308,1,150.000005722046,0|0,1:0|3:0,0:0:0:0:
40,115,59570,6,0,P|93:67|179:77,1,160,4|0,3:1|0:0,0:0:0:0:
313,37,60034,2,0,P|236:26|176:75,1,160,2|0,0:0|0:0,0:0:0:0:
250,274,60498,2,0,L|260:115,1,160,2|0,0:0|3:0,0:0:0:0:
394,199,60962,2,0,L|404:358,1,160,2|0,0:0|3:0,0:0:0:0:
352,117,61426,2,0,B|432:85|432:149|512:117,1,160,0|0,1:0|3:0,0:0:0:0:
247,16,62044,6,0,B|180:57|180:57|159:135,1,160,4|0,3:0|0:0,0:0:0:0:
186,297,62508,2,0,B|253:256|253:256|273:177,1,160,2|0,0:0|0:0,0:0:0:0:
37,275,62972,2,0,P|84:304|190:294,1,160,2|0,0:0|3:0,0:0:0:0:
326,296,63436,2,0,P|403:309|474:275,1,160,2|0,0:0|3:0,0:0:0:0:
252,69,63900,1,0,1:0:0:0:
388,191,64209,1,0,3:0:0:0:
106,65,64518,38,0,B|213:54|213:54|253:70,1,150,4|0,1:0|0:0,0:0:0:0:
124,168,64828,2,0,P|73:133|117:62,1,150,4|0,3:0|0:0,0:0:0:0:
222,264,65137,2,2,L|23:243,1,200,0|0,1:0|0:0,0:1:0:0:
300,189,65756,54,0,P|329:256|311:328,1,150,4|0,1:0|0:0,0:0:0:0:
449,204,66065,2,0,L|300:189,1,150,4|0,3:0|0:0,0:0:0:0:
256,44,66374,2,2,B|320:49|320:49|378:32|378:32|452:40,1,200,0|0,1:0|0:0,0:1:0:0:
128,192,66993,21,4,3:0:0:0:
256,44,67302,1,0,3:0:0:0:
256,340,67611,1,0,1:0:0:0:
384,192,67921,1,0,3:0:0:0:
67,52,68230,38,0,P|122:102|195:114,1,150.000005722046,4|0,3:0|3:0,0:0:0:0:
316,114,68694,2,0,P|389:102|444:52,1,150.000005722046,4|0,3:0|3:0,0:0:0:0:
256,44,69158,1,4,3:0:0:0:
256,340,69467,5,4,3:1:0:0:
